osu file format v14

[General]
AudioFilename: audio.ogg
AudioLeadIn: 0
PreviewTime: 48406
Countdown: 0
SampleSet: Soft
StackLeniency: 0.7
Mode: 3
LetterboxInBreaks: 0
SpecialStyle: 0
WidescreenStoryboard: 1

[Editor]
DistanceSpacing: 1.8
BeatDivisor: 2
GridSize: 8
TimelineZoom: 2.2

[Metadata]
Title:PIRI
TitleUnicode:피리
Artist:Dreamcatcher
ArtistUnicode:드림캐쳐
Creator:Gahyeonln
Version:Nabi's Insane
Source:
Tags:4th Mini The End of Nightmare deukae 유현 yoohyeon 가현 gahyeon 수아 sua 지우 jiu 다미 dami 한동 handong 시연 siyeon k-pop kpop pop korean leez Ollounder nabi- famoss
BeatmapID:3317331
BeatmapSetID:1623432

[Difficulty]
HPDrainRate:7.8
CircleSize:4
OverallDifficulty:7.8
ApproachRate:5
SliderMultiplier:1.4
SliderTickRate:1

[Events]
//Background and Video events
0,0,"3.jpg",0,0
//Break Periods
//Storyboard Layer 0 (Background)
//Storyboard Layer 1 (Fail)
//Storyboard Layer 2 (Pass)
//Storyboard Layer 3 (Foreground)
//Storyboard Layer 4 (Overlay)
//Storyboard Sound Samples

[TimingPoints]
4642,352.941176470588,4,2,1,60,1,0
49818,-100,4,2,1,60,0,1
59700,-100,4,2,1,60,0,0
61112,-100,4,2,1,60,0,1
72406,-100,4,2,1,60,0,0
120406,-100,4,2,1,60,0,1
130289,-100,4,2,1,60,0,0
131700,-100,4,2,1,60,0,1
142994,-100,4,2,1,60,0,0
179700,-100,4,2,1,60,0,1
189583,-100,4,2,1,60,0,0
190994,-100,4,2,1,60,0,1
202289,-100,4,2,1,60,0,0

[HitObjects]
64,192,406,128,0,2171:0:0:0:0:
192,192,406,128,0,2053:0:0:0:0:
320,192,406,128,0,1936:0:0:0:0:
64,192,4642,1,0,0:0:0:70:clap07.wav
320,192,4642,1,0,0:0:0:0:
448,192,4642,1,0,0:0:0:0:
64,192,4818,1,0,0:0:0:0:
192,192,4994,1,0,0:0:0:70:clap07.wav
320,192,4994,1,0,0:0:0:0:
448,192,4994,1,0,0:0:0:0:
192,192,5171,1,0,0:0:0:0:
64,192,5347,1,0,0:0:0:70:clap07.wav
320,192,5347,1,0,0:0:0:0:
448,192,5347,1,0,0:0:0:0:
320,192,5524,1,0,0:0:0:0:
64,192,5700,1,0,0:0:0:70:clap07.wav
320,192,5700,1,0,0:0:0:0:
448,192,5700,1,0,0:0:0:0:
448,192,5877,1,0,0:0:0:0:
64,192,6053,1,0,0:0:0:70:clap07.wav
192,192,6053,1,0,0:0:0:0:
320,192,6053,1,0,0:0:0:0:
64,192,6230,1,0,0:0:0:0:
192,192,6406,1,0,0:0:0:70:clap07.wav
320,192,6406,1,0,0:0:0:0:
448,192,6406,1,0,0:0:0:0:
320,192,6583,1,0,0:0:0:0:
64,192,6759,1,0,0:0:0:70:clap07.wav
192,192,6759,1,0,0:0:0:0:
448,192,6759,1,0,0:0:0:0:
192,192,6936,1,0,0:0:0:0:
64,192,7112,1,0,0:0:0:70:clap07.wav
320,192,7112,1,0,0:0:0:0:
448,192,7112,1,0,0:0:0:0:
320,192,7289,1,0,0:0:0:0:
64,192,7465,1,0,0:0:0:70:clap07.wav
192,192,7465,1,0,0:0:0:0:
448,192,7465,1,0,0:0:0:0:
448,192,7641,1,0,0:0:0:0:
64,192,7818,1,0,0:0:0:70:clap07.wav
192,192,7818,1,0,0:0:0:0:
320,192,7818,1,0,0:0:0:0:
320,192,7994,1,0,0:0:0:0:
64,192,8171,1,0,0:0:0:70:clap07.wav
192,192,8171,1,0,0:0:0:0:
448,192,8171,1,0,0:0:0:0:
192,192,8347,1,0,0:0:0:0:
64,192,8524,1,0,0:0:0:70:clap07.wav
192,192,8524,1,0,0:0:0:0:
448,192,8524,1,0,0:0:0:0:
64,192,8700,1,0,0:0:0:0:
192,192,8877,1,0,0:0:0:70:clap07.wav
320,192,8877,1,0,0:0:0:0:
448,192,8877,1,0,0:0:0:0:
448,192,9053,1,0,0:0:0:0:
64,192,9230,1,0,0:0:0:70:clap07.wav
192,192,9230,1,0,0:0:0:0:
320,192,9230,1,0,0:0:0:0:
192,192,9406,1,0,0:0:0:0:
64,192,9583,1,0,0:0:0:70:clap07.wav
320,192,9583,1,0,0:0:0:0:
448,192,9583,1,0,0:0:0:0:
320,192,9759,1,0,0:0:0:0:
64,192,9936,1,0,0:0:0:70:clap07.wav
192,192,9936,1,0,0:0:0:0:
448,192,9936,1,0,0:0:0:0:
192,192,10112,1,0,0:0:0:0:
64,192,10289,1,0,0:0:0:70:clap07.wav
320,192,10289,1,0,0:0:0:0:
448,192,10289,1,0,0:0:0:0:
64,192,10465,1,0,0:0:0:0:
192,192,10641,1,0,0:0:0:70:clap07.wav
320,192,10641,1,0,0:0:0:0:
448,192,10641,1,0,0:0:0:0:
192,192,10818,1,0,0:0:0:0:
64,192,10994,1,0,0:0:0:70:clap07.wav
320,192,10994,1,0,0:0:0:0:
448,192,10994,1,0,0:0:0:0:
320,192,11171,1,0,0:0:0:0:
64,192,11347,1,0,0:0:0:70:clap07.wav
320,192,11347,1,0,0:0:0:0:
448,192,11347,1,0,0:0:0:0:
448,192,11524,1,0,0:0:0:0:
64,192,11700,1,0,0:0:0:70:clap07.wav
192,192,11700,1,0,0:0:0:0:
320,192,11700,1,0,0:0:0:0:
64,192,11877,1,0,0:0:0:0:
192,192,12053,1,0,0:0:0:70:clap07.wav
320,192,12053,1,0,0:0:0:0:
448,192,12053,1,0,0:0:0:0:
320,192,12230,1,0,0:0:0:0:
64,192,12406,1,0,0:0:0:70:clap07.wav
192,192,12406,1,0,0:0:0:0:
448,192,12406,1,0,0:0:0:0:
192,192,12583,1,0,0:0:0:0:
64,192,12759,1,0,0:0:0:70:clap07.wav
320,192,12759,1,0,0:0:0:0:
448,192,12759,1,0,0:0:0:0:
320,192,12936,1,0,0:0:0:0:
64,192,13112,1,0,0:0:0:70:clap07.wav
192,192,13112,1,0,0:0:0:0:
448,192,13112,1,0,0:0:0:0:
448,192,13289,1,0,0:0:0:0:
64,192,13465,1,0,0:0:0:70:clap07.wav
192,192,13465,1,0,0:0:0:0:
320,192,13465,1,0,0:0:0:0:
320,192,13641,1,0,0:0:0:0:
64,192,13818,1,0,0:0:0:70:clap07.wav
192,192,13818,1,0,0:0:0:0:
448,192,13818,1,0,0:0:0:0:
192,192,13994,1,0,0:0:0:0:
64,192,14171,1,0,0:0:0:70:clap07.wav
192,192,14171,1,0,0:0:0:0:
448,192,14171,1,0,0:0:0:0:
64,192,14347,1,0,0:0:0:0:
448,192,14877,128,0,15053:0:0:0:0:
448,192,15230,128,0,15406:0:0:0:0:
448,192,15583,128,0,15759:0:0:0:0:
64,192,15936,1,2,0:0:0:0:
320,192,15936,1,0,0:0:0:70:clap07.wav
448,192,15936,1,0,0:0:0:0:
448,192,16112,1,0,0:0:0:0:
64,192,16289,1,0,0:0:0:70:clap07.wav
192,192,16289,1,0,0:0:0:0:
320,192,16465,1,0,0:0:0:0:
64,192,16641,1,0,0:0:0:70:clap07.wav
448,192,16641,1,0,0:0:0:0:
192,192,16818,1,0,0:0:0:0:
192,192,16994,1,2,0:0:0:0:
448,192,16994,1,0,0:0:0:70:clap07.wav
64,192,17171,1,0,0:0:0:0:
320,192,17171,1,0,0:0:0:0:
448,192,17171,1,0,0:0:0:0:
192,192,17347,1,0,0:0:0:70:clap07.wav
320,192,17347,1,0,0:0:0:0:
64,192,17524,1,0,0:0:0:0:
192,192,17524,1,0,0:0:0:0:
448,192,17524,1,0,0:0:0:0:
192,192,17700,1,0,0:0:0:70:clap07.wav
320,192,17700,1,0,0:0:0:0:
64,192,18053,1,0,0:0:0:70:clap07.wav
320,192,18053,1,0,0:0:0:0:
448,192,18053,1,0,0:0:0:0:
192,192,18406,1,0,0:0:0:0:
320,192,18494,1,0,0:0:0:0:
192,192,18583,1,0,0:0:0:0:
320,192,18671,1,0,0:0:0:0:
64,192,18759,1,2,0:0:0:0:
448,192,18759,1,0,0:0:0:70:clap07.wav
64,192,18936,1,0,0:0:0:0:
320,192,19112,1,0,0:0:0:70:clap07.wav
448,192,19112,1,0,0:0:0:0:
192,192,19289,1,0,0:0:0:0:
64,192,19465,1,0,0:0:0:70:clap07.wav
448,192,19465,1,0,0:0:0:0:
192,192,19641,1,0,0:0:0:0:
320,192,19641,1,0,0:0:0:0:
448,192,19641,1,0,0:0:0:0:
64,192,19818,1,2,0:0:0:0:
192,192,19818,1,0,0:0:0:70:clap07.wav
320,192,19994,1,0,0:0:0:0:
448,192,19994,1,0,0:0:0:0:
64,192,20171,128,0,20436:0:0:0:70:clap07.wav
192,192,20171,1,0,0:0:0:0:
320,192,20347,1,0,0:0:0:0:
448,192,20347,1,0,0:0:0:0:
64,192,20524,128,0,20789:0:0:0:70:clap07.wav
448,192,20524,1,0,0:0:0:0:
64,192,20877,1,0,0:0:0:70:clap07.wav
320,192,20877,1,0,0:0:0:0:
448,192,20877,1,0,0:0:0:0:
192,192,21230,1,0,0:0:0:0:
320,192,21318,1,0,0:0:0:0:
192,192,21406,1,0,0:0:0:0:
320,192,21494,1,0,0:0:0:0:
64,192,21583,1,2,0:0:0:0:
448,192,21583,1,0,0:0:0:70:clap07.wav
64,192,21759,1,0,0:0:0:0:
320,192,21936,1,0,0:0:0:70:clap07.wav
448,192,21936,1,0,0:0:0:0:
192,192,22112,1,0,0:0:0:0:
64,192,22289,1,0,0:0:0:70:clap07.wav
448,192,22289,1,0,0:0:0:0:
320,192,22465,1,0,0:0:0:0:
64,192,22641,1,2,0:0:0:0:
320,192,22641,1,0,0:0:0:70:clap07.wav
64,192,22818,1,0,0:0:0:0:
192,192,22818,1,0,0:0:0:0:
448,192,22818,1,0,0:0:0:0:
192,192,22994,1,0,0:0:0:70:clap07.wav
320,192,22994,1,0,0:0:0:0:
64,192,23112,1,0,0:0:0:0:
320,192,23171,1,0,0:0:0:0:
448,192,23171,1,0,0:0:0:0:
192,192,23230,1,0,0:0:0:0:
64,192,23347,1,0,0:0:0:70:clap07.wav
448,192,23347,1,0,0:0:0:0:
320,192,23465,1,0,0:0:0:0:
192,192,23524,1,0,0:0:0:0:
448,192,23583,1,0,0:0:0:0:
320,192,23641,1,0,0:0:0:0:
64,192,23700,1,0,0:0:0:70:clap07.wav
192,192,23700,1,0,0:0:0:0:
320,192,23818,1,0,0:0:0:0:
448,192,23936,1,0,0:0:0:0:
192,192,24053,1,0,0:0:0:0:
320,192,24141,1,0,0:0:0:0:
192,192,24230,1,0,0:0:0:0:
320,192,24318,1,0,0:0:0:0:
64,192,24406,1,2,0:0:0:0:
448,192,24406,1,0,0:0:0:70:clap07.wav
64,192,24583,1,0,0:0:0:0:
192,192,24759,1,0,0:0:0:70:clap07.wav
320,192,24759,1,0,0:0:0:0:
320,192,24936,1,0,0:0:0:0:
64,192,25112,1,0,0:0:0:70:clap07.wav
448,192,25112,1,0,0:0:0:0:
64,192,25289,1,0,0:0:0:0:
192,192,25289,1,0,0:0:0:0:
320,192,25289,1,0,0:0:0:0:
320,192,25465,1,2,0:0:0:0:
448,192,25465,1,0,0:0:0:70:clap07.wav
64,192,25641,1,0,0:0:0:0:
192,192,25641,1,0,0:0:0:0:
448,192,25641,1,0,0:0:0:0:
192,192,25818,1,0,0:0:0:70:clap07.wav
320,192,25818,1,0,0:0:0:0:
64,192,25936,1,0,0:0:0:0:
320,192,25994,1,0,0:0:0:0:
448,192,25994,1,0,0:0:0:0:
192,192,26053,1,0,0:0:0:0:
64,192,26171,1,0,0:0:0:70:clap07.wav
448,192,26171,1,0,0:0:0:0:
320,192,26289,1,0,0:0:0:0:
192,192,26347,1,0,0:0:0:0:
448,192,26406,1,0,0:0:0:0:
320,192,26465,1,0,0:0:0:0:
64,192,26524,128,0,26700:0:0:0:0:
192,192,26524,128,0,26700:0:0:0:0:
320,192,26877,128,0,27053:0:0:0:0:
448,192,26877,128,0,27053:0:0:0:0:
64,192,27230,1,2,0:0:0:0:
320,192,27230,1,0,0:0:0:70:clap07.wav
448,192,27230,1,0,0:0:0:0:
192,192,27406,1,0,0:0:0:0:
192,192,27583,1,0,0:0:0:70:clap07.wav
320,192,27583,1,0,0:0:0:0:
448,192,27583,1,0,0:0:0:0:
320,192,27759,1,0,0:0:0:0:
64,192,27936,1,0,0:0:0:70:clap07.wav
192,192,27936,1,0,0:0:0:0:
448,192,27936,1,0,0:0:0:0:
64,192,28112,1,0,0:0:0:0:
320,192,28289,1,2,0:0:0:0:
448,192,28289,1,0,0:0:0:70:clap07.wav
192,192,28465,1,0,0:0:0:0:
320,192,28465,1,0,0:0:0:0:
64,192,28641,1,0,0:0:0:70:clap07.wav
192,192,28641,1,0,0:0:0:0:
448,192,28641,128,0,28994:0:0:0:0:
64,192,28818,1,0,0:0:0:0:
320,192,28818,1,0,0:0:0:0:
192,192,28994,1,2,0:0:0:0:
320,192,28994,128,0,29347:0:0:0:70:clap07.wav
64,192,29171,128,0,29347:0:0:0:0:
192,192,29347,128,0,29700:0:0:0:70:clap07.wav
448,192,29347,1,0,0:0:0:0:
320,192,29524,128,0,29700:0:0:0:0:
64,192,29700,1,0,0:0:0:70:clap07.wav
448,192,29700,128,0,30053:0:0:0:0:
64,192,29877,1,0,0:0:0:0:
192,192,30053,1,2,0:0:0:0:
320,192,30053,1,0,0:0:0:70:clap07.wav
64,192,30230,1,0,0:0:0:0:
64,192,30406,1,0,0:0:0:70:clap07.wav
192,192,30406,1,0,0:0:0:0:
448,192,30406,1,0,0:0:0:0:
192,192,30583,1,0,0:0:0:0:
64,192,30759,1,0,0:0:0:70:clap07.wav
320,192,30759,1,0,0:0:0:0:
448,192,30759,1,0,0:0:0:0:
192,192,30936,1,2,0:0:0:0:
448,192,30936,1,0,0:0:0:0:
64,192,31112,1,2,0:0:0:0:
320,192,31112,1,0,0:0:0:70:clap07.wav
192,192,31289,1,0,0:0:0:0:
320,192,31289,1,0,0:0:0:0:
64,192,31465,128,0,31818:0:0:0:70:clap07.wav
192,192,31465,1,0,0:0:0:0:
448,192,31465,1,0,0:0:0:0:
320,192,31641,1,0,0:0:0:0:
448,192,31641,1,0,0:0:0:0:
192,192,31818,128,0,32171:0:0:0:70:clap07.wav
320,192,31818,1,0,0:0:0:0:
448,192,31994,128,0,32171:0:0:0:0:
64,192,32171,1,0,0:0:0:70:clap07.wav
320,192,32171,128,0,32524:0:0:0:0:
192,192,32347,128,0,32524:0:0:0:0:
64,192,32524,128,0,32877:0:0:0:70:clap07.wav
448,192,32524,1,0,0:0:0:0:
448,192,32700,1,0,0:0:0:0:
192,192,32877,1,2,0:0:0:0:
320,192,32877,1,0,0:0:0:70:clap07.wav
448,192,33053,1,0,0:0:0:0:
64,192,33230,1,0,0:0:0:70:clap07.wav
320,192,33230,1,0,0:0:0:0:
448,192,33230,1,0,0:0:0:0:
320,192,33406,1,0,0:0:0:0:
64,192,33583,1,0,0:0:0:70:clap07.wav
192,192,33583,1,0,0:0:0:0:
448,192,33583,1,0,0:0:0:0:
64,192,33759,1,0,0:0:0:0:
320,192,33936,1,2,0:0:0:0:
448,192,33936,1,0,0:0:0:70:clap07.wav
192,192,34112,1,0,0:0:0:0:
320,192,34112,1,0,0:0:0:0:
64,192,34289,1,0,0:0:0:70:clap07.wav
192,192,34289,1,0,0:0:0:0:
448,192,34289,128,0,34641:0:0:0:0:
64,192,34465,1,0,0:0:0:0:
320,192,34465,1,0,0:0:0:0:
192,192,34641,128,0,34818:0:0:0:70:clap07.wav
320,192,34641,128,0,34818:0:0:0:0:
64,192,34994,128,0,35171:0:0:0:70:clap07.wav
192,192,34994,1,0,0:0:0:0:
448,192,34994,128,0,35171:0:0:0:0:
192,192,35347,128,0,35700:0:0:0:0:
64,192,35700,1,2,0:0:0:0:
320,192,35700,1,0,0:0:0:70:clap07.wav
448,192,35700,1,0,0:0:0:0:
448,192,35789,1,0,0:0:0:0:
64,192,36053,1,0,0:0:0:70:clap07.wav
192,192,36053,1,0,0:0:0:0:
64,192,36230,1,0,0:0:0:0:
448,192,36230,1,0,0:0:0:0:
192,192,36406,1,0,0:0:0:70:clap07.wav
320,192,36406,128,0,36759:0:0:0:0:
448,192,36406,1,0,0:0:0:0:
64,192,36759,1,2,0:0:0:0:
192,192,36759,1,0,0:0:0:70:clap07.wav
448,192,36759,1,0,0:0:0:0:
64,192,36847,1,0,0:0:0:0:
320,192,36936,1,0,0:0:0:0:
192,192,37024,1,0,0:0:0:0:
320,192,37112,1,0,0:0:0:70:clap07.wav
448,192,37112,1,0,0:0:0:0:
192,192,37200,1,0,0:0:0:0:
64,192,37289,1,0,0:0:0:0:
448,192,37289,1,0,0:0:0:0:
320,192,37377,1,0,0:0:0:0:
192,192,37465,1,0,0:0:0:70:clap07.wav
448,192,37465,1,0,0:0:0:0:
192,192,37553,1,0,0:0:0:0:
64,192,37641,1,0,0:0:0:0:
448,192,37641,1,0,0:0:0:0:
192,192,37730,1,0,0:0:0:0:
320,192,37730,1,0,0:0:0:0:
64,192,37818,1,0,0:0:0:0:
448,192,37818,1,0,0:0:0:0:
192,192,37994,1,0,0:0:0:0:
320,192,38083,1,0,0:0:0:0:
448,192,38083,1,0,0:0:0:0:
64,192,38171,1,0,0:0:0:0:
192,192,38171,1,0,0:0:0:0:
64,192,38347,1,0,0:0:0:0:
448,192,38347,1,0,0:0:0:0:
320,192,38524,1,4,0:0:0:0:
320,192,38700,1,0,0:0:0:0:
192,192,38877,1,0,0:0:0:0:
192,192,39053,1,0,0:0:0:0:
448,192,39053,1,0,0:0:0:0:
320,192,39230,1,0,0:0:0:0:
320,192,39406,1,0,0:0:0:0:
64,192,39583,128,0,39936:0:0:0:0:
320,192,39936,1,0,0:0:0:0:
448,192,39936,128,0,40289:0:0:0:0:
192,192,40289,1,0,0:0:0:0:
64,192,40465,1,0,0:0:0:0:
320,192,40465,1,0,0:0:0:0:
64,192,40818,1,0,0:0:0:0:
448,192,40818,1,0,0:0:0:0:
192,192,40994,1,0,0:0:0:0:
320,192,40994,1,0,0:0:0:0:
320,192,41171,1,0,0:0:0:0:
64,192,41347,1,0,0:0:0:0:
448,192,41347,1,0,0:0:0:0:
64,192,41524,1,0,0:0:0:0:
448,192,41700,1,0,0:0:0:0:
192,192,41877,1,0,0:0:0:0:
448,192,41877,1,0,0:0:0:0:
320,192,42053,1,0,0:0:0:0:
320,192,42230,1,0,0:0:0:0:
64,192,42406,128,0,42759:0:0:0:0:
192,192,42406,1,0,0:0:0:0:
448,192,42759,128,0,43112:0:0:0:0:
192,192,43465,1,0,0:0:0:0:
320,192,43465,1,0,0:0:0:0:
64,192,43641,1,0,0:0:0:0:
192,192,43818,1,0,0:0:0:0:
448,192,43818,1,0,0:0:0:0:
320,192,43994,1,0,0:0:0:0:
64,192,44171,1,0,0:0:0:70:snare #1.wav
192,192,44171,1,0,0:0:0:0:
448,192,44171,1,0,0:0:0:0:
64,192,44347,1,0,0:0:0:70:snare #1.wav
320,192,44347,1,0,0:0:0:0:
64,192,44524,1,0,0:0:0:70:snare #1.wav
192,192,44524,1,0,0:0:0:0:
448,192,44524,1,0,0:0:0:0:
64,192,44700,1,0,0:0:0:70:snare #1.wav
320,192,44700,1,0,0:0:0:0:
64,192,44877,1,0,0:0:0:70:snare #1.wav
192,192,44877,1,0,0:0:0:0:
448,192,44877,1,0,0:0:0:0:
64,192,45053,1,0,0:0:0:70:snare #1.wav
320,192,45053,1,0,0:0:0:0:
64,192,45230,1,0,0:0:0:70:snare #1.wav
192,192,45230,1,0,0:0:0:0:
448,192,45230,1,0,0:0:0:0:
64,192,45406,1,0,0:0:0:70:snare #1.wav
320,192,45406,1,0,0:0:0:0:
64,192,45583,1,0,0:0:0:70:snare #1.wav
192,192,45583,1,0,0:0:0:0:
448,192,45583,1,0,0:0:0:0:
320,192,45759,1,0,0:0:0:70:snare #1.wav
448,192,45759,1,0,0:0:0:0:
64,192,45936,1,0,0:0:0:70:snare #1.wav
192,192,45936,1,0,0:0:0:0:
448,192,45936,1,0,0:0:0:0:
320,192,46112,1,0,0:0:0:70:snare #1.wav
448,192,46112,1,0,0:0:0:0:
64,192,46289,1,0,0:0:0:70:snare #1.wav
192,192,46289,1,0,0:0:0:0:
448,192,46289,1,0,0:0:0:0:
320,192,46465,1,0,0:0:0:70:snare #1.wav
448,192,46465,1,0,0:0:0:0:
64,192,46641,1,0,0:0:0:70:snare #1.wav
192,192,46641,1,0,0:0:0:0:
448,192,46641,1,0,0:0:0:0:
320,192,46818,1,0,0:0:0:70:snare #1.wav
448,192,46818,1,0,0:0:0:0:
64,192,46994,1,0,0:0:0:70:snare #1.wav
448,192,46994,1,0,0:0:0:0:
192,192,47083,1,0,0:0:0:70:snare #1.wav
320,192,47083,1,0,0:0:0:0:
64,192,47171,1,0,0:0:0:70:snare #1.wav
448,192,47171,1,0,0:0:0:0:
320,192,47259,1,0,0:0:0:70:snare #1.wav
64,192,47347,1,0,0:0:0:70:snare #1.wav
192,192,47347,1,0,0:0:0:0:
320,192,47436,1,0,0:0:0:70:snare #1.wav
448,192,47436,1,0,0:0:0:0:
64,192,47524,1,0,0:0:0:70:snare #1.wav
192,192,47524,1,0,0:0:0:0:
448,192,47612,1,0,0:0:0:70:snare #1.wav
192,192,47700,1,0,0:0:0:70:snare #1.wav
320,192,47700,1,0,0:0:0:0:
64,192,47789,1,0,0:0:0:70:snare #1.wav
448,192,47789,1,0,0:0:0:0:
192,192,47877,1,0,0:0:0:70:snare #1.wav
320,192,47877,1,0,0:0:0:0:
64,192,47965,1,0,0:0:0:70:snare #1.wav
320,192,48053,1,0,0:0:0:70:snare #1.wav
448,192,48053,1,0,0:0:0:0:
64,192,48141,1,0,0:0:0:70:snare #1.wav
192,192,48141,1,0,0:0:0:0:
320,192,48230,1,0,0:0:0:70:snare #1.wav
448,192,48230,1,0,0:0:0:0:
64,192,48318,1,0,0:0:0:70:snare #1.wav
192,192,48318,1,0,0:0:0:0:
448,192,48406,128,0,48494:0:0:0:0:
448,192,48583,128,0,48671:0:0:0:0:
448,192,48759,128,0,48936:0:0:0:0:
320,192,49112,128,0,49289:0:0:0:0:
192,192,49289,128,0,49465:0:0:0:0:
64,192,49465,128,0,49641:0:0:0:0:
64,192,49818,128,2,49906:0:0:0:0:
192,192,49818,1,4,0:0:0:0:
448,192,49818,128,0,49906:0:0:0:0:
64,192,49994,1,0,0:0:0:0:
320,192,50171,1,2,0:0:0:0:
448,192,50171,1,0,0:0:0:0:
192,192,50347,1,2,0:0:0:0:
320,192,50347,1,0,0:0:0:0:
64,192,50524,128,8,50612:0:0:0:0:
192,192,50524,1,0,0:0:0:0:
448,192,50524,128,0,50612:0:0:0:0:
320,192,50700,128,2,50789:0:0:0:0:
448,192,50700,128,0,50789:0:0:0:0:
192,192,50877,128,2,50965:0:0:0:0:
320,192,50877,128,0,50965:0:0:0:0:
64,192,51053,128,8,51141:0:0:0:0:
192,192,51053,128,0,51141:0:0:0:0:
448,192,51053,1,0,0:0:0:0:
64,192,51230,128,2,51406:0:0:0:0:
320,192,51230,1,0,0:0:0:0:
192,192,51406,1,8,0:0:0:0:
320,192,51406,1,0,0:0:0:0:
448,192,51406,128,0,51583:0:0:0:0:
64,192,51583,1,2,0:0:0:0:
192,192,51583,128,0,51936:0:0:0:0:
320,192,51759,1,2,0:0:0:0:
448,192,51759,1,0,0:0:0:0:
64,192,51936,1,8,0:0:0:0:
320,192,51936,1,0,0:0:0:0:
448,192,51936,128,0,52112:0:0:0:0:
64,192,52112,128,2,52289:0:0:0:0:
192,192,52112,1,0,0:0:0:0:
192,192,52289,1,2,0:0:0:0:
320,192,52289,128,0,52641:0:0:0:0:
64,192,52465,1,8,0:0:0:0:
448,192,52465,1,0,0:0:0:0:
64,192,52641,128,2,52730:0:0:0:0:
192,192,52641,1,4,0:0:0:0:
448,192,52641,128,0,52730:0:0:0:0:
448,192,52818,1,0,0:0:0:0:
64,192,52994,1,2,0:0:0:0:
192,192,52994,1,0,0:0:0:0:
192,192,53171,1,2,0:0:0:0:
320,192,53171,1,0,0:0:0:0:
64,192,53347,128,8,53436:0:0:0:0:
320,192,53347,1,0,0:0:0:0:
448,192,53347,128,0,53436:0:0:0:0:
64,192,53524,128,2,53612:0:0:0:0:
192,192,53524,128,0,53612:0:0:0:0:
192,192,53700,128,2,53789:0:0:0:0:
320,192,53700,128,0,53789:0:0:0:0:
64,192,53877,1,8,0:0:0:0:
320,192,53877,128,0,53965:0:0:0:0:
448,192,53877,128,0,53965:0:0:0:0:
192,192,54053,1,2,0:0:0:0:
448,192,54053,128,0,54230:0:0:0:0:
64,192,54230,128,8,54406:0:0:0:0:
192,192,54230,1,0,0:0:0:0:
320,192,54230,1,0,0:0:0:0:
320,192,54406,128,2,54759:0:0:0:0:
448,192,54406,1,0,0:0:0:0:
64,192,54583,1,2,0:0:0:0:
192,192,54583,1,0,0:0:0:0:
64,192,54759,128,8,54936:0:0:0:0:
192,192,54759,1,0,0:0:0:0:
448,192,54759,1,0,0:0:0:0:
320,192,54936,1,2,0:0:0:0:
448,192,54936,128,0,55112:0:0:0:0:
192,192,55112,128,2,55465:0:0:0:0:
320,192,55112,1,0,0:0:0:0:
64,192,55289,1,8,0:0:0:0:
448,192,55289,1,0,0:0:0:0:
64,192,55465,128,4,55553:0:0:0:0:
320,192,55465,1,2,0:0:0:0:
448,192,55465,128,0,55553:0:0:0:0:
64,192,55641,1,0,0:0:0:0:
320,192,55818,1,2,0:0:0:0:
448,192,55818,1,0,0:0:0:0:
192,192,55994,1,2,0:0:0:0:
320,192,55994,1,0,0:0:0:0:
64,192,56171,128,8,56259:0:0:0:0:
192,192,56171,1,0,0:0:0:0:
448,192,56171,128,0,56259:0:0:0:0:
320,192,56347,128,2,56436:0:0:0:0:
448,192,56347,128,0,56436:0:0:0:0:
192,192,56524,128,2,56612:0:0:0:0:
320,192,56524,128,0,56612:0:0:0:0:
64,192,56700,128,8,56789:0:0:0:0:
192,192,56700,128,0,56789:0:0:0:0:
448,192,56700,1,0,0:0:0:0:
64,192,56877,128,2,57053:0:0:0:0:
320,192,56877,1,0,0:0:0:0:
192,192,57053,1,8,0:0:0:0:
320,192,57053,1,0,0:0:0:0:
448,192,57053,128,0,57230:0:0:0:0:
64,192,57230,1,2,0:0:0:0:
192,192,57230,128,0,57583:0:0:0:0:
320,192,57406,1,2,0:0:0:0:
448,192,57406,1,0,0:0:0:0:
64,192,57583,1,8,0:0:0:0:
320,192,57583,1,0,0:0:0:0:
448,192,57583,128,0,57759:0:0:0:0:
64,192,57759,128,2,57936:0:0:0:0:
192,192,57759,1,0,0:0:0:0:
192,192,57936,1,2,0:0:0:0:
320,192,57936,128,0,58289:0:0:0:0:
64,192,58112,1,8,0:0:0:0:
448,192,58112,1,0,0:0:0:0:
64,192,58289,1,2,0:0:0:0:
192,192,58289,128,4,58641:0:0:0:0:
448,192,58289,1,0,0:0:0:0:
320,192,58465,128,0,58641:0:0:0:0:
64,192,58641,1,2,0:0:0:0:
448,192,58641,128,0,58994:0:0:0:0:
192,192,58818,1,2,0:0:0:0:
320,192,58818,128,0,58994:0:0:0:0:
64,192,58994,128,8,59347:0:0:0:0:
192,192,58994,1,0,0:0:0:0:
320,192,59171,128,2,59347:0:0:0:0:
448,192,59171,1,0,0:0:0:0:
192,192,59347,1,2,0:0:0:0:
448,192,59347,128,0,59700:0:0:0:0:
64,192,59524,1,8,0:0:0:0:
192,192,59524,1,0,0:0:0:0:
64,192,59700,128,0,60230:0:0:0:0:
320,192,59700,128,0,59789:0:0:0:0:
320,192,59877,128,0,59965:0:0:0:0:
320,192,60053,128,0,60141:0:0:0:0:
320,192,60230,1,0,0:0:0:70:tom1.wav
448,192,60230,1,0,0:0:0:0:
64,192,60318,1,0,0:0:0:70:tom2.wav
192,192,60318,1,0,0:0:0:0:
320,192,60406,1,0,0:0:0:70:tom3.wav
448,192,60406,128,0,60494:0:0:0:0:
192,192,60583,1,0,0:0:0:70:tom3.wav
320,192,60583,128,0,60671:0:0:0:0:
64,192,60759,1,0,0:0:0:70:tom4.wav
192,192,60759,128,0,60847:0:0:0:0:
64,192,61112,1,4,0:0:0:0:
320,192,61112,128,2,61465:0:0:0:0:
448,192,61112,128,0,61818:0:0:0:0:
64,192,61465,1,2,0:0:0:0:
192,192,61465,1,0,0:0:0:0:
192,192,61641,1,2,0:0:0:0:
320,192,61641,1,0,0:0:0:0:
64,192,61818,1,8,0:0:0:0:
192,192,61818,1,0,0:0:0:0:
320,192,61818,128,0,61994:0:0:0:0:
64,192,61994,128,0,62171:0:0:0:0:
448,192,61994,1,0,0:0:0:0:
192,192,62171,128,0,62347:0:0:0:0:
448,192,62171,1,0,0:0:0:0:
320,192,62347,128,0,62524:0:0:0:0:
448,192,62347,1,0,0:0:0:0:
64,192,62524,128,2,62789:0:0:0:0:
192,192,62524,1,0,0:0:0:0:
192,192,62700,1,8,0:0:0:0:
320,192,62700,1,0,0:0:0:0:
448,192,62700,1,0,0:0:0:0:
64,192,62877,128,2,63141:0:0:0:0:
192,192,62877,1,0,0:0:0:0:
320,192,63053,1,2,0:0:0:0:
448,192,63053,1,0,0:0:0:0:
64,192,63230,128,8,63494:0:0:0:0:
192,192,63230,1,0,0:0:0:0:
448,192,63230,1,0,0:0:0:0:
320,192,63406,1,0,0:0:0:0:
192,192,63583,1,0,0:0:0:0:
448,192,63583,128,0,63936:0:0:0:0:
64,192,63759,1,0,0:0:0:0:
320,192,63759,128,0,63936:0:0:0:0:
64,192,63936,1,4,0:0:0:0:
192,192,63936,1,2,0:0:0:0:
448,192,64112,1,0,0:0:0:0:
192,192,64289,1,2,0:0:0:0:
320,192,64289,1,0,0:0:0:0:
64,192,64465,1,2,0:0:0:0:
192,192,64465,1,0,0:0:0:0:
64,192,64641,128,8,64818:0:0:0:0:
320,192,64641,1,0,0:0:0:0:
448,192,64641,1,0,0:0:0:0:
192,192,64818,1,0,0:0:0:0:
448,192,64818,128,0,64994:0:0:0:0:
192,192,64994,128,0,65171:0:0:0:0:
320,192,64994,1,0,0:0:0:0:
320,192,65171,128,0,65347:0:0:0:0:
448,192,65171,1,0,0:0:0:0:
64,192,65347,128,2,65612:0:0:0:0:
192,192,65347,1,0,0:0:0:0:
192,192,65524,1,8,0:0:0:0:
320,192,65524,1,0,0:0:0:0:
448,192,65524,1,0,0:0:0:0:
64,192,65700,1,2,0:0:0:0:
448,192,65700,128,0,65965:0:0:0:0:
192,192,65877,1,2,0:0:0:0:
320,192,65877,1,0,0:0:0:0:
64,192,66053,128,8,66318:0:0:0:0:
320,192,66053,1,0,0:0:0:0:
448,192,66053,1,0,0:0:0:0:
192,192,66230,1,2,0:0:0:0:
448,192,66230,1,0,0:0:0:0:
64,192,66406,1,8,0:0:0:0:
192,192,66406,1,0,0:0:0:0:
320,192,66406,1,0,0:0:0:0:
320,192,66583,1,8,0:0:0:0:
448,192,66583,1,0,0:0:0:0:
64,192,66671,1,8,0:0:0:0:
192,192,66671,1,0,0:0:0:0:
320,192,66759,1,2,0:0:0:0:
448,192,66759,1,0,0:0:0:0:
192,192,66936,1,2,0:0:0:0:
448,192,66936,1,0,0:0:0:0:
64,192,67112,1,2,0:0:0:0:
320,192,67112,1,0,0:0:0:0:
64,192,67465,1,8,0:0:0:0:
192,192,67465,1,4,0:0:0:0:
448,192,67465,128,0,67641:0:0:0:0:
64,192,67641,128,2,67818:0:0:0:0:
320,192,67641,1,0,0:0:0:0:
192,192,67818,1,2,0:0:0:0:
320,192,67818,128,0,67994:0:0:0:0:
64,192,67994,1,8,0:0:0:0:
192,192,67994,128,0,68171:0:0:0:0:
448,192,67994,1,0,0:0:0:0:
320,192,68171,1,2,0:0:0:0:
448,192,68171,128,0,68436:0:0:0:0:
64,192,68347,1,8,0:0:0:0:
192,192,68347,1,0,0:0:0:0:
320,192,68347,1,0,0:0:0:0:
320,192,68524,1,2,0:0:0:0:
448,192,68524,128,0,68789:0:0:0:0:
64,192,68700,1,2,0:0:0:0:
192,192,68700,1,0,0:0:0:0:
64,192,68877,1,8,0:0:0:0:
320,192,68877,1,0,0:0:0:0:
448,192,68877,128,0,69141:0:0:0:0:
192,192,69053,1,2,0:0:0:0:
64,192,69230,1,2,0:0:0:0:
320,192,69230,1,0,0:0:0:0:
192,192,69406,1,0,0:0:0:0:
448,192,69406,1,0,0:0:0:0:
192,192,69583,1,4,0:0:0:0:
320,192,69583,1,8,0:0:0:0:
64,192,69671,1,8,0:0:0:0:
448,192,69671,1,0,0:0:0:0:
192,192,69759,1,2,0:0:0:0:
320,192,69759,1,0,0:0:0:0:
64,192,69847,1,2,0:0:0:0:
320,192,69936,1,8,0:0:0:0:
448,192,69936,1,0,0:0:0:0:
64,192,70024,1,8,0:0:0:0:
192,192,70024,1,0,0:0:0:0:
320,192,70112,1,2,0:0:0:0:
448,192,70112,1,0,0:0:0:0:
192,192,70200,1,2,0:0:0:0:
64,192,70289,1,8,0:0:0:0:
448,192,70289,1,0,0:0:0:0:
192,192,70377,1,8,0:0:0:0:
320,192,70377,1,0,0:0:0:0:
64,192,70465,1,2,0:0:0:0:
448,192,70465,1,0,0:0:0:0:
320,192,70553,1,2,0:0:0:0:
64,192,70641,1,8,0:0:0:0:
192,192,70641,1,0,0:0:0:0:
320,192,70730,1,8,0:0:0:0:
448,192,70730,1,0,0:0:0:0:
64,192,70818,1,2,0:0:0:0:
192,192,70818,1,0,0:0:0:0:
448,192,70906,1,2,0:0:0:0:
192,192,70994,128,8,71083:0:0:0:0:
320,192,70994,128,0,71083:0:0:0:0:
64,192,71171,128,2,71259:0:0:0:0:
192,192,71171,128,0,71259:0:0:0:0:
64,192,71347,128,8,71436:0:0:0:0:
192,192,71347,128,0,71436:0:0:0:0:
320,192,71347,1,0,0:0:0:0:
320,192,71524,128,2,71612:0:0:0:0:
448,192,71524,128,0,71612:0:0:0:0:
64,192,71700,128,8,71789:0:0:0:0:
320,192,71700,128,0,71789:0:0:0:0:
448,192,71700,1,0,0:0:0:0:
192,192,71877,128,2,71965:0:0:0:0:
320,192,71877,128,0,71965:0:0:0:0:
64,192,72053,128,8,72318:0:0:0:0:
192,192,72053,1,0,0:0:0:0:
448,192,72053,128,0,72318:0:0:0:0:
64,192,72406,1,2,0:0:0:0:
192,192,72406,1,4,0:0:0:0:
448,192,72406,128,0,72759:0:0:0:0:
64,192,72671,128,0,72759:0:0:0:0:
320,192,72759,1,2,0:0:0:0:
64,192,72936,128,2,73024:0:0:0:0:
320,192,72936,1,0,0:0:0:0:
192,192,73112,1,8,0:0:0:0:
320,192,73112,1,0,0:0:0:0:
448,192,73112,128,0,73200:0:0:0:0:
64,192,73289,1,2,0:0:0:0:
192,192,73289,1,0,0:0:0:0:
320,192,73377,128,0,73465:0:0:0:0:
64,192,73465,1,2,0:0:0:0:
448,192,73465,1,0,0:0:0:0:
64,192,73641,1,8,0:0:0:0:
192,192,73641,128,0,73730:0:0:0:0:
448,192,73641,1,0,0:0:0:0:
192,192,73818,1,2,0:0:0:0:
320,192,73818,128,0,73906:0:0:0:0:
64,192,73994,1,8,0:0:0:0:
320,192,73994,1,0,0:0:0:0:
448,192,73994,1,0,0:0:0:0:
192,192,74171,1,2,0:0:0:0:
448,192,74171,1,0,0:0:0:0:
192,192,74347,1,2,0:0:0:0:
448,192,74347,1,0,0:0:0:0:
64,192,74524,128,8,74612:0:0:0:0:
192,192,74524,1,0,0:0:0:0:
320,192,74524,1,0,0:0:0:0:
320,192,74700,1,2,0:0:0:0:
448,192,74700,1,0,0:0:0:0:
192,192,74789,128,0,74877:0:0:0:0:
64,192,74877,1,2,0:0:0:0:
448,192,74877,1,0,0:0:0:0:
64,192,75053,1,8,0:0:0:0:
320,192,75053,128,0,75141:0:0:0:0:
448,192,75053,1,0,0:0:0:0:
192,192,75230,128,2,75318:0:0:0:0:
320,192,75230,1,0,0:0:0:0:
448,192,75494,128,0,75583:0:0:0:0:
64,192,75583,1,2,0:0:0:0:
192,192,75583,1,0,0:0:0:0:
192,192,75759,1,2,0:0:0:0:
320,192,75759,128,0,75847:0:0:0:0:
64,192,75936,128,8,76024:0:0:0:0:
320,192,75936,1,0,0:0:0:0:
448,192,75936,1,0,0:0:0:0:
192,192,76112,1,2,0:0:0:0:
448,192,76112,1,0,0:0:0:0:
64,192,76289,1,2,0:0:0:0:
320,192,76289,1,0,0:0:0:0:
64,192,76465,1,8,0:0:0:0:
192,192,76465,1,0,0:0:0:0:
448,192,76465,1,0,0:0:0:0:
192,192,76641,1,2,0:0:0:0:
320,192,76641,1,0,0:0:0:0:
64,192,76818,1,8,0:0:0:0:
192,192,76818,1,0,0:0:0:0:
320,192,76818,1,0,0:0:0:0:
64,192,76994,1,2,0:0:0:0:
448,192,76994,1,0,0:0:0:0:
192,192,77171,1,2,0:0:0:0:
320,192,77171,1,0,0:0:0:0:
192,192,77347,1,8,0:0:0:0:
320,192,77347,128,0,77436:0:0:0:0:
448,192,77347,1,0,0:0:0:0:
64,192,77524,1,2,0:0:0:0:
192,192,77524,1,0,0:0:0:0:
320,192,77700,1,2,0:0:0:0:
448,192,77700,128,0,77965:0:0:0:0:
64,192,77877,1,8,0:0:0:0:
192,192,77877,1,0,0:0:0:0:
320,192,77877,1,0,0:0:0:0:
64,192,78053,128,4,78406:0:0:0:0:
192,192,78053,1,2,0:0:0:0:
448,192,78318,128,0,78406:0:0:0:0:
192,192,78406,1,2,0:0:0:0:
192,192,78583,1,2,0:0:0:0:
448,192,78583,128,0,78671:0:0:0:0:
64,192,78759,128,8,78847:0:0:0:0:
192,192,78759,1,0,0:0:0:0:
320,192,78759,1,0,0:0:0:0:
320,192,78936,1,2,0:0:0:0:
448,192,78936,1,0,0:0:0:0:
192,192,79024,128,0,79112:0:0:0:0:
64,192,79112,1,2,0:0:0:0:
448,192,79112,1,0,0:0:0:0:
64,192,79289,1,8,0:0:0:0:
320,192,79289,128,0,79377:0:0:0:0:
448,192,79289,1,0,0:0:0:0:
192,192,79465,128,2,79553:0:0:0:0:
320,192,79465,1,0,0:0:0:0:
64,192,79641,1,8,0:0:0:0:
192,192,79641,1,0,0:0:0:0:
448,192,79641,1,0,0:0:0:0:
64,192,79818,1,2,0:0:0:0:
320,192,79818,1,0,0:0:0:0:
64,192,79994,1,2,0:0:0:0:
320,192,79994,1,0,0:0:0:0:
192,192,80171,1,8,0:0:0:0:
320,192,80171,1,0,0:0:0:0:
448,192,80171,128,0,80259:0:0:0:0:
64,192,80347,1,2,0:0:0:0:
192,192,80347,1,0,0:0:0:0:
320,192,80436,128,0,80524:0:0:0:0:
64,192,80524,1,2,0:0:0:0:
448,192,80524,1,0,0:0:0:0:
64,192,80700,1,8,0:0:0:0:
192,192,80700,128,0,80789:0:0:0:0:
448,192,80700,1,0,0:0:0:0:
192,192,80877,1,2,0:0:0:0:
320,192,80877,128,0,80965:0:0:0:0:
448,192,81141,128,0,81230:0:0:0:0:
64,192,81230,1,2,0:0:0:0:
192,192,81230,1,0,0:0:0:0:
192,192,81406,128,2,81494:0:0:0:0:
320,192,81406,1,0,0:0:0:0:
64,192,81583,1,8,0:0:0:0:
320,192,81583,1,0,0:0:0:0:
448,192,81583,128,0,81671:0:0:0:0:
64,192,81759,1,2,0:0:0:0:
192,192,81759,1,0,0:0:0:0:
320,192,81936,1,2,0:0:0:0:
448,192,81936,1,0,0:0:0:0:
64,192,82112,1,8,0:0:0:0:
192,192,82112,1,0,0:0:0:0:
448,192,82112,1,0,0:0:0:0:
192,192,82289,1,2,0:0:0:0:
320,192,82289,1,0,0:0:0:0:
192,192,82465,1,8,0:0:0:0:
320,192,82465,1,0,0:0:0:0:
448,192,82465,1,0,0:0:0:0:
64,192,82641,1,2,0:0:0:0:
448,192,82641,1,0,0:0:0:0:
192,192,82818,1,2,0:0:0:0:
320,192,82818,1,0,0:0:0:0:
64,192,82994,1,8,0:0:0:0:
192,192,82994,1,0,0:0:0:0:
320,192,82994,1,0,0:0:0:0:
320,192,83171,1,2,0:0:0:0:
448,192,83171,1,0,0:0:0:0:
64,192,83347,1,8,0:0:0:0:
192,192,83347,1,2,0:0:0:0:
448,192,83347,1,0,0:0:0:0:
320,192,83700,1,0,0:0:0:0:
320,192,83877,1,0,0:0:0:0:
192,192,84053,1,0,0:0:0:0:
64,192,84230,1,0,0:0:0:0:
320,192,84406,1,0,0:0:0:0:
448,192,84583,1,0,0:0:0:0:
320,192,84759,1,0,0:0:0:0:
64,192,85465,128,0,85818:0:0:0:0:
192,192,85465,128,0,85818:0:0:0:0:
64,192,86171,1,0,0:0:0:0:
448,192,86171,1,0,0:0:0:0:
192,192,86259,1,0,0:0:0:0:
320,192,86259,1,0,0:0:0:0:
64,192,86524,1,0,0:0:0:70:clap07.wav
192,192,86524,1,0,0:0:0:0:
320,192,86612,1,0,0:0:0:0:
448,192,86612,1,0,0:0:0:0:
192,192,86877,1,0,0:0:0:70:clap07.wav
448,192,86877,1,0,0:0:0:0:
64,192,86965,1,0,0:0:0:0:
320,192,86965,1,0,0:0:0:0:
64,192,87230,128,0,87583:0:0:0:70:clap07.wav
192,192,87230,128,0,87583:0:0:0:0:
320,192,87583,1,0,0:0:0:70:clap07.wav
448,192,87583,1,0,0:0:0:0:
64,192,87671,1,0,0:0:0:0:
192,192,87671,1,0,0:0:0:0:
64,192,87936,1,0,0:0:0:70:clap07.wav
192,192,87936,1,0,0:0:0:0:
320,192,88024,1,0,0:0:0:0:
448,192,88024,1,0,0:0:0:0:
64,192,88289,1,0,0:0:0:70:clap07.wav
448,192,88289,1,0,0:0:0:0:
192,192,88377,1,0,0:0:0:0:
320,192,88377,1,0,0:0:0:0:
320,192,88641,128,0,88994:0:0:0:70:clap07.wav
448,192,88641,128,0,88994:0:0:0:0:
192,192,88994,1,0,0:0:0:0:
320,192,89083,1,0,0:0:0:0:
192,192,89171,1,0,0:0:0:0:
320,192,89259,1,0,0:0:0:0:
64,192,89347,1,0,0:0:0:70:clap07.wav
448,192,89347,1,0,0:0:0:0:
192,192,89436,1,0,0:0:0:0:
320,192,89436,1,0,0:0:0:0:
64,192,89700,1,0,0:0:0:70:clap07.wav
192,192,89700,1,0,0:0:0:0:
320,192,89789,1,0,0:0:0:0:
448,192,89789,1,0,0:0:0:0:
64,192,90053,128,0,90406:0:0:0:70:clap07.wav
448,192,90053,128,0,90406:0:0:0:0:
192,192,90406,1,0,0:0:0:70:clap07.wav
320,192,90406,1,0,0:0:0:0:
64,192,90494,1,0,0:0:0:0:
448,192,90494,1,0,0:0:0:0:
64,192,90759,1,0,0:0:0:70:clap07.wav
448,192,90759,1,0,0:0:0:0:
320,192,90847,1,0,0:0:0:0:
192,192,90847,1,0,0:0:0:0:
64,192,91112,1,0,0:0:0:70:clap07.wav
320,192,91112,1,0,0:0:0:0:
192,192,91200,1,0,0:0:0:0:
448,192,91200,1,0,0:0:0:0:
320,192,91465,128,0,91818:0:0:0:70:clap07.wav
448,192,91465,128,0,91818:0:0:0:0:
192,192,91818,1,0,0:0:0:0:
320,192,91906,1,0,0:0:0:0:
192,192,91994,1,0,0:0:0:0:
320,192,92083,1,0,0:0:0:0:
64,192,92171,1,2,0:0:0:0:
448,192,92171,1,0,0:0:0:70:clap07.wav
64,192,92347,1,0,0:0:0:0:
320,192,92524,1,0,0:0:0:70:clap07.wav
448,192,92524,1,0,0:0:0:0:
192,192,92641,1,0,0:0:0:0:
320,192,92759,1,0,0:0:0:0:
64,192,92877,1,0,0:0:0:70:clap07.wav
192,192,92877,1,0,0:0:0:0:
448,192,93053,1,2,0:0:0:0:
320,192,93141,1,0,0:0:0:0:
64,192,93230,1,2,0:0:0:0:
448,192,93230,1,0,0:0:0:70:clap07.wav
192,192,93406,1,0,0:0:0:0:
320,192,93406,1,0,0:0:0:0:
64,192,93583,1,0,0:0:0:70:clap07.wav
192,192,93583,1,0,0:0:0:0:
320,192,93759,1,0,0:0:0:0:
448,192,93759,1,0,0:0:0:0:
64,192,93936,1,2,0:0:0:0:
448,192,93936,1,0,0:0:0:70:clap07.wav
64,192,94053,1,0,0:0:0:0:
320,192,94171,1,0,0:0:0:0:
192,192,94289,1,0,0:0:0:70:clap07.wav
320,192,94289,1,0,0:0:0:0:
64,192,94406,1,0,0:0:0:0:
448,192,94524,1,0,0:0:0:0:
64,192,94641,1,0,0:0:0:0:
320,192,94641,1,0,0:0:0:0:
192,192,94994,1,2,0:0:0:0:
448,192,94994,1,0,0:0:0:70:clap07.wav
448,192,95171,1,0,0:0:0:0:
64,192,95347,1,2,0:0:0:0:
192,192,95347,1,0,0:0:0:70:clap07.wav
320,192,95465,1,0,0:0:0:0:
64,192,95583,1,0,0:0:0:0:
448,192,95583,1,0,0:0:0:0:
192,192,95700,1,0,0:0:0:70:clap07.wav
320,192,95700,1,0,0:0:0:0:
64,192,95877,1,0,0:0:0:0:
192,192,95877,1,0,0:0:0:0:
448,192,95965,1,0,0:0:0:0:
64,192,96053,1,2,0:0:0:0:
320,192,96053,1,0,0:0:0:70:clap07.wav
192,192,96230,1,0,0:0:0:0:
448,192,96230,1,0,0:0:0:0:
320,192,96406,1,0,0:0:0:70:clap07.wav
448,192,96406,1,0,0:0:0:0:
64,192,96583,1,0,0:0:0:0:
192,192,96583,1,0,0:0:0:0:
64,192,96759,1,2,0:0:0:0:
448,192,96759,1,0,0:0:0:70:clap07.wav
320,192,96877,1,0,0:0:0:0:
192,192,96994,1,0,0:0:0:0:
192,192,97112,1,0,0:0:0:0:
448,192,97112,1,0,0:0:0:0:
320,192,97230,1,0,0:0:0:0:
64,192,97347,1,0,0:0:0:0:
64,192,97465,1,0,0:0:0:0:
320,192,97465,1,0,0:0:0:0:
64,192,97818,1,2,0:0:0:0:
192,192,97818,1,0,0:0:0:70:clap07.wav
448,192,97818,1,0,0:0:0:0:
320,192,97994,1,0,0:0:0:0:
64,192,98171,1,0,0:0:0:70:clap07.wav
192,192,98171,1,0,0:0:0:0:
320,192,98171,1,0,0:0:0:0:
192,192,98347,1,0,0:0:0:0:
64,192,98524,1,0,0:0:0:70:clap07.wav
320,192,98524,1,0,0:0:0:0:
448,192,98524,1,0,0:0:0:0:
448,192,98700,1,0,0:0:0:0:
64,192,98877,1,2,0:0:0:0:
320,192,98877,1,0,0:0:0:70:clap07.wav
192,192,99053,1,0,0:0:0:0:
320,192,99053,1,0,0:0:0:0:
64,192,99230,128,0,99583:0:0:0:70:clap07.wav
192,192,99230,1,0,0:0:0:0:
448,192,99230,1,0,0:0:0:0:
320,192,99406,1,0,0:0:0:0:
448,192,99406,1,0,0:0:0:0:
192,192,99583,128,2,99936:0:0:0:0:
320,192,99583,1,0,0:0:0:70:clap07.wav
448,192,99759,128,0,99936:0:0:0:0:
64,192,99936,1,0,0:0:0:70:clap07.wav
320,192,99936,128,0,100289:0:0:0:0:
192,192,100112,128,0,100289:0:0:0:0:
64,192,100289,128,0,100641:0:0:0:0:
448,192,100289,1,0,0:0:0:0:
448,192,100465,1,0,0:0:0:0:
192,192,100641,1,2,0:0:0:0:
320,192,100641,1,0,0:0:0:70:clap07.wav
448,192,100818,1,0,0:0:0:0:
64,192,100994,1,0,0:0:0:70:clap07.wav
320,192,100994,1,0,0:0:0:0:
448,192,100994,1,0,0:0:0:0:
320,192,101171,1,0,0:0:0:0:
64,192,101347,1,0,0:0:0:70:clap07.wav
192,192,101347,1,0,0:0:0:0:
448,192,101347,1,0,0:0:0:0:
64,192,101524,1,2,0:0:0:0:
320,192,101524,1,0,0:0:0:0:
192,192,101700,1,2,0:0:0:0:
448,192,101700,1,0,0:0:0:70:clap07.wav
192,192,101877,1,0,0:0:0:0:
320,192,101877,1,0,0:0:0:0:
64,192,102053,1,0,0:0:0:70:clap07.wav
320,192,102053,1,0,0:0:0:0:
448,192,102053,128,0,102406:0:0:0:0:
64,192,102230,1,0,0:0:0:0:
192,192,102230,1,0,0:0:0:0:
192,192,102406,1,2,0:0:0:0:
320,192,102406,128,0,102759:0:0:0:70:clap07.wav
64,192,102583,128,0,102759:0:0:0:0:
192,192,102759,128,0,103112:0:0:0:70:clap07.wav
448,192,102759,1,0,0:0:0:0:
320,192,102936,128,0,103112:0:0:0:0:
64,192,103112,1,0,0:0:0:70:clap07.wav
448,192,103112,128,0,103465:0:0:0:0:
64,192,103289,1,0,0:0:0:0:
192,192,103465,1,2,0:0:0:0:
320,192,103465,1,0,0:0:0:70:clap07.wav
64,192,103641,1,0,0:0:0:0:
64,192,103818,1,0,0:0:0:70:clap07.wav
192,192,103818,1,0,0:0:0:0:
448,192,103818,1,0,0:0:0:0:
192,192,103994,1,0,0:0:0:0:
64,192,104171,1,0,0:0:0:70:clap07.wav
320,192,104171,1,0,0:0:0:0:
448,192,104171,1,0,0:0:0:0:
448,192,104347,1,0,0:0:0:0:
64,192,104524,1,2,0:0:0:0:
320,192,104524,1,0,0:0:0:70:clap07.wav
192,192,104700,1,0,0:0:0:0:
448,192,104700,1,0,0:0:0:0:
64,192,104877,128,0,105230:0:0:0:70:clap07.wav
192,192,104877,1,0,0:0:0:0:
320,192,104877,1,0,0:0:0:0:
320,192,105053,1,0,0:0:0:0:
448,192,105053,1,0,0:0:0:0:
192,192,105230,128,0,105406:0:0:0:70:clap07.wav
448,192,105230,128,0,105406:0:0:0:0:
64,192,105583,128,0,105759:0:0:0:70:clap07.wav
192,192,105583,1,0,0:0:0:0:
320,192,105583,128,0,105759:0:0:0:0:
448,192,105936,128,0,106289:0:0:0:0:
64,192,106289,1,2,0:0:0:0:
192,192,106289,1,0,0:0:0:70:clap07.wav
320,192,106289,1,0,0:0:0:0:
64,192,106377,1,0,0:0:0:0:
320,192,106641,1,0,0:0:0:70:clap07.wav
448,192,106641,1,0,0:0:0:0:
64,192,106818,1,2,0:0:0:0:
192,192,106818,1,0,0:0:0:0:
448,192,106818,1,0,0:0:0:0:
64,192,106994,1,0,0:0:0:70:clap07.wav
192,192,106994,128,0,107347:0:0:0:0:
320,192,106994,1,0,0:0:0:0:
64,192,107347,1,2,0:0:0:0:
320,192,107347,1,0,0:0:0:70:clap07.wav
448,192,107347,1,0,0:0:0:0:
448,192,107436,1,0,0:0:0:0:
192,192,107524,1,0,0:0:0:0:
320,192,107612,1,0,0:0:0:0:
64,192,107700,1,0,0:0:0:70:clap07.wav
192,192,107700,1,0,0:0:0:0:
448,192,107700,1,0,0:0:0:0:
320,192,107789,1,0,0:0:0:0:
64,192,107877,1,2,0:0:0:0:
448,192,107877,1,0,0:0:0:0:
192,192,107965,1,0,0:0:0:0:
64,192,108053,1,2,0:0:0:0:
320,192,108053,1,0,0:0:0:70:clap07.wav
320,192,108141,1,0,0:0:0:0:
64,192,108230,1,2,0:0:0:0:
448,192,108230,1,0,0:0:0:0:
192,192,108318,1,0,0:0:0:0:
320,192,108318,1,0,0:0:0:0:
64,192,108406,1,2,0:0:0:0:
448,192,108406,1,0,0:0:0:70:clap07.wav
320,192,108583,1,0,0:0:0:0:
64,192,108671,1,0,0:0:0:0:
192,192,108671,1,0,0:0:0:0:
320,192,108759,1,0,0:0:0:0:
448,192,108759,1,0,0:0:0:0:
64,192,108936,1,0,0:0:0:0:
448,192,108936,1,0,0:0:0:0:
192,192,109112,1,4,0:0:0:0:
192,192,109289,1,0,0:0:0:0:
320,192,109465,1,0,0:0:0:0:
64,192,109641,1,0,0:0:0:0:
320,192,109641,1,0,0:0:0:0:
192,192,109818,1,0,0:0:0:0:
192,192,109994,1,0,0:0:0:0:
448,192,110171,128,0,110524:0:0:0:0:
64,192,110524,128,0,110877:0:0:0:0:
192,192,110524,1,0,0:0:0:0:
320,192,110877,1,0,0:0:0:0:
192,192,111053,1,0,0:0:0:0:
448,192,111053,1,0,0:0:0:0:
64,192,111406,1,0,0:0:0:0:
192,192,111583,1,0,0:0:0:0:
320,192,111583,1,0,0:0:0:0:
192,192,111759,1,0,0:0:0:0:
64,192,111936,1,0,0:0:0:0:
448,192,111936,1,0,0:0:0:0:
448,192,112112,1,0,0:0:0:0:
64,192,112289,1,0,0:0:0:0:
64,192,112465,1,0,0:0:0:0:
320,192,112465,1,0,0:0:0:0:
192,192,112641,1,0,0:0:0:0:
192,192,112818,1,0,0:0:0:0:
320,192,112994,1,0,0:0:0:0:
448,192,112994,128,0,113347:0:0:0:0:
64,192,113347,128,0,113700:0:0:0:0:
192,192,114053,1,0,0:0:0:0:
320,192,114053,1,0,0:0:0:0:
448,192,114230,1,0,0:0:0:0:
64,192,114406,1,0,0:0:0:0:
320,192,114406,1,0,0:0:0:0:
192,192,114583,1,0,0:0:0:0:
64,192,114759,1,0,0:0:0:70:snare #1.wav
320,192,114759,1,0,0:0:0:0:
448,192,114759,1,0,0:0:0:0:
192,192,114936,1,0,0:0:0:70:snare #1.wav
448,192,114936,1,0,0:0:0:0:
64,192,115112,1,0,0:0:0:70:snare #1.wav
320,192,115112,1,0,0:0:0:0:
448,192,115112,1,0,0:0:0:0:
192,192,115289,1,0,0:0:0:70:snare #1.wav
448,192,115289,1,0,0:0:0:0:
64,192,115465,1,0,0:0:0:70:snare #1.wav
320,192,115465,1,0,0:0:0:0:
448,192,115465,1,0,0:0:0:0:
192,192,115641,1,0,0:0:0:70:snare #1.wav
448,192,115641,1,0,0:0:0:0:
64,192,115818,1,0,0:0:0:70:snare #1.wav
320,192,115818,1,0,0:0:0:0:
448,192,115818,1,0,0:0:0:0:
192,192,115994,1,0,0:0:0:70:snare #1.wav
448,192,115994,1,0,0:0:0:0:
64,192,116171,1,0,0:0:0:70:snare #1.wav
320,192,116171,1,0,0:0:0:0:
448,192,116171,1,0,0:0:0:0:
64,192,116347,1,0,0:0:0:70:snare #1.wav
192,192,116347,1,0,0:0:0:0:
64,192,116524,1,0,0:0:0:70:snare #1.wav
320,192,116524,1,0,0:0:0:0:
448,192,116524,1,0,0:0:0:0:
64,192,116700,1,0,0:0:0:70:snare #1.wav
192,192,116700,1,0,0:0:0:0:
64,192,116877,1,0,0:0:0:70:snare #1.wav
320,192,116877,1,0,0:0:0:0:
448,192,116877,1,0,0:0:0:0:
64,192,117053,1,0,0:0:0:70:snare #1.wav
192,192,117053,1,0,0:0:0:0:
64,192,117230,1,0,0:0:0:70:snare #1.wav
320,192,117230,1,0,0:0:0:0:
448,192,117230,1,0,0:0:0:0:
64,192,117406,1,0,0:0:0:70:snare #1.wav
192,192,117406,1,0,0:0:0:0:
64,192,117583,1,0,0:0:0:70:snare #1.wav
448,192,117583,1,0,0:0:0:0:
192,192,117671,1,0,0:0:0:70:snare #1.wav
320,192,117671,1,0,0:0:0:0:
64,192,117759,1,0,0:0:0:70:snare #1.wav
448,192,117759,1,0,0:0:0:0:
192,192,117847,1,0,0:0:0:70:snare #1.wav
320,192,117936,1,0,0:0:0:70:snare #1.wav
448,192,117936,1,0,0:0:0:0:
64,192,118024,1,0,0:0:0:70:snare #1.wav
192,192,118024,1,0,0:0:0:0:
320,192,118112,1,0,0:0:0:70:snare #1.wav
448,192,118112,1,0,0:0:0:0:
64,192,118200,1,0,0:0:0:70:snare #1.wav
192,192,118289,1,0,0:0:0:70:snare #1.wav
320,192,118289,1,0,0:0:0:0:
64,192,118377,1,0,0:0:0:70:snare #1.wav
448,192,118377,1,0,0:0:0:0:
192,192,118465,1,0,0:0:0:70:snare #1.wav
320,192,118465,1,0,0:0:0:0:
448,192,118553,1,0,0:0:0:70:snare #1.wav
64,192,118641,1,0,0:0:0:70:snare #1.wav
192,192,118641,1,0,0:0:0:0:
320,192,118730,1,0,0:0:0:70:snare #1.wav
448,192,118730,1,0,0:0:0:0:
64,192,118818,1,0,0:0:0:70:snare #1.wav
192,192,118818,1,0,0:0:0:0:
320,192,118906,1,0,0:0:0:70:snare #1.wav
448,192,118906,1,0,0:0:0:0:
64,192,118994,128,0,119083:0:0:0:0:
64,192,119171,128,0,119259:0:0:0:0:
64,192,119347,128,0,119524:0:0:0:0:
192,192,119700,128,0,119877:0:0:0:0:
320,192,119877,128,0,120053:0:0:0:0:
448,192,120053,128,0,120230:0:0:0:0:
64,192,120406,128,4,120494:0:0:0:0:
320,192,120406,1,2,0:0:0:0:
448,192,120406,128,0,120494:0:0:0:0:
448,192,120583,1,0,0:0:0:0:
64,192,120759,1,2,0:0:0:0:
192,192,120759,1,0,0:0:0:0:
192,192,120936,1,2,0:0:0:0:
320,192,120936,1,0,0:0:0:0:
64,192,121112,128,8,121200:0:0:0:0:
320,192,121112,1,0,0:0:0:0:
448,192,121112,128,0,121200:0:0:0:0:
64,192,121289,128,2,121377:0:0:0:0:
192,192,121289,128,0,121377:0:0:0:0:
192,192,121465,128,2,121553:0:0:0:0:
320,192,121465,128,0,121553:0:0:0:0:
64,192,121641,1,8,0:0:0:0:
320,192,121641,128,0,121730:0:0:0:0:
448,192,121641,128,0,121730:0:0:0:0:
192,192,121818,1,2,0:0:0:0:
448,192,121818,128,0,121994:0:0:0:0:
64,192,121994,128,8,122171:0:0:0:0:
192,192,121994,1,0,0:0:0:0:
320,192,121994,1,0,0:0:0:0:
320,192,122171,128,2,122524:0:0:0:0:
448,192,122171,1,0,0:0:0:0:
64,192,122347,1,2,0:0:0:0:
192,192,122347,1,0,0:0:0:0:
64,192,122524,128,8,122700:0:0:0:0:
192,192,122524,1,0,0:0:0:0:
448,192,122524,1,0,0:0:0:0:
320,192,122700,1,2,0:0:0:0:
448,192,122700,128,0,122877:0:0:0:0:
192,192,122877,128,2,123230:0:0:0:0:
320,192,122877,1,0,0:0:0:0:
64,192,123053,1,8,0:0:0:0:
448,192,123053,1,0,0:0:0:0:
64,192,123230,128,4,123318:0:0:0:0:
320,192,123230,1,2,0:0:0:0:
448,192,123230,128,0,123318:0:0:0:0:
64,192,123406,1,0,0:0:0:0:
320,192,123583,1,2,0:0:0:0:
448,192,123583,1,0,0:0:0:0:
192,192,123759,1,2,0:0:0:0:
320,192,123759,1,0,0:0:0:0:
64,192,123936,128,8,124024:0:0:0:0:
192,192,123936,1,0,0:0:0:0:
448,192,123936,128,0,124024:0:0:0:0:
320,192,124112,128,2,124200:0:0:0:0:
448,192,124112,128,0,124200:0:0:0:0:
192,192,124289,128,2,124377:0:0:0:0:
320,192,124289,128,0,124377:0:0:0:0:
64,192,124465,128,8,124553:0:0:0:0:
192,192,124465,128,0,124553:0:0:0:0:
448,192,124465,1,0,0:0:0:0:
64,192,124641,128,2,124818:0:0:0:0:
320,192,124641,1,0,0:0:0:0:
192,192,124818,1,8,0:0:0:0:
320,192,124818,1,0,0:0:0:0:
448,192,124818,128,0,124994:0:0:0:0:
64,192,124994,1,2,0:0:0:0:
192,192,124994,128,0,125347:0:0:0:0:
320,192,125171,1,2,0:0:0:0:
448,192,125171,1,0,0:0:0:0:
64,192,125347,1,8,0:0:0:0:
320,192,125347,1,0,0:0:0:0:
448,192,125347,128,0,125524:0:0:0:0:
64,192,125524,128,2,125700:0:0:0:0:
192,192,125524,1,0,0:0:0:0:
192,192,125700,1,2,0:0:0:0:
320,192,125700,128,0,126053:0:0:0:0:
64,192,125877,1,8,0:0:0:0:
448,192,125877,1,0,0:0:0:0:
64,192,126053,128,2,126141:0:0:0:0:
192,192,126053,1,4,0:0:0:0:
448,192,126053,128,0,126141:0:0:0:0:
448,192,126230,1,0,0:0:0:0:
64,192,126406,1,2,0:0:0:0:
192,192,126406,1,0,0:0:0:0:
192,192,126583,1,2,0:0:0:0:
320,192,126583,1,0,0:0:0:0:
64,192,126759,128,8,126847:0:0:0:0:
320,192,126759,1,0,0:0:0:0:
448,192,126759,128,0,126847:0:0:0:0:
64,192,126936,128,2,127024:0:0:0:0:
192,192,126936,128,0,127024:0:0:0:0:
192,192,127112,128,2,127200:0:0:0:0:
320,192,127112,128,0,127200:0:0:0:0:
64,192,127289,1,8,0:0:0:0:
320,192,127289,128,0,127377:0:0:0:0:
448,192,127289,128,0,127377:0:0:0:0:
192,192,127465,1,2,0:0:0:0:
448,192,127465,128,0,127641:0:0:0:0:
64,192,127641,128,8,127818:0:0:0:0:
192,192,127641,1,0,0:0:0:0:
320,192,127641,1,0,0:0:0:0:
320,192,127818,128,2,128171:0:0:0:0:
448,192,127818,1,0,0:0:0:0:
64,192,127994,1,2,0:0:0:0:
192,192,127994,1,0,0:0:0:0:
64,192,128171,128,8,128347:0:0:0:0:
192,192,128171,1,0,0:0:0:0:
448,192,128171,1,0,0:0:0:0:
320,192,128347,1,2,0:0:0:0:
448,192,128347,128,0,128524:0:0:0:0:
192,192,128524,128,2,128877:0:0:0:0:
320,192,128524,1,0,0:0:0:0:
64,192,128700,1,8,0:0:0:0:
448,192,128700,1,0,0:0:0:0:
64,192,128877,1,4,0:0:0:0:
320,192,128877,128,2,129230:0:0:0:0:
448,192,128877,1,0,0:0:0:0:
192,192,129053,128,0,129230:0:0:0:0:
64,192,129230,128,2,129583:0:0:0:0:
448,192,129230,1,0,0:0:0:0:
192,192,129406,128,2,129583:0:0:0:0:
320,192,129406,1,0,0:0:0:0:
320,192,129583,1,8,0:0:0:0:
448,192,129583,128,0,129936:0:0:0:0:
64,192,129759,1,2,0:0:0:0:
192,192,129759,128,0,129936:0:0:0:0:
64,192,129936,128,2,130289:0:0:0:0:
320,192,129936,1,0,0:0:0:0:
320,192,130112,1,8,0:0:0:0:
448,192,130112,1,0,0:0:0:0:
192,192,130289,128,0,130377:0:0:0:0:
448,192,130289,128,0,130818:0:0:0:0:
192,192,130465,128,0,130553:0:0:0:0:
192,192,130641,128,0,130730:0:0:0:0:
64,192,130818,1,0,0:0:0:70:tom1.wav
192,192,130818,1,0,0:0:0:0:
320,192,130906,1,0,0:0:0:70:tom2.wav
448,192,130906,1,0,0:0:0:0:
64,192,130994,128,0,131083:0:0:0:70:tom3.wav
192,192,130994,1,0,0:0:0:0:
192,192,131171,128,0,131259:0:0:0:70:tom3.wav
320,192,131171,1,0,0:0:0:0:
320,192,131347,128,0,131436:0:0:0:70:tom4.wav
448,192,131347,1,0,0:0:0:0:
64,192,131700,128,2,132406:0:0:0:0:
192,192,131700,128,4,132053:0:0:0:0:
448,192,131700,1,0,0:0:0:0:
320,192,132053,1,2,0:0:0:0:
448,192,132053,1,0,0:0:0:0:
192,192,132230,1,2,0:0:0:0:
320,192,132230,1,0,0:0:0:0:
192,192,132406,128,8,132583:0:0:0:0:
320,192,132406,1,0,0:0:0:0:
448,192,132406,1,0,0:0:0:0:
64,192,132583,1,0,0:0:0:0:
448,192,132583,128,0,132759:0:0:0:0:
64,192,132759,1,0,0:0:0:0:
320,192,132759,128,0,132936:0:0:0:0:
64,192,132936,1,0,0:0:0:0:
192,192,132936,128,0,133112:0:0:0:0:
320,192,133112,1,2,0:0:0:0:
448,192,133112,128,0,133377:0:0:0:0:
64,192,133289,1,8,0:0:0:0:
192,192,133289,1,0,0:0:0:0:
320,192,133289,1,0,0:0:0:0:
320,192,133465,1,2,0:0:0:0:
448,192,133465,128,0,133730:0:0:0:0:
64,192,133641,1,2,0:0:0:0:
192,192,133641,1,0,0:0:0:0:
64,192,133818,1,8,0:0:0:0:
320,192,133818,1,0,0:0:0:0:
448,192,133818,128,0,134083:0:0:0:0:
192,192,133994,1,0,0:0:0:0:
64,192,134171,128,0,134524:0:0:0:0:
320,192,134171,1,0,0:0:0:0:
192,192,134347,128,0,134524:0:0:0:0:
448,192,134347,1,0,0:0:0:0:
320,192,134524,1,2,0:0:0:0:
448,192,134524,1,4,0:0:0:0:
64,192,134700,1,0,0:0:0:0:
192,192,134877,1,2,0:0:0:0:
320,192,134877,1,0,0:0:0:0:
320,192,135053,1,2,0:0:0:0:
448,192,135053,1,0,0:0:0:0:
64,192,135230,1,8,0:0:0:0:
192,192,135230,1,0,0:0:0:0:
448,192,135230,128,0,135406:0:0:0:0:
64,192,135406,128,0,135583:0:0:0:0:
320,192,135406,1,0,0:0:0:0:
192,192,135583,1,0,0:0:0:0:
320,192,135583,128,0,135759:0:0:0:0:
64,192,135759,1,0,0:0:0:0:
192,192,135759,128,0,135936:0:0:0:0:
320,192,135936,1,2,0:0:0:0:
448,192,135936,128,0,136200:0:0:0:0:
64,192,136112,1,8,0:0:0:0:
192,192,136112,1,0,0:0:0:0:
320,192,136112,1,0,0:0:0:0:
64,192,136289,128,2,136553:0:0:0:0:
448,192,136289,1,0,0:0:0:0:
192,192,136465,1,2,0:0:0:0:
320,192,136465,1,0,0:0:0:0:
64,192,136641,1,8,0:0:0:0:
192,192,136641,1,0,0:0:0:0:
448,192,136641,128,0,136906:0:0:0:0:
64,192,136818,1,2,0:0:0:0:
320,192,136818,1,0,0:0:0:0:
192,192,136994,1,8,0:0:0:0:
320,192,136994,1,0,0:0:0:0:
448,192,136994,1,0,0:0:0:0:
64,192,137171,1,8,0:0:0:0:
192,192,137171,1,0,0:0:0:0:
320,192,137259,1,8,0:0:0:0:
448,192,137259,1,0,0:0:0:0:
64,192,137347,1,2,0:0:0:0:
192,192,137347,1,0,0:0:0:0:
64,192,137524,1,2,0:0:0:0:
320,192,137524,1,0,0:0:0:0:
192,192,137700,1,2,0:0:0:0:
448,192,137700,1,0,0:0:0:0:
64,192,138053,128,4,138230:0:0:0:0:
320,192,138053,1,8,0:0:0:0:
448,192,138053,1,0,0:0:0:0:
192,192,138230,1,2,0:0:0:0:
448,192,138230,128,0,138406:0:0:0:0:
192,192,138406,128,2,138583:0:0:0:0:
320,192,138406,1,0,0:0:0:0:
64,192,138583,1,8,0:0:0:0:
320,192,138583,128,0,138759:0:0:0:0:
448,192,138583,1,0,0:0:0:0:
64,192,138759,128,2,139024:0:0:0:0:
192,192,138759,1,0,0:0:0:0:
192,192,138936,1,8,0:0:0:0:
320,192,138936,1,0,0:0:0:0:
448,192,138936,1,0,0:0:0:0:
64,192,139112,128,2,139377:0:0:0:0:
192,192,139112,1,0,0:0:0:0:
320,192,139289,1,2,0:0:0:0:
448,192,139289,1,0,0:0:0:0:
64,192,139465,128,8,139730:0:0:0:0:
192,192,139465,1,0,0:0:0:0:
448,192,139465,1,0,0:0:0:0:
320,192,139641,1,2,0:0:0:0:
192,192,139818,1,2,0:0:0:0:
448,192,139818,1,0,0:0:0:0:
64,192,139994,1,0,0:0:0:0:
320,192,139994,1,0,0:0:0:0:
192,192,140171,1,8,0:0:0:0:
320,192,140171,1,4,0:0:0:0:
64,192,140259,1,8,0:0:0:0:
448,192,140259,1,0,0:0:0:0:
192,192,140347,1,2,0:0:0:0:
320,192,140347,1,0,0:0:0:0:
448,192,140436,1,2,0:0:0:0:
64,192,140524,1,8,0:0:0:0:
192,192,140524,1,0,0:0:0:0:
320,192,140612,1,8,0:0:0:0:
448,192,140612,1,0,0:0:0:0:
64,192,140700,1,2,0:0:0:0:
192,192,140700,1,0,0:0:0:0:
320,192,140789,1,2,0:0:0:0:
64,192,140877,1,8,0:0:0:0:
448,192,140877,1,0,0:0:0:0:
192,192,140965,1,8,0:0:0:0:
320,192,140965,1,0,0:0:0:0:
64,192,141053,1,2,0:0:0:0:
448,192,141053,1,0,0:0:0:0:
192,192,141141,1,2,0:0:0:0:
320,192,141230,1,8,0:0:0:0:
448,192,141230,1,0,0:0:0:0:
64,192,141318,1,8,0:0:0:0:
192,192,141318,1,0,0:0:0:0:
320,192,141406,1,2,0:0:0:0:
448,192,141406,1,0,0:0:0:0:
64,192,141494,1,2,0:0:0:0:
192,192,141583,128,8,141671:0:0:0:0:
320,192,141583,128,0,141671:0:0:0:0:
320,192,141759,128,2,141847:0:0:0:0:
448,192,141759,128,0,141847:0:0:0:0:
192,192,141936,1,8,0:0:0:0:
320,192,141936,128,0,142024:0:0:0:0:
448,192,141936,128,0,142024:0:0:0:0:
64,192,142112,128,2,142200:0:0:0:0:
192,192,142112,128,0,142200:0:0:0:0:
64,192,142289,1,8,0:0:0:0:
192,192,142289,128,0,142377:0:0:0:0:
448,192,142289,128,0,142377:0:0:0:0:
192,192,142465,128,2,142553:0:0:0:0:
320,192,142465,128,0,142553:0:0:0:0:
64,192,142641,128,8,142906:0:0:0:0:
320,192,142641,1,0,0:0:0:0:
448,192,142641,128,0,142906:0:0:0:0:
64,192,142994,128,4,143347:0:0:0:0:
320,192,142994,1,2,0:0:0:0:
448,192,142994,1,0,0:0:0:0:
448,192,143259,128,0,143347:0:0:0:0:
192,192,143347,1,2,0:0:0:0:
192,192,143524,1,2,0:0:0:0:
448,192,143524,128,0,143612:0:0:0:0:
64,192,143700,128,8,143789:0:0:0:0:
192,192,143700,1,0,0:0:0:0:
320,192,143700,1,0,0:0:0:0:
320,192,143877,1,2,0:0:0:0:
448,192,143877,1,0,0:0:0:0:
192,192,143965,128,0,144053:0:0:0:0:
64,192,144053,1,2,0:0:0:0:
448,192,144053,1,0,0:0:0:0:
64,192,144230,1,8,0:0:0:0:
320,192,144230,128,0,144318:0:0:0:0:
448,192,144230,1,0,0:0:0:0:
192,192,144406,128,2,144494:0:0:0:0:
320,192,144406,1,0,0:0:0:0:
64,192,144583,1,8,0:0:0:0:
192,192,144583,1,0,0:0:0:0:
448,192,144583,1,0,0:0:0:0:
64,192,144759,1,2,0:0:0:0:
320,192,144759,1,0,0:0:0:0:
64,192,144936,1,2,0:0:0:0:
320,192,144936,1,0,0:0:0:0:
192,192,145112,1,8,0:0:0:0:
320,192,145112,1,0,0:0:0:0:
448,192,145112,128,0,145200:0:0:0:0:
64,192,145289,1,2,0:0:0:0:
192,192,145289,1,0,0:0:0:0:
320,192,145377,128,0,145465:0:0:0:0:
64,192,145465,1,2,0:0:0:0:
448,192,145465,1,0,0:0:0:0:
64,192,145641,1,8,0:0:0:0:
192,192,145641,128,0,145730:0:0:0:0:
448,192,145641,1,0,0:0:0:0:
192,192,145818,1,2,0:0:0:0:
320,192,145818,128,0,145906:0:0:0:0:
448,192,146083,128,0,146171:0:0:0:0:
64,192,146171,1,2,0:0:0:0:
192,192,146171,1,0,0:0:0:0:
192,192,146347,128,2,146436:0:0:0:0:
320,192,146347,1,0,0:0:0:0:
64,192,146524,1,8,0:0:0:0:
320,192,146524,1,0,0:0:0:0:
448,192,146524,128,0,146612:0:0:0:0:
64,192,146700,1,2,0:0:0:0:
192,192,146700,1,0,0:0:0:0:
320,192,146877,1,2,0:0:0:0:
448,192,146877,1,0,0:0:0:0:
64,192,147053,1,8,0:0:0:0:
192,192,147053,1,0,0:0:0:0:
448,192,147053,1,0,0:0:0:0:
192,192,147230,1,2,0:0:0:0:
320,192,147230,1,0,0:0:0:0:
192,192,147406,1,8,0:0:0:0:
320,192,147406,1,0,0:0:0:0:
448,192,147406,1,0,0:0:0:0:
64,192,147583,1,2,0:0:0:0:
448,192,147583,1,0,0:0:0:0:
192,192,147759,1,2,0:0:0:0:
320,192,147759,1,0,0:0:0:0:
64,192,147936,1,8,0:0:0:0:
192,192,147936,128,0,148024:0:0:0:0:
320,192,147936,1,0,0:0:0:0:
320,192,148112,1,2,0:0:0:0:
448,192,148112,1,0,0:0:0:0:
64,192,148289,128,2,148553:0:0:0:0:
192,192,148289,1,0,0:0:0:0:
192,192,148465,1,8,0:0:0:0:
320,192,148465,1,0,0:0:0:0:
448,192,148465,1,0,0:0:0:0:
64,192,148641,1,2,0:0:0:0:
320,192,148641,1,4,0:0:0:0:
448,192,148641,128,0,148994:0:0:0:0:
64,192,148906,128,0,148994:0:0:0:0:
320,192,148994,1,2,0:0:0:0:
64,192,149171,128,2,149259:0:0:0:0:
320,192,149171,1,0,0:0:0:0:
192,192,149347,1,8,0:0:0:0:
320,192,149347,1,0,0:0:0:0:
448,192,149347,128,0,149436:0:0:0:0:
64,192,149524,1,2,0:0:0:0:
192,192,149524,1,0,0:0:0:0:
320,192,149612,128,0,149700:0:0:0:0:
64,192,149700,1,2,0:0:0:0:
448,192,149700,1,0,0:0:0:0:
64,192,149877,1,8,0:0:0:0:
192,192,149877,128,0,149965:0:0:0:0:
448,192,149877,1,0,0:0:0:0:
192,192,150053,1,2,0:0:0:0:
320,192,150053,128,0,150141:0:0:0:0:
64,192,150230,1,8,0:0:0:0:
320,192,150230,1,0,0:0:0:0:
448,192,150230,1,0,0:0:0:0:
192,192,150406,1,2,0:0:0:0:
448,192,150406,1,0,0:0:0:0:
192,192,150583,1,2,0:0:0:0:
448,192,150583,1,0,0:0:0:0:
64,192,150759,128,8,150847:0:0:0:0:
192,192,150759,1,0,0:0:0:0:
320,192,150759,1,0,0:0:0:0:
320,192,150936,1,2,0:0:0:0:
448,192,150936,1,0,0:0:0:0:
192,192,151024,128,0,151112:0:0:0:0:
64,192,151112,1,2,0:0:0:0:
448,192,151112,1,0,0:0:0:0:
64,192,151289,1,8,0:0:0:0:
320,192,151289,128,0,151377:0:0:0:0:
448,192,151289,1,0,0:0:0:0:
192,192,151465,128,2,151553:0:0:0:0:
320,192,151465,1,0,0:0:0:0:
448,192,151730,128,0,151818:0:0:0:0:
64,192,151818,1,2,0:0:0:0:
192,192,151818,1,0,0:0:0:0:
192,192,151994,1,2,0:0:0:0:
320,192,151994,128,0,152083:0:0:0:0:
64,192,152171,128,8,152259:0:0:0:0:
320,192,152171,1,0,0:0:0:0:
448,192,152171,1,0,0:0:0:0:
192,192,152347,1,2,0:0:0:0:
448,192,152347,1,0,0:0:0:0:
64,192,152524,1,2,0:0:0:0:
320,192,152524,1,0,0:0:0:0:
64,192,152700,1,8,0:0:0:0:
192,192,152700,1,0,0:0:0:0:
448,192,152700,1,0,0:0:0:0:
192,192,152877,1,2,0:0:0:0:
320,192,152877,1,0,0:0:0:0:
64,192,153053,1,8,0:0:0:0:
192,192,153053,1,0,0:0:0:0:
320,192,153053,1,0,0:0:0:0:
64,192,153230,1,2,0:0:0:0:
448,192,153230,1,0,0:0:0:0:
192,192,153406,1,2,0:0:0:0:
320,192,153406,1,0,0:0:0:0:
192,192,153583,1,8,0:0:0:0:
320,192,153583,1,0,0:0:0:0:
448,192,153583,1,0,0:0:0:0:
64,192,153759,1,2,0:0:0:0:
192,192,153759,1,0,0:0:0:0:
64,192,153936,1,2,0:0:0:0:
320,192,153936,1,8,0:0:0:0:
448,192,153936,128,0,154289:0:0:0:0:
64,192,154289,1,4,0:0:0:0:
192,192,154289,128,0,154465:0:0:0:0:
320,192,154465,128,0,154641:0:0:0:0:
448,192,154641,128,0,154818:0:0:0:0:
192,192,154818,128,0,154994:0:0:0:0:
64,192,154994,1,0,0:0:0:0:
320,192,154994,128,0,155347:0:0:0:0:
64,192,155347,128,0,155700:0:0:0:0:
320,192,155700,1,0,0:0:0:0:
448,192,155700,128,0,156053:0:0:0:0:
192,192,156053,1,0,0:0:0:0:
64,192,156406,1,0,0:0:0:0:
448,192,156406,1,0,0:0:0:0:
320,192,156759,1,0,0:0:0:0:
64,192,157112,1,0,0:0:0:0:
192,192,157112,128,0,157289:0:0:0:0:
320,192,157289,128,0,157465:0:0:0:0:
448,192,157465,128,0,157641:0:0:0:0:
192,192,157641,128,0,157818:0:0:0:0:
64,192,157818,1,0,0:0:0:0:
320,192,157818,128,0,158171:0:0:0:0:
64,192,158171,128,0,158524:0:0:0:0:
320,192,158524,1,0,0:0:0:0:
448,192,158524,128,0,158877:0:0:0:0:
64,192,158877,1,0,0:0:0:0:
192,192,159230,1,0,0:0:0:0:
320,192,159230,128,0,159583:0:0:0:0:
64,192,159583,1,0,0:0:0:0:
448,192,159583,128,0,159936:0:0:0:0:
192,192,159759,1,0,0:0:0:0:
64,192,159936,128,0,160289:0:0:0:0:
320,192,159936,1,0,0:0:0:0:
192,192,160289,1,0,0:0:0:0:
320,192,160641,128,0,160994:0:0:0:0:
448,192,160641,1,0,0:0:0:0:
64,192,160994,1,0,0:0:0:0:
192,192,161347,128,0,161700:0:0:0:0:
320,192,161347,1,0,0:0:0:0:
448,192,161700,1,0,0:0:0:0:
64,192,162053,128,0,162406:0:0:0:0:
192,192,162053,1,0,0:0:0:0:
448,192,162406,1,0,0:0:0:0:
320,192,162583,1,0,0:0:0:0:
64,192,162759,1,0,0:0:0:0:
320,192,162759,128,0,163112:0:0:0:0:
192,192,163112,1,0,0:0:0:0:
320,192,163465,1,0,0:0:0:0:
448,192,163465,1,0,0:0:0:0:
64,192,163641,1,0,0:0:0:0:
192,192,163641,1,0,0:0:0:0:
192,192,163818,1,0,0:0:0:0:
320,192,163818,1,0,0:0:0:0:
320,192,163994,1,0,0:0:0:0:
448,192,163994,1,0,0:0:0:0:
64,192,164171,1,0,0:0:0:0:
448,192,164171,1,0,0:0:0:0:
64,192,164700,1,0,0:0:0:0:
192,192,164700,1,0,0:0:0:0:
192,192,165230,1,0,0:0:0:0:
320,192,165230,1,0,0:0:0:0:
64,192,165583,1,4,0:0:0:0:
320,192,165583,128,0,165936:0:0:0:0:
448,192,165583,1,0,0:0:0:0:
192,192,165759,128,0,165936:0:0:0:0:
64,192,165936,128,0,166289:0:0:0:0:
320,192,166112,128,0,166289:0:0:0:0:
192,192,166289,1,0,0:0:0:0:
448,192,166289,128,0,166641:0:0:0:0:
192,192,166641,128,0,166994:0:0:0:0:
64,192,166994,128,0,167347:0:0:0:0:
448,192,166994,1,0,0:0:0:0:
320,192,167171,1,0,0:0:0:0:
192,192,167524,1,0,0:0:0:0:
320,192,167700,1,0,0:0:0:0:
448,192,167700,1,0,0:0:0:0:
64,192,168053,1,0,0:0:0:0:
192,192,168406,128,0,168759:0:0:0:0:
448,192,168406,1,0,0:0:0:0:
320,192,168583,128,0,168759:0:0:0:0:
448,192,168759,128,0,169112:0:0:0:0:
192,192,168936,128,0,169112:0:0:0:0:
64,192,169112,128,0,169465:0:0:0:0:
320,192,169112,1,0,0:0:0:0:
320,192,169465,128,0,169818:0:0:0:0:
64,192,169818,1,0,0:0:0:0:
448,192,169818,128,0,170171:0:0:0:0:
192,192,169994,1,0,0:0:0:0:
320,192,170347,128,0,170524:0:0:0:0:
192,192,170436,128,0,170524:0:0:0:0:
64,192,170524,128,0,170877:0:0:0:0:
448,192,170524,1,0,0:0:0:0:
320,192,170700,128,0,170877:0:0:0:0:
448,192,170877,128,0,171053:0:0:0:0:
192,192,171053,128,0,171230:0:0:0:0:
64,192,171230,1,2,0:0:0:0:
320,192,171230,1,4,0:0:0:0:
448,192,171230,128,0,171583:0:0:0:0:
64,192,171583,1,2,0:0:0:0:
192,192,171583,1,0,0:0:0:0:
320,192,171759,1,0,0:0:0:0:
64,192,171936,1,2,0:0:0:0:
192,192,171936,1,0,0:0:0:0:
320,192,172112,1,0,0:0:0:0:
64,192,172289,1,2,0:0:0:0:
192,192,172289,1,0,0:0:0:0:
192,192,172465,1,0,0:0:0:0:
64,192,172641,1,2,0:0:0:0:
448,192,172641,1,0,0:0:0:0:
64,192,172994,1,2,0:0:0:0:
448,192,172994,1,0,0:0:0:0:
64,192,173347,1,2,0:0:0:0:
448,192,173347,1,0,0:0:0:0:
64,192,173700,1,2,0:0:0:0:
448,192,173700,1,0,0:0:0:0:
320,192,173877,1,0,0:0:0:0:
64,192,174053,1,8,0:0:0:0:
192,192,174053,1,4,0:0:0:0:
448,192,174053,1,0,0:0:0:0:
320,192,174230,1,2,0:0:0:0:
448,192,174230,1,0,0:0:0:0:
192,192,174406,1,2,0:0:0:0:
320,192,174406,1,0,0:0:0:0:
64,192,174583,1,8,0:0:0:0:
192,192,174583,1,4,0:0:0:0:
448,192,174583,1,0,0:0:0:0:
192,192,174759,1,2,0:0:0:0:
320,192,174759,1,0,0:0:0:0:
320,192,174936,1,2,0:0:0:0:
448,192,174936,1,0,0:0:0:0:
64,192,175112,1,8,0:0:0:0:
192,192,175112,1,4,0:0:0:0:
448,192,175112,1,0,0:0:0:0:
320,192,175289,1,2,0:0:0:0:
448,192,175289,1,0,0:0:0:0:
192,192,175465,1,2,0:0:0:0:
320,192,175465,1,0,0:0:0:0:
64,192,175641,1,8,0:0:0:0:
192,192,175641,1,4,0:0:0:0:
448,192,175641,1,0,0:0:0:0:
192,192,175818,1,2,0:0:0:0:
320,192,175818,1,0,0:0:0:0:
320,192,175994,1,2,0:0:0:0:
448,192,175994,1,0,0:0:0:0:
64,192,176171,1,8,0:0:0:0:
192,192,176171,1,4,0:0:0:0:
448,192,176171,1,0,0:0:0:0:
320,192,176347,1,2,0:0:0:0:
448,192,176347,1,0,0:0:0:0:
64,192,176524,1,8,0:0:0:0:
192,192,176524,128,4,176877:0:0:0:0:
320,192,176524,1,0,0:0:0:0:
64,192,176877,128,2,178289:0:0:0:0:
448,192,176877,128,0,178289:0:0:0:0:
320,192,177759,128,0,178289:0:0:0:0:
192,192,178289,128,0,178377:0:0:0:0:
192,192,178465,128,0,178553:0:0:0:0:
192,192,178641,128,0,178818:0:0:0:0:
320,192,178818,1,0,0:0:0:0:
320,192,178994,128,4,179171:0:0:0:0:
192,192,179171,128,0,179347:0:0:0:0:
64,192,179347,128,2,179524:0:0:0:0:
448,192,179347,1,0,0:0:0:0:
64,192,179700,128,2,180053:0:0:0:0:
192,192,179700,128,4,180053:0:0:0:0:
448,192,179700,128,0,179789:0:0:0:0:
320,192,180053,1,2,0:0:0:0:
448,192,180053,1,0,0:0:0:0:
192,192,180230,1,2,0:0:0:0:
320,192,180230,1,0,0:0:0:0:
64,192,180406,128,8,180583:0:0:0:0:
192,192,180406,1,0,0:0:0:0:
448,192,180406,128,0,180494:0:0:0:0:
320,192,180583,128,2,180671:0:0:0:0:
448,192,180583,128,0,180759:0:0:0:0:
192,192,180759,128,2,180847:0:0:0:0:
320,192,180759,128,0,180936:0:0:0:0:
64,192,180936,128,8,181024:0:0:0:0:
192,192,180936,128,0,181112:0:0:0:0:
448,192,180936,1,0,0:0:0:0:
64,192,181112,128,2,181289:0:0:0:0:
320,192,181112,128,0,181465:0:0:0:0:
192,192,181289,1,8,0:0:0:0:
448,192,181289,128,0,181465:0:0:0:0:
64,192,181465,1,2,0:0:0:0:
192,192,181465,128,0,181818:0:0:0:0:
320,192,181641,1,2,0:0:0:0:
448,192,181641,1,0,0:0:0:0:
64,192,181818,1,8,0:0:0:0:
320,192,181818,128,0,182171:0:0:0:0:
448,192,181818,128,0,181994:0:0:0:0:
64,192,181994,128,2,182171:0:0:0:0:
192,192,181994,1,0,0:0:0:0:
192,192,182171,128,2,182524:0:0:0:0:
448,192,182171,1,0,0:0:0:0:
64,192,182347,1,8,0:0:0:0:
320,192,182347,1,0,0:0:0:0:
64,192,182524,128,2,182612:0:0:0:0:
320,192,182524,1,4,0:0:0:0:
448,192,182524,128,0,182612:0:0:0:0:
448,192,182700,1,0,0:0:0:0:
64,192,182877,1,2,0:0:0:0:
192,192,182877,1,0,0:0:0:0:
192,192,183053,1,2,0:0:0:0:
320,192,183053,1,0,0:0:0:0:
64,192,183230,128,8,183318:0:0:0:0:
320,192,183230,1,0,0:0:0:0:
448,192,183230,128,0,183406:0:0:0:0:
64,192,183406,128,2,183583:0:0:0:0:
192,192,183406,128,0,183494:0:0:0:0:
192,192,183583,128,2,183759:0:0:0:0:
320,192,183583,128,0,183671:0:0:0:0:
64,192,183759,1,8,0:0:0:0:
320,192,183759,128,0,183936:0:0:0:0:
448,192,183759,128,0,183847:0:0:0:0:
192,192,183936,128,2,184289:0:0:0:0:
448,192,183936,128,0,184112:0:0:0:0:
64,192,184112,128,8,184289:0:0:0:0:
320,192,184112,1,0,0:0:0:0:
320,192,184289,128,2,184641:0:0:0:0:
448,192,184289,1,0,0:0:0:0:
64,192,184465,1,2,0:0:0:0:
192,192,184465,1,0,0:0:0:0:
64,192,184641,128,8,184818:0:0:0:0:
192,192,184641,128,0,184994:0:0:0:0:
448,192,184641,1,0,0:0:0:0:
320,192,184818,1,2,0:0:0:0:
448,192,184818,128,0,184994:0:0:0:0:
64,192,184994,1,2,0:0:0:0:
320,192,184994,128,0,185347:0:0:0:0:
192,192,185171,1,8,0:0:0:0:
448,192,185171,1,0,0:0:0:0:
64,192,185347,128,4,185436:0:0:0:0:
192,192,185347,1,2,0:0:0:0:
448,192,185347,128,0,185436:0:0:0:0:
64,192,185524,1,0,0:0:0:0:
320,192,185700,1,2,0:0:0:0:
448,192,185700,1,0,0:0:0:0:
192,192,185877,1,2,0:0:0:0:
320,192,185877,1,0,0:0:0:0:
64,192,186053,128,8,186230:0:0:0:0:
192,192,186053,1,0,0:0:0:0:
448,192,186053,128,0,186141:0:0:0:0:
320,192,186230,128,2,186318:0:0:0:0:
448,192,186230,128,0,186406:0:0:0:0:
192,192,186406,128,2,186494:0:0:0:0:
320,192,186406,128,0,186583:0:0:0:0:
64,192,186583,128,8,186671:0:0:0:0:
192,192,186583,128,0,186759:0:0:0:0:
448,192,186583,1,0,0:0:0:0:
64,192,186759,128,2,186936:0:0:0:0:
320,192,186759,128,0,187112:0:0:0:0:
192,192,186936,1,8,0:0:0:0:
448,192,186936,128,0,187112:0:0:0:0:
64,192,187112,1,2,0:0:0:0:
192,192,187112,128,0,187465:0:0:0:0:
320,192,187289,1,2,0:0:0:0:
448,192,187289,1,0,0:0:0:0:
64,192,187465,1,8,0:0:0:0:
320,192,187465,128,0,187818:0:0:0:0:
448,192,187465,128,0,187641:0:0:0:0:
64,192,187641,128,2,187818:0:0:0:0:
192,192,187641,1,0,0:0:0:0:
192,192,187818,128,2,188171:0:0:0:0:
448,192,187818,1,0,0:0:0:0:
64,192,187994,1,8,0:0:0:0:
320,192,187994,1,0,0:0:0:0:
64,192,188171,1,2,0:0:0:0:
320,192,188171,128,4,188524:0:0:0:0:
448,192,188171,1,0,0:0:0:0:
192,192,188347,128,0,188524:0:0:0:0:
64,192,188524,1,2,0:0:0:0:
448,192,188524,128,0,188877:0:0:0:0:
192,192,188700,128,2,188877:0:0:0:0:
320,192,188700,1,0,0:0:0:0:
64,192,188877,128,8,189230:0:0:0:0:
320,192,188877,1,0,0:0:0:0:
192,192,189053,128,2,189230:0:0:0:0:
448,192,189053,1,0,0:0:0:0:
320,192,189230,1,2,0:0:0:0:
448,192,189230,128,0,189583:0:0:0:0:
64,192,189406,1,8,0:0:0:0:
320,192,189406,1,0,0:0:0:0:
64,192,189583,128,0,190112:0:0:0:0:
192,192,189583,128,0,189671:0:0:0:0:
192,192,189759,128,0,189847:0:0:0:0:
192,192,189936,128,0,190024:0:0:0:0:
320,192,190112,1,0,0:0:0:70:tom1.wav
448,192,190112,1,0,0:0:0:0:
64,192,190200,1,0,0:0:0:70:tom2.wav
192,192,190200,1,0,0:0:0:0:
320,192,190289,128,0,190406:0:0:0:70:tom3.wav
448,192,190289,128,0,190524:0:0:0:0:
192,192,190524,128,0,190641:0:0:0:70:tom3.wav
320,192,190524,128,0,190759:0:0:0:0:
64,192,190759,128,0,190877:0:0:0:70:tom4.wav
192,192,190759,128,0,190994:0:0:0:0:
64,192,190994,1,2,0:0:0:0:
320,192,190994,128,4,191347:0:0:0:0:
448,192,190994,128,0,191700:0:0:0:0:
64,192,191347,1,2,0:0:0:0:
192,192,191347,1,0,0:0:0:0:
192,192,191524,1,2,0:0:0:0:
320,192,191524,1,0,0:0:0:0:
64,192,191700,1,8,0:0:0:0:
192,192,191700,1,0,0:0:0:0:
320,192,191700,128,0,191877:0:0:0:0:
64,192,191877,128,2,192053:0:0:0:0:
448,192,191877,1,0,0:0:0:0:
192,192,192053,128,2,192230:0:0:0:0:
448,192,192053,1,0,0:0:0:0:
320,192,192230,128,8,192406:0:0:0:0:
448,192,192230,1,0,0:0:0:0:
64,192,192406,128,2,192671:0:0:0:0:
192,192,192406,1,0,0:0:0:0:
192,192,192583,1,8,0:0:0:0:
320,192,192583,1,0,0:0:0:0:
448,192,192583,1,0,0:0:0:0:
64,192,192759,128,2,193024:0:0:0:0:
192,192,192759,1,0,0:0:0:0:
320,192,192936,1,2,0:0:0:0:
448,192,192936,1,0,0:0:0:0:
64,192,193112,128,8,193377:0:0:0:0:
192,192,193112,1,0,0:0:0:0:
448,192,193112,1,0,0:0:0:0:
320,192,193289,1,2,0:0:0:0:
192,192,193465,1,2,0:0:0:0:
448,192,193465,128,0,193818:0:0:0:0:
64,192,193641,1,8,0:0:0:0:
320,192,193641,128,0,193818:0:0:0:0:
64,192,193818,1,2,0:0:0:0:
192,192,193818,1,4,0:0:0:0:
192,192,193994,1,0,0:0:0:0:
320,192,194171,1,2,0:0:0:0:
448,192,194171,1,0,0:0:0:0:
192,192,194347,1,2,0:0:0:0:
320,192,194347,1,0,0:0:0:0:
64,192,194524,128,8,194700:0:0:0:0:
192,192,194524,1,0,0:0:0:0:
448,192,194524,1,0,0:0:0:0:
320,192,194700,1,2,0:0:0:0:
448,192,194700,128,0,194877:0:0:0:0:
192,192,194877,1,2,0:0:0:0:
320,192,194877,128,0,195053:0:0:0:0:
64,192,195053,1,8,0:0:0:0:
192,192,195053,128,0,195230:0:0:0:0:
448,192,195053,1,0,0:0:0:0:
64,192,195230,128,2,195494:0:0:0:0:
320,192,195230,1,0,0:0:0:0:
192,192,195406,1,8,0:0:0:0:
320,192,195406,1,0,0:0:0:0:
448,192,195406,1,0,0:0:0:0:
64,192,195583,1,2,0:0:0:0:
448,192,195583,128,0,195847:0:0:0:0:
192,192,195759,1,2,0:0:0:0:
320,192,195759,1,0,0:0:0:0:
64,192,195936,128,8,196200:0:0:0:0:
320,192,195936,1,0,0:0:0:0:
448,192,195936,1,0,0:0:0:0:
192,192,196112,1,2,0:0:0:0:
448,192,196112,1,0,0:0:0:0:
64,192,196289,1,2,0:0:0:0:
192,192,196289,128,0,196465:0:0:0:0:
64,192,196465,128,8,196641:0:0:0:0:
320,192,196465,1,0,0:0:0:0:
448,192,196465,1,0,0:0:0:0:
192,192,196641,1,4,0:0:0:0:
320,192,196641,1,2,0:0:0:0:
448,192,196641,1,0,0:0:0:0:
192,192,196818,1,0,0:0:0:0:
64,192,196994,1,2,0:0:0:0:
320,192,196994,1,0,0:0:0:0:
192,192,197171,1,2,0:0:0:0:
320,192,197171,1,0,0:0:0:0:
64,192,197347,1,8,0:0:0:0:
192,192,197347,1,0,0:0:0:0:
448,192,197347,128,0,197524:0:0:0:0:
64,192,197524,128,2,197700:0:0:0:0:
320,192,197524,1,0,0:0:0:0:
192,192,197700,1,2,0:0:0:0:
320,192,197700,128,0,197877:0:0:0:0:
64,192,197877,1,8,0:0:0:0:
192,192,197877,128,0,198053:0:0:0:0:
448,192,197877,1,0,0:0:0:0:
320,192,198053,1,2,0:0:0:0:
448,192,198053,128,0,198318:0:0:0:0:
64,192,198230,1,8,0:0:0:0:
192,192,198230,1,0,0:0:0:0:
320,192,198230,1,0,0:0:0:0:
320,192,198406,1,2,0:0:0:0:
448,192,198406,128,0,198671:0:0:0:0:
64,192,198583,1,2,0:0:0:0:
192,192,198583,1,0,0:0:0:0:
64,192,198759,1,8,0:0:0:0:
320,192,198759,1,0,0:0:0:0:
448,192,198759,128,0,199112:0:0:0:0:
192,192,198936,1,2,0:0:0:0:
320,192,198936,1,0,0:0:0:0:
64,192,199112,1,2,0:0:0:0:
192,192,199112,128,0,199289:0:0:0:0:
448,192,199289,128,0,199465:0:0:0:0:
192,192,199465,1,4,0:0:0:0:
320,192,199465,1,8,0:0:0:0:
64,192,199553,1,8,0:0:0:0:
448,192,199553,1,0,0:0:0:0:
192,192,199641,1,2,0:0:0:0:
320,192,199641,1,0,0:0:0:0:
64,192,199730,1,2,0:0:0:0:
320,192,199818,1,8,0:0:0:0:
448,192,199818,1,0,0:0:0:0:
64,192,199906,1,8,0:0:0:0:
192,192,199906,1,0,0:0:0:0:
320,192,199994,1,2,0:0:0:0:
448,192,199994,1,0,0:0:0:0:
192,192,200083,1,2,0:0:0:0:
64,192,200171,1,8,0:0:0:0:
448,192,200171,1,0,0:0:0:0:
192,192,200259,1,8,0:0:0:0:
320,192,200259,1,0,0:0:0:0:
64,192,200347,1,2,0:0:0:0:
448,192,200347,1,0,0:0:0:0:
320,192,200436,1,2,0:0:0:0:
64,192,200524,1,8,0:0:0:0:
192,192,200524,1,0,0:0:0:0:
320,192,200612,1,8,0:0:0:0:
448,192,200612,1,0,0:0:0:0:
64,192,200700,1,2,0:0:0:0:
192,192,200700,1,0,0:0:0:0:
448,192,200789,1,2,0:0:0:0:
192,192,200877,128,8,200965:0:0:0:0:
320,192,200877,128,0,200965:0:0:0:0:
320,192,201053,128,2,201141:0:0:0:0:
448,192,201053,128,0,201141:0:0:0:0:
192,192,201230,1,8,0:0:0:0:
320,192,201230,128,0,201318:0:0:0:0:
448,192,201230,128,0,201318:0:0:0:0:
64,192,201406,1,2,0:0:0:0:
192,192,201406,1,0,0:0:0:0:
64,192,201583,1,8,0:0:0:0:
192,192,201583,128,0,201671:0:0:0:0:
448,192,201583,128,0,201671:0:0:0:0:
192,192,201759,128,2,201847:0:0:0:0:
320,192,201759,128,0,201847:0:0:0:0:
64,192,201936,128,8,202200:0:0:0:0:
320,192,201936,1,0,0:0:0:0:
448,192,201936,128,0,202200:0:0:0:0:
64,192,202289,128,0,202377:0:0:0:0:
64,192,202465,128,0,202553:0:0:0:0:
192,192,202641,128,0,202730:0:0:0:0:
320,192,202818,128,0,202906:0:0:0:0:
448,192,202994,128,0,203083:0:0:0:0:
320,192,203171,128,0,203259:0:0:0:0:
192,192,203347,128,0,203700:0:0:0:0:
