osu file format v14

[General]
AudioFilename: audio.mp3
AudioLeadIn: 0
PreviewTime: 18017
Countdown: 0
SampleSet: Soft
StackLeniency: 0.3
Mode: 0
LetterboxInBreaks: 0
WidescreenStoryboard: 0

[Editor]
DistanceSpacing: 1.6
BeatDivisor: 8
GridSize: 16
TimelineZoom: 1

[Metadata]
Title:Crack Crack Crack Cracked
TitleUnicode:Crack Crack Crack Cracked
Artist:drager980
ArtistUnicode:drager980
Creator:JamarMario
Version:Crack
Source:Devil Beater
Tags:drager980 devilbeater crack cracked
BeatmapID:1330941
BeatmapSetID:630469

[Difficulty]
HPDrainRate:6.5
CircleSize:4.5
OverallDifficulty:6
ApproachRate:9
SliderMultiplier:3.09999990463257
SliderTickRate:1

[Events]
//Background and Video events
0,0,"D-Force2.png",0,0
//Break Periods
//Storyboard Layer 0 (Background)
//Storyboard Layer 1 (Fail)
//Storyboard Layer 2 (Pass)
//Storyboard Layer 3 (Foreground)
//Storyboard Sound Samples

[TimingPoints]
19,375,4,2,0,80,1,0
36147,-66.6666666666667,4,2,0,80,0,0
41895,-100,4,2,0,80,0,0

[Colours]
Combo1 : 242,194,82
Combo2 : 68,207,135
Combo3 : 59,189,237
Combo4 : 239,57,96

[HitObjects]
58,252,26,6,0,P|83:150|113:150,1,154.999995231628
110,150,400,5,0,0:0:0:0:
156,91,587,1,0,0:0:0:0:
212,54,774,1,0,0:0:0:0:
176,198,960,6,0,L|214:123,1,77.4999976158142
220,260,1147,1,0,0:0:0:0:
291,243,1241,1,0,0:0:0:0:
361,206,1334,1,0,0:0:0:0:
384,138,1428,2,0,P|437:36|300:74,1,309.999990463257
160,119,1942,5,0,0:0:0:0:
157,24,2129,1,0,0:0:0:0:
247,55,2316,1,0,0:0:0:0:
320,128,2502,1,0,0:0:0:0:
368,208,2643,1,0,0:0:0:0:
352,320,2736,1,0,0:0:0:0:
272,256,2830,1,0,0:0:0:0:
208,176,2841,1,0,0:0:0:0:
160,96,2923,1,0,0:0:0:0:
459,29,3121,6,0,L|325:147,2,154.999995231628
372,2,3635,1,0,0:0:0:0:
266,21,3775,1,0,0:0:0:0:
184,72,3916,1,0,0:0:0:0:
135,162,4009,1,0,0:0:0:0:
94,255,4102,1,0,0:0:0:0:
96,352,4196,1,0,0:0:0:0:
321,21,4710,5,0,0:0:0:0:
380,132,4897,1,0,0:0:0:0:
243,226,5083,1,0,0:0:0:0:
265,366,5270,1,0,0:0:0:0:
194,279,5411,2,0,L|145:214,4,77.4999976158142
38,336,6205,5,0,0:0:0:0:
173,277,6392,1,0,0:0:0:0:
122,141,6579,1,0,0:0:0:0:
280,104,6766,1,0,0:0:0:0:
280,104,6859,2,0,L|203:77,5,77.4999976158142
192,16,7841,5,0,0:0:0:0:
106,120,8027,1,0,0:0:0:0:
245,135,8214,1,0,0:0:0:0:
327,28,8401,1,0,0:0:0:0:
367,101,8495,1,0,0:0:0:0:
390,161,8588,1,0,0:0:0:0:
408,220,8682,1,0,0:0:0:0:
423,279,8775,1,0,0:0:0:0:
56,336,9149,5,0,0:0:0:0:
155,234,9336,1,0,0:0:0:0:
56,336,9523,1,0,0:0:0:0:
155,234,9710,1,0,0:0:0:0:
39,177,9850,1,0,0:0:0:0:
71,236,9944,1,0,0:0:0:0:
114,287,10037,1,0,0:0:0:0:
176,313,10131,1,0,0:0:0:0:
245,302,10224,2,0,L|343:225,1,116.249996423721
251,107,10737,5,0,0:0:0:0:
251,261,10925,1,0,0:0:0:0:
250,28,11112,1,0,0:0:0:0:
322,84,11252,2,0,L|385:37,4,77.4999976158142
256,160,11906,6,0,P|178:138|227:249,1,271.24999165535
184,59,12887,5,0,0:0:0:0:
185,255,13027,1,0,0:0:0:0:
201,148,13121,1,0,0:0:0:0:
201,148,13214,1,0,0:0:0:0:
201,148,13308,1,0,0:0:0:0:
431,186,13822,5,0,0:0:0:0:
367,281,14009,1,0,0:0:0:0:
319,180,14196,1,0,0:0:0:0:
317,110,14336,1,0,0:0:0:0:
275,52,14430,1,0,0:0:0:0:
217,92,14523,1,0,0:0:0:0:
160,139,14616,1,0,0:0:0:0:
102,197,14710,1,0,0:0:0:0:
151,279,14897,6,0,L|235:280,3,77.4999976158142
144,206,15364,2,0,L|253:205,3,77.4999976158142
256,192,16298,12,0,17186,0:0:0:0:
247,215,17607,1,0,0:0:0:0:
336,115,17747,1,0,0:0:0:0:
336,115,17794,1,0,0:0:0:0:
256,192,17887,12,0,18728,0:0:0:0:
217,167,19378,5,0,0:0:0:0:
115,47,19663,5,0,0:0:0:0:
325,51,19897,1,0,0:0:0:0:
108,233,20083,1,0,0:0:0:0:
316,226,20224,1,0,0:0:0:0:
208,144,20411,1,0,0:0:0:0:
213,284,20598,1,0,0:0:0:0:
211,42,20784,1,0,0:0:0:0:
32,336,20971,5,0,0:0:0:0:
80,304,21065,1,0,0:0:0:0:
128,272,21158,1,0,0:0:0:0:
176,240,21252,1,0,0:0:0:0:
160,192,21345,1,0,0:0:0:0:
112,208,21439,1,0,0:0:0:0:
64,240,21532,1,0,0:0:0:0:
16,272,21626,1,0,0:0:0:0:
16,208,21766,1,0,0:0:0:0:
64,176,21906,1,0,0:0:0:0:
112,144,22046,1,0,0:0:0:0:
169,102,22237,1,0,0:0:0:0:
256,192,22280,12,0,23261,0:0:0:0:
110,348,23635,1,0,0:0:0:0:
211,271,23729,1,0,0:0:0:0:
212,139,23822,1,0,0:0:0:0:
80,80,24009,5,0,0:0:0:0:
112,112,24102,1,0,0:0:0:0:
144,144,24196,2,0,L|272:256,1,154.999995231628
304,192,24523,5,0,0:0:0:0:
267,155,24616,1,0,0:0:0:0:
236,118,24710,2,0,L|155:24,1,116.249996423721
445,32,24990,5,0,0:0:0:0:
403,74,25083,1,0,0:0:0:0:
362,112,25177,2,0,L|265:203,1,116.249996423721
144,128,25691,5,0,0:0:0:0:
256,192,25878,1,0,0:0:0:0:
352,128,26065,1,0,0:0:0:0:
256,320,26252,1,0,0:0:0:0:
256,192,26485,1,0,0:0:0:0:
352,128,26672,1,0,0:0:0:0:
144,128,27046,1,0,0:0:0:0:
144,128,27140,1,0,0:0:0:0:
256,304,27280,1,0,0:0:0:0:
256,304,27373,1,0,0:0:0:0:
256,304,27467,1,0,0:0:0:0:
320,240,27654,5,0,0:0:0:0:
432,48,27794,1,0,0:0:0:0:
224,192,27934,1,0,0:0:0:0:
128,160,28074,1,0,0:0:0:0:
48,48,29429,5,0,0:0:0:0:
256,192,29663,1,0,0:0:0:0:
256,192,29710,1,0,0:0:0:0:
256,192,29756,1,0,0:0:0:0:
85,311,29990,5,0,0:0:0:0:
144,249,30083,1,0,0:0:0:0:
191,196,30177,2,0,L|286:86,1,116.249996423721
473,32,30551,5,0,0:0:0:0:
416,91,30644,1,0,0:0:0:0:
346,154,30738,2,0,L|191:294,1,193.749994039536
62,33,31252,6,0,B|62:358|62:358|254:358|254:358|246:17|246:17|54:40,1,1046.24996781349
492,18,32794,2,0,B|496:369|496:369|260:368|260:368|256:7|256:7|491:20,1,1162.49996423721
155,14,34429,2,0,B|152:382|152:382|353:384|352:383|352:383|348:7|348:7|150:16,1,1123.74996542931
45,29,35971,2,0,B|477:27|477:27|478:128|478:128|20:130|20:130|22:296|22:296|93:295|93:295|46:29|46:29|43:28,1,1453.12501072884
256,192,37280,12,0,38448,0:0:0:0:
134,64,38541,6,0,L|490:58,1,348.750002574921
477,137,39009,2,0,L|112:134,1,348.750002574921
474,222,39476,2,0,L|88:218,1,348.750002574921
122,311,39943,2,0,L|504:302,1,348.750002574921
470,302,40411,2,0,L|110:310,1,348.750002574921
122,234,40831,2,0,L|488:232,1,348.750002574921
470,155,41298,2,0,L|113:154,1,348.750002574921
35,25,41766,2,0,B|503:375|503:375|499:194|499:194|371:286|371:288|373:287,1,871.875006437302
336,288,42981,2,0,P|104:58|72:383,1,813.74997496605
448,224,44336,2,0,P|352:0|201:328,1,813.74997496605,0|0,0:1|0:1,0:1:0:0:
201,167,47560,1,0,0:0:0:0:
201,167,47607,1,0,0:0:0:0:
201,167,47654,1,0,0:0:0:0:
201,167,47700,1,0,0:0:0:0:
201,167,47747,1,0,0:0:0:0:
201,167,47794,1,0,0:0:0:0:
201,167,47841,1,0,0:0:0:0:
