osu file format v14

[General]
AudioFilename: audio.mp3
AudioLeadIn: 0
PreviewTime: 23389
Countdown: 0
SampleSet: Normal
StackLeniency: 0.7
Mode: 1
LetterboxInBreaks: 0
WidescreenStoryboard: 1

[Editor]
DistanceSpacing: 1
BeatDivisor: 4
GridSize: 32
TimelineZoom: 3.899998

[Metadata]
Title:Hanasaki Breakcore Spring
TitleUnicode:花咲ブレイクコアスプリング
Artist:doteta
ArtistUnicode:dotη
Creator:Whulf
Version:Inner Oni
Source:花咲ワークスプリング!
Tags:electronic breakcore glitch glitchcore _knots Liku The law the_law Riku Instrumental meiqth work 鈴が鳴る丘で Suzu ga Naru Oka de spring!
BeatmapID:4109142
BeatmapSetID:1978650

[Difficulty]
HPDrainRate:7
CircleSize:2
OverallDifficulty:6.5
ApproachRate:10
SliderMultiplier:1.4
SliderTickRate:1

[Events]
//Background and Video events
0,0,"peakpx.jpg",0,50
//Break Periods
//Storyboard Layer 0 (Background)
//Storyboard Layer 1 (Fail)
//Storyboard Layer 2 (Pass)
//Storyboard Layer 3 (Foreground)
//Storyboard Layer 4 (Overlay)
//Storyboard Sound Samples

[TimingPoints]
313,230.769230769231,4,1,0,85,1,0
23153,-98.0281051677244,4,1,0,85,0,0
23268,-96.1485021952982,4,1,0,85,0,0
23389,-94.3396226415094,4,1,0,85,0,1
30653,-97.0996216897856,4,1,0,85,0,1
30774,-100,4,1,0,85,0,0
31000,-94.3396226415094,4,1,0,85,0,0
31120,-94.3396226415094,4,1,0,85,0,1
37980,-95.6997265722098,4,1,0,85,0,1
38037,-97.0751386787695,4,1,0,85,0,1
38095,-98.5158648925282,4,1,0,85,0,1
38159,-100,4,1,0,85,0,0

[HitObjects]
172,153,313,5,0,0:0:0:0:
172,153,543,1,8,0:0:0:0:
226,171,889,1,8,0:0:0:0:
226,171,1120,1,8,0:0:0:0:
226,171,1351,1,0,0:0:0:0:
226,171,1409,1,0,0:0:0:0:
226,171,1466,1,8,0:0:0:0:
226,171,1697,1,8,0:0:0:0:
226,171,1928,1,0,0:0:0:0:
226,171,2043,1,8,0:0:0:0:
226,171,2159,1,0,0:0:0:0:
226,171,2389,1,8,0:0:0:0:
242,86,2736,1,8,0:0:0:0:
286,129,2966,1,8,0:0:0:0:
286,129,3197,1,0,0:0:0:0:
286,129,3313,1,8,0:0:0:0:
286,129,3428,1,8,0:0:0:0:
286,129,3486,1,8,0:0:0:0:
286,129,3543,1,8,0:0:0:0:
287,121,3659,1,0,0:0:0:0:
287,121,3774,1,0,0:0:0:0:
287,121,3889,1,8,0:0:0:0:
281,123,4005,1,0,0:0:0:0:
286,129,4120,1,8,0:0:0:0:
286,129,4178,1,8,0:0:0:0:
286,129,4236,1,8,0:0:0:0:
286,129,4351,1,0,0:0:0:0:
272,179,4409,1,0,0:0:0:0:
286,130,4466,1,0,0:0:0:0:
286,130,4524,1,0,0:0:0:0:
286,130,4582,1,8,0:0:0:0:
383,214,4697,1,0,0:0:0:0:
383,214,4755,1,0,0:0:0:0:
383,214,4813,1,8,0:0:0:0:
199,87,4928,1,8,0:0:0:0:
231,53,5043,1,0,0:0:0:0:
199,87,5101,1,8,0:0:0:0:
258,101,5159,1,8,0:0:0:0:
258,101,5274,1,0,0:0:0:0:
258,101,5332,1,0,0:0:0:0:
258,101,5389,1,0,0:0:0:0:
233,85,5505,1,8,0:0:0:0:
179,75,5620,1,0,0:0:0:0:
201,76,5678,1,0,0:0:0:0:
179,75,5736,1,8,0:0:0:0:
171,78,5851,1,0,0:0:0:0:
179,75,5966,1,8,0:0:0:0:
179,75,6024,1,8,0:0:0:0:
179,75,6082,1,8,0:0:0:0:
314,163,6197,1,0,0:0:0:0:
314,163,6255,1,0,0:0:0:0:
314,163,6313,1,8,0:0:0:0:
289,148,6370,1,0,0:0:0:0:
289,148,6428,1,8,0:0:0:0:
272,112,6543,1,0,0:0:0:0:
481,226,6601,1,0,0:0:0:0:
381,86,6659,1,0,0:0:0:0:
339,221,6774,1,0,0:0:0:0:
339,221,6889,1,8,0:0:0:0:
339,221,7120,1,8,0:0:0:0:
339,221,7351,1,0,0:0:0:0:
339,221,7466,1,8,0:0:0:0:
339,221,7582,1,0,0:0:0:0:
339,221,7639,1,0,0:0:0:0:
339,221,7697,1,0,0:0:0:0:
343,226,7813,1,8,0:0:0:0:
343,226,7928,1,8,0:0:0:0:
343,226,8043,1,0,0:0:0:0:
343,226,8159,1,8,0:0:0:0:
265,183,8216,1,8,0:0:0:0:
343,226,8274,1,0,0:0:0:0:
343,226,8389,1,8,0:0:0:0:
269,188,8505,1,8,0:0:0:0:
269,188,8620,1,0,0:0:0:0:
269,188,8678,1,0,0:0:0:0:
270,188,8736,1,0,0:0:0:0:
265,183,8851,1,8,0:0:0:0:
149,171,8909,1,8,0:0:0:0:
265,183,8966,1,8,0:0:0:0:
269,188,9082,1,0,0:0:0:0:
323,121,9139,1,0,0:0:0:0:
149,171,9197,1,8,0:0:0:0:
269,188,9255,1,0,0:0:0:0:
209,97,9313,1,8,0:0:0:0:
209,97,9370,1,8,0:0:0:0:
209,97,9428,1,0,0:0:0:0:
209,97,9543,1,8,0:0:0:0:
207,82,9659,1,0,0:0:0:0:
208,83,9774,1,8,0:0:0:0:
172,89,9889,1,0,0:0:0:0:
174,89,9947,1,0,0:0:0:0:
176,87,10005,1,0,0:0:0:0:
258,117,10120,5,8,0:0:0:0:
258,117,10178,1,8,0:0:0:0:
258,117,10236,1,0,0:0:0:0:
258,117,10351,1,0,0:0:0:0:
258,117,10466,1,8,0:0:0:0:
161,59,10582,1,8,0:0:0:0:
307,185,10697,1,0,0:0:0:0:
307,185,10813,1,8,0:0:0:0:
307,185,10870,1,8,0:0:0:0:
122,178,10928,1,0,0:0:0:0:
122,178,11043,1,8,0:0:0:0:
122,178,11101,1,8,0:0:0:0:
122,178,11159,1,0,0:0:0:0:
211,64,11216,5,8,0:0:0:0:
122,178,11274,1,8,0:0:0:0:
408,117,11332,1,8,0:0:0:0:
131,179,11389,1,0,0:0:0:0:
270,87,11505,1,8,0:0:0:0:
290,149,11620,1,0,0:0:0:0:
262,131,11678,1,8,0:0:0:0:
262,131,11736,1,0,0:0:0:0:
263,134,11851,1,8,0:0:0:0:
389,126,11966,1,0,0:0:0:0:
389,126,12082,1,8,0:0:0:0:
389,126,12197,1,0,0:0:0:0:
409,146,12313,1,8,0:0:0:0:
409,146,12428,1,8,0:0:0:0:
248,132,12543,1,8,0:0:0:0:
287,133,12659,1,0,0:0:0:0:
279,112,12716,1,8,0:0:0:0:
287,133,12774,1,0,0:0:0:0:
279,112,12889,1,8,0:0:0:0:
279,112,12947,1,8,0:0:0:0:
279,112,13005,1,8,0:0:0:0:
279,112,13120,1,8,0:0:0:0:
279,112,13236,1,0,0:0:0:0:
360,138,13351,1,8,0:0:0:0:
263,64,13409,1,8,0:0:0:0:
160,37,13466,1,0,0:0:0:0:
162,161,13524,1,0,0:0:0:0:
160,37,13582,1,0,0:0:0:0:
285,98,13697,1,8,0:0:0:0:
285,98,13813,1,8,0:0:0:0:
271,89,13928,1,0,0:0:0:0:
271,89,14043,1,0,0:0:0:0:
271,89,14101,1,0,0:0:0:0:
210,66,14159,1,0,0:0:0:0:
210,66,14274,1,8,0:0:0:0:
210,66,14389,1,0,0:0:0:0:
217,66,14447,1,0,0:0:0:0:
217,151,14505,1,8,0:0:0:0:
217,66,14563,1,8,0:0:0:0:
217,66,14620,1,0,0:0:0:0:
284,64,14851,1,8,0:0:0:0:
284,64,14909,1,8,0:0:0:0:
284,64,14966,1,8,0:0:0:0:
284,64,15024,1,8,0:0:0:0:
284,64,15082,1,0,0:0:0:0:
326,200,15313,1,0,0:0:0:0:
345,153,15543,1,8,0:0:0:0:
365,158,15601,1,8,0:0:0:0:
235,101,15659,1,8,0:0:0:0:
182,152,15716,5,8,0:0:0:0:
177,58,15774,1,0,0:0:0:0:
177,58,15832,1,0,0:0:0:0:
177,58,15889,1,8,0:0:0:0:
385,266,16005,1,8,0:0:0:0:
385,266,16120,1,0,0:0:0:0:
440,285,16178,1,8,0:0:0:0:
389,258,16236,1,0,0:0:0:0:
385,266,16351,1,8,0:0:0:0:
385,266,16466,1,8,0:0:0:0:
385,266,16582,1,8,0:0:0:0:
388,258,16697,1,0,0:0:0:0:
299,174,16813,1,0,0:0:0:0:
308,181,16928,1,8,0:0:0:0:
265,171,16986,1,8,0:0:0:0:
248,161,17043,1,8,0:0:0:0:
230,138,17159,1,8,0:0:0:0:
229,137,17274,1,0,0:0:0:0:
406,274,17505,1,0,0:0:0:0:
406,274,17563,1,8,0:0:0:0:
406,274,17620,1,0,0:0:0:0:
268,180,17736,1,8,0:0:0:0:
268,180,17851,1,0,0:0:0:0:
271,169,17966,1,0,0:0:0:0:
268,180,18082,1,8,0:0:0:0:
268,180,18197,1,0,0:0:0:0:
225,54,18428,1,0,0:0:0:0:
421,269,18486,1,0,0:0:0:0:
23,156,18543,1,8,0:0:0:0:
384,246,18601,1,8,0:0:0:0:
384,246,18659,1,8,0:0:0:0:
384,246,18716,1,8,0:0:0:0:
376,242,18774,1,0,0:0:0:0:
421,269,19005,1,8,0:0:0:0:
421,269,19120,1,0,0:0:0:0:
421,269,19236,1,8,0:0:0:0:
421,269,19351,1,8,0:0:0:0:
336,197,19409,1,8,0:0:0:0:
421,269,19466,1,0,0:0:0:0:
421,269,19582,1,8,0:0:0:0:
421,269,19697,1,0,0:0:0:0:
199,64,19813,1,0,0:0:0:0:
199,64,19928,1,8,0:0:0:0:
328,114,20043,1,8,0:0:0:0:
328,114,20101,1,8,0:0:0:0:
325,198,20159,1,0,0:0:0:0:
325,198,20274,1,8,0:0:0:0:
325,198,20332,1,8,0:0:0:0:
325,198,20389,1,8,0:0:0:0:
328,114,20505,1,8,0:0:0:0:
328,114,20620,1,0,0:0:0:0:
328,114,20736,1,8,0:0:0:0:
328,114,20966,1,8,0:0:0:0:
332,119,21082,1,0,0:0:0:0:
332,119,21139,1,0,0:0:0:0:
332,119,21197,1,0,0:0:0:0:
332,119,21255,1,0,0:0:0:0:
257,81,21313,1,8,0:0:0:0:
222,113,21428,1,0,0:0:0:0:
222,113,21486,1,0,0:0:0:0:
222,113,21543,1,8,0:0:0:0:
222,113,21601,1,8,0:0:0:0:
293,97,21659,1,0,0:0:0:0:
271,144,21716,1,0,0:0:0:0:
293,97,21774,1,8,0:0:0:0:
289,94,22005,1,8,0:0:0:0:
289,94,22120,1,8,0:0:0:0:
293,97,22236,1,0,0:0:0:0:
293,97,22293,1,0,0:0:0:0:
293,97,22351,1,8,0:0:0:0:
293,97,22466,1,0,0:0:0:0:
293,97,22524,1,0,0:0:0:0:
224,80,22582,1,0,0:0:0:0:
293,101,22697,1,8,0:0:0:0:
246,113,22755,1,8,0:0:0:0:
293,101,22813,1,8,0:0:0:0:
268,144,22870,1,8,0:0:0:0:
246,113,22928,1,0,0:0:0:0:
214,40,23043,1,8,0:0:0:0:
246,113,23159,1,8,0:0:0:0:
246,113,23274,1,8,0:0:0:0:
239,58,23389,1,0,0:0:0:0:
260,135,23505,1,0,0:0:0:0:
260,135,23620,1,8,0:0:0:0:
260,135,23736,1,8,0:0:0:0:
280,134,23966,1,0,0:0:0:0:
288,134,24024,1,0,0:0:0:0:
283,137,24082,1,8,0:0:0:0:
283,137,24197,1,8,0:0:0:0:
283,137,24313,1,0,0:0:0:0:
184,85,24428,1,8,0:0:0:0:
184,85,24486,1,8,0:0:0:0:
184,85,24543,1,0,0:0:0:0:
184,85,24659,1,0,0:0:0:0:
184,85,24774,1,8,0:0:0:0:
184,85,24889,1,8,0:0:0:0:
184,85,25005,1,0,0:0:0:0:
271,139,25120,1,8,0:0:0:0:
271,139,25236,1,0,0:0:0:0:
271,139,25293,1,0,0:0:0:0:
193,37,25351,1,8,0:0:0:0:
193,37,25409,1,8,0:0:0:0:
193,37,25466,1,0,0:0:0:0:
193,37,25582,1,0,0:0:0:0:
193,37,25697,1,8,0:0:0:0:
280,124,25813,1,8,0:0:0:0:
375,248,25928,1,8,0:0:0:0:
375,248,26043,1,8,0:0:0:0:
375,248,26159,1,0,0:0:0:0:
422,185,26389,1,0,0:0:0:0:
422,185,26505,1,8,0:0:0:0:
422,185,26620,1,8,0:0:0:0:
294,133,26736,1,0,0:0:0:0:
294,133,26851,1,8,0:0:0:0:
294,133,26966,1,8,0:0:0:0:
294,133,27082,1,0,0:0:0:0:
349,205,27313,1,8,0:0:0:0:
279,98,27428,1,0,0:0:0:0:
249,152,27543,1,8,0:0:0:0:
279,98,27601,1,8,0:0:0:0:
249,152,27659,1,8,0:0:0:0:
249,152,27774,1,0,0:0:0:0:
165,171,27851,1,0,0:0:0:0:
165,171,27928,1,0,0:0:0:0:
226,145,28005,1,8,0:0:0:0:
166,152,28120,1,0,0:0:0:0:
166,152,28178,1,0,0:0:0:0:
259,200,28236,1,8,0:0:0:0:
500,224,28351,1,0,0:0:0:0:
500,224,28466,1,8,0:0:0:0:
500,224,28524,1,0,0:0:0:0:
500,224,28582,1,8,0:0:0:0:
416,185,28697,1,0,0:0:0:0:
416,185,28813,1,8,0:0:0:0:
416,185,28870,1,8,0:0:0:0:
238,78,28928,1,0,0:0:0:0:
238,78,28986,1,0,0:0:0:0:
182,30,29043,1,0,0:0:0:0:
182,30,29101,1,0,0:0:0:0:
182,30,29159,1,8,0:0:0:0:
182,30,29274,1,8,0:0:0:0:
182,30,29389,1,0,0:0:0:0:
181,39,29447,1,8,0:0:0:0:
285,79,29505,1,0,0:0:0:0:
204,64,29620,1,0,0:0:0:0:
294,112,29736,1,8,0:0:0:0:
254,90,29793,1,8,0:0:0:0:
254,90,29851,1,8,0:0:0:0:
405,243,29966,1,8,0:0:0:0:
405,243,30082,1,0,0:0:0:0:
405,243,30197,1,8,0:0:0:0:
394,216,30313,1,0,0:0:0:0:
394,216,30428,1,8,0:0:0:0:
394,216,30543,1,0,0:0:0:0:
394,216,30659,1,0,0:0:0:0:
394,216,30774,1,8,0:0:0:0:
389,241,31005,1,0,0:0:0:0:
389,241,31120,1,8,0:0:0:0:
389,241,31236,1,8,0:0:0:0:
384,237,31351,1,8,0:0:0:0:
384,237,31466,1,0,0:0:0:0:
326,202,31524,1,8,0:0:0:0:
157,68,31582,5,0,0:0:0:0:
207,94,31697,1,8,0:0:0:0:
207,94,31813,1,8,0:0:0:0:
207,94,31928,1,0,0:0:0:0:
317,115,32043,1,8,0:0:0:0:
317,115,32101,1,8,0:0:0:0:
317,115,32159,1,0,0:0:0:0:
207,94,32216,1,8,0:0:0:0:
317,115,32274,1,8,0:0:0:0:
247,53,32332,1,8,0:0:0:0:
247,53,32389,1,0,0:0:0:0:
247,53,32505,1,0,0:0:0:0:
139,104,32620,1,8,0:0:0:0:
139,104,32678,1,8,0:0:0:0:
227,76,32736,1,8,0:0:0:0:
227,76,32851,1,0,0:0:0:0:
227,76,32909,1,0,0:0:0:0:
205,76,32966,1,8,0:0:0:0:
205,75,33024,1,8,0:0:0:0:
205,75,33082,1,0,0:0:0:0:
205,79,33197,1,0,0:0:0:0:
205,79,33313,1,8,0:0:0:0:
205,79,33428,1,8,0:0:0:0:
319,170,33543,1,0,0:0:0:0:
319,170,33659,1,0,0:0:0:0:
222,146,33774,1,8,0:0:0:0:
266,162,34005,1,0,0:0:0:0:
266,162,34120,1,8,0:0:0:0:
266,162,34236,1,8,0:0:0:0:
266,162,34351,1,0,0:0:0:0:
266,162,34466,1,8,0:0:0:0:
177,92,34543,1,8,0:0:0:0:
223,76,34620,1,8,0:0:0:0:
177,92,34697,1,0,0:0:0:0:
343,179,34928,1,8,0:0:0:0:
251,183,34986,1,8,0:0:0:0:
343,179,35043,1,0,0:0:0:0:
283,136,35159,1,8,0:0:0:0:
282,133,35274,1,8,0:0:0:0:
314,147,35389,1,0,0:0:0:0:
314,147,35447,1,0,0:0:0:0:
314,147,35505,1,8,0:0:0:0:
314,147,35620,1,8,0:0:0:0:
269,66,35736,1,0,0:0:0:0:
303,105,35966,1,8,0:0:0:0:
303,105,36024,1,0,0:0:0:0:
303,105,36082,1,8,0:0:0:0:
186,60,36197,1,0,0:0:0:0:
288,111,36313,1,8,0:0:0:0:
288,111,36428,1,0,0:0:0:0:
288,111,36486,1,0,0:0:0:0:
246,94,36543,1,8,0:0:0:0:
246,94,36659,1,0,0:0:0:0:
280,101,36716,1,8,0:0:0:0:
280,101,36774,1,8,0:0:0:0:
280,101,36832,1,8,0:0:0:0:
280,101,36889,1,0,0:0:0:0:
228,99,37005,1,0,0:0:0:0:
228,99,37120,1,8,0:0:0:0:
195,74,37236,1,0,0:0:0:0:
195,74,37351,1,8,0:0:0:0:
322,119,37466,1,0,0:0:0:0:
322,119,37524,1,0,0:0:0:0:
322,119,37582,1,0,0:0:0:0:
322,119,37639,1,0,0:0:0:0:
322,119,37697,1,8,0:0:0:0:
322,119,37813,1,8,0:0:0:0:
322,119,37928,1,0,0:0:0:0:
322,119,37986,1,0,0:0:0:0:
322,119,38043,1,8,0:0:0:0:
322,119,38101,1,8,0:0:0:0:
322,119,38159,1,0,0:0:0:0:
372,218,38389,1,8,0:0:0:0:
203,79,38736,1,8,0:0:0:0:
240,143,38966,1,8,0:0:0:0:
377,183,39197,1,0,0:0:0:0:
377,183,39255,1,0,0:0:0:0:
377,183,39313,1,8,0:0:0:0:
188,111,39543,1,8,0:0:0:0:
286,163,39774,1,0,0:0:0:0:
286,163,39889,1,8,0:0:0:0:
286,163,40005,1,0,0:0:0:0:
286,163,40236,1,8,0:0:0:0:
286,163,40582,1,8,0:0:0:0:
286,163,40813,1,8,0:0:0:0:
286,163,41043,1,0,0:0:0:0:
286,163,41159,1,8,0:0:0:0:
248,138,41274,1,8,0:0:0:0:
248,138,41332,1,8,0:0:0:0:
248,138,41389,1,8,0:0:0:0:
248,138,41505,1,0,0:0:0:0:
248,138,41620,1,0,0:0:0:0:
248,138,41736,1,8,0:0:0:0:
248,138,41851,1,0,0:0:0:0:
248,138,41966,1,8,0:0:0:0:
248,138,42024,1,8,0:0:0:0:
248,138,42082,1,8,0:0:0:0:
248,138,42197,1,0,0:0:0:0:
248,138,42255,1,0,0:0:0:0:
248,138,42313,1,8,0:0:0:0:
248,138,42370,1,8,0:0:0:0:
248,138,42428,1,0,0:0:0:0:
248,138,42543,1,8,0:0:0:0:
248,138,42601,1,8,0:0:0:0:
248,138,42659,1,8,0:0:0:0:
248,138,42774,1,0,0:0:0:0:
254,143,42832,1,0,0:0:0:0:
254,143,42889,1,0,0:0:0:0:
254,143,42947,1,0,0:0:0:0:
254,143,43005,1,8,0:0:0:0:
199,64,43120,1,0,0:0:0:0:
199,64,43178,1,0,0:0:0:0:
256,144,43236,1,0,0:0:0:0:
314,176,43351,1,8,0:0:0:0:
314,176,43466,1,0,0:0:0:0:
314,176,43524,1,0,0:0:0:0:
314,176,43582,1,8,0:0:0:0:
314,176,43697,1,0,0:0:0:0:
314,176,43813,1,8,0:0:0:0:
314,176,43870,1,0,0:0:0:0:
314,176,43928,1,8,0:0:0:0:
176,177,44043,1,0,0:0:0:0:
402,250,44101,1,0,0:0:0:0:
176,177,44159,1,0,0:0:0:0:
402,250,44216,1,0,0:0:0:0:
176,177,44274,1,8,0:0:0:0:
176,177,44389,1,0,0:0:0:0:
176,177,44447,1,0,0:0:0:0:
176,177,44505,1,8,0:0:0:0:
443,262,44563,1,8,0:0:0:0:
176,177,44620,1,0,0:0:0:0:
176,177,44736,1,8,0:0:0:0:
176,177,44966,1,8,0:0:0:0:
176,177,45197,1,0,0:0:0:0:
176,177,45313,1,8,0:0:0:0:
176,177,45428,1,8,0:0:0:0:
176,177,45543,1,4,0:0:0:0:
