osu file format v14

[General]
AudioFilename: audio.mp3
AudioLeadIn: 0
PreviewTime: 23389
Countdown: 0
SampleSet: Normal
StackLeniency: 0.7
Mode: 1
LetterboxInBreaks: 0
WidescreenStoryboard: 0

[Editor]
DistanceSpacing: 1
BeatDivisor: 4
GridSize: 32
TimelineZoom: 3.899998

[Metadata]
Title:Hanasaki Breakcore Spring
TitleUnicode:花咲ブレイクコアスプリング
Artist:doteta
ArtistUnicode:dotη
Creator:Whulf
Version:Hell Oni
Source:花咲ワークスプリング!
Tags:electronic breakcore glitch glitchcore _knots Liku The law the_law Riku Instrumental meiqth work 鈴が鳴る丘で Suzu ga Naru Oka de spring!
BeatmapID:4107900
BeatmapSetID:1978650

[Difficulty]
HPDrainRate:7.5
CircleSize:2
OverallDifficulty:8
ApproachRate:10
SliderMultiplier:1.4
SliderTickRate:1

[Events]
//Background and Video events
0,0,"peakpx.jpg",0,50
//Break Periods
//Storyboard Layer 0 (Background)
//Storyboard Layer 1 (Fail)
//Storyboard Layer 2 (Pass)
//Storyboard Layer 3 (Foreground)
//Storyboard Layer 4 (Overlay)
//Storyboard Sound Samples

[TimingPoints]
313,230.769230769231,4,1,0,85,1,0
23153,-98.0281051677244,4,1,0,85,0,0
23268,-96.1485021952982,4,1,0,85,0,0
23389,-94.3396226415094,4,1,0,85,0,1
30653,-97.0996216897856,4,1,0,85,0,1
30774,-100,4,1,0,85,0,0
31000,-94.3396226415094,4,1,0,85,0,0
31120,-94.3396226415094,4,1,0,85,0,1
37951,-95.0148075024679,4,1,0,85,0,1
37980,-95.6997265722098,4,1,0,85,0,1
38008,-96.3704630788486,4,1,0,85,0,1
38037,-97.0751386787695,4,1,0,85,0,1
38066,-97.7901955803911,4,1,0,85,0,1
38095,-98.5158648925282,4,1,0,85,0,1
38124,-99.2523846352153,4,1,0,85,0,1
38159,-100,4,1,0,85,0,0

[HitObjects]
362,279,313,5,0,0:0:0:0:
362,279,543,1,8,0:0:0:0:
356,274,889,1,8,0:0:0:0:
356,274,1120,1,8,0:0:0:0:
292,235,1351,1,0,0:0:0:0:
292,235,1409,1,8,0:0:0:0:
292,235,1466,1,8,0:0:0:0:
292,235,1697,1,8,0:0:0:0:
292,235,1928,1,0,0:0:0:0:
292,235,2043,1,8,0:0:0:0:
266,211,2159,1,0,0:0:0:0:
167,124,2389,1,8,0:0:0:0:
167,124,2736,1,8,0:0:0:0:
167,124,2966,1,8,0:0:0:0:
199,140,3197,1,0,0:0:0:0:
199,140,3313,1,8,0:0:0:0:
214,103,3428,1,8,0:0:0:0:
214,103,3486,1,8,0:0:0:0:
214,103,3543,1,8,0:0:0:0:
214,103,3659,1,0,0:0:0:0:
214,103,3774,1,0,0:0:0:0:
214,103,3889,1,8,0:0:0:0:
162,172,4005,1,0,0:0:0:0:
162,172,4120,1,8,0:0:0:0:
162,172,4178,1,0,0:0:0:0:
166,151,4236,1,8,0:0:0:0:
166,151,4351,1,0,0:0:0:0:
166,151,4409,1,0,0:0:0:0:
166,151,4466,1,8,0:0:0:0:
163,140,4524,1,0,0:0:0:0:
166,151,4582,1,8,0:0:0:0:
163,140,4697,1,0,0:0:0:0:
163,140,4755,1,0,0:0:0:0:
202,111,4813,1,8,0:0:0:0:
194,117,4928,1,0,0:0:0:0:
194,117,4986,1,8,0:0:0:0:
194,117,5043,1,0,0:0:0:0:
194,117,5101,1,8,0:0:0:0:
194,117,5159,1,8,0:0:0:0:
246,114,5274,1,0,0:0:0:0:
246,114,5303,1,0,0:0:0:0:
252,71,5332,1,8,0:0:0:0:
252,71,5361,1,8,0:0:0:0:
252,71,5389,1,0,0:0:0:0:
350,101,5505,1,8,0:0:0:0:
350,101,5620,1,0,0:0:0:0:
350,101,5678,1,0,0:0:0:0:
350,101,5736,1,8,0:0:0:0:
350,101,5851,1,0,0:0:0:0:
350,101,5966,1,8,0:0:0:0:
391,44,6005,1,8,0:0:0:0:
391,44,6043,1,8,0:0:0:0:
391,44,6082,1,0,0:0:0:0:
400,41,6197,1,8,0:0:0:0:
401,42,6255,1,8,0:0:0:0:
401,42,6313,1,0,0:0:0:0:
401,42,6370,1,0,0:0:0:0:
401,42,6428,1,8,0:0:0:0:
356,80,6543,1,0,0:0:0:0:
356,80,6582,1,0,0:0:0:0:
356,77,6620,1,0,0:0:0:0:
356,76,6659,1,8,0:0:0:0:
432,35,6716,1,8,0:0:0:0:
431,42,6774,1,0,0:0:0:0:
432,42,6889,1,8,0:0:0:0:
44,169,7005,1,0,0:0:0:0:
402,59,7120,1,8,0:0:0:0:
228,120,7236,1,8,0:0:0:0:
302,151,7351,1,0,0:0:0:0:
302,151,7466,1,8,0:0:0:0:
304,61,7582,1,0,0:0:0:0:
304,61,7611,1,0,0:0:0:0:
304,61,7639,1,8,0:0:0:0:
304,61,7668,1,8,0:0:0:0:
304,61,7697,1,0,0:0:0:0:
196,106,7813,1,8,0:0:0:0:
196,106,7870,1,8,0:0:0:0:
196,106,7928,1,0,0:0:0:0:
224,67,7986,1,0,0:0:0:0:
366,45,8043,1,8,0:0:0:0:
246,73,8159,1,0,0:0:0:0:
265,58,8197,1,8,0:0:0:0:
265,58,8236,1,8,0:0:0:0:
265,58,8274,1,0,0:0:0:0:
171,141,8389,1,8,0:0:0:0:
171,141,8505,1,8,0:0:0:0:
240,155,8620,1,8,0:0:0:0:
379,69,8659,1,8,0:0:0:0:
377,69,8697,1,8,0:0:0:0:
378,76,8736,1,0,0:0:0:0:
324,98,8851,1,8,0:0:0:0:
324,98,8909,1,8,0:0:0:0:
324,98,8966,1,0,0:0:0:0:
324,98,9024,1,0,0:0:0:0:
376,83,9082,1,8,0:0:0:0:
375,55,9120,1,0,0:0:0:0:
201,66,9159,1,0,0:0:0:0:
376,52,9197,1,8,0:0:0:0:
359,61,9255,1,0,0:0:0:0:
411,53,9313,1,8,0:0:0:0:
411,53,9351,1,8,0:0:0:0:
412,52,9389,1,8,0:0:0:0:
136,113,9428,1,0,0:0:0:0:
136,113,9486,1,0,0:0:0:0:
396,57,9543,1,8,0:0:0:0:
386,71,9659,1,0,0:0:0:0:
368,71,9774,1,8,0:0:0:0:
367,66,9832,1,8,0:0:0:0:
325,77,9889,1,0,0:0:0:0:
326,75,9947,1,0,0:0:0:0:
284,92,10005,1,8,0:0:0:0:
284,92,10063,1,0,0:0:0:0:
397,43,10120,1,8,0:0:0:0:
309,66,10159,1,8,0:0:0:0:
308,66,10197,1,8,0:0:0:0:
308,66,10236,1,0,0:0:0:0:
476,294,10351,1,0,0:0:0:0:
230,72,10466,1,0,0:0:0:0:
230,72,10582,1,8,0:0:0:0:
391,111,10639,1,8,0:0:0:0:
391,111,10697,1,0,0:0:0:0:
108,127,10813,1,8,0:0:0:0:
284,92,10851,1,8,0:0:0:0:
286,86,10889,1,8,0:0:0:0:
286,86,10928,1,8,0:0:0:0:
296,51,11043,1,0,0:0:0:0:
296,51,11101,1,0,0:0:0:0:
226,84,11159,1,8,0:0:0:0:
225,84,11197,1,0,0:0:0:0:
225,84,11236,1,0,0:0:0:0:
225,84,11274,1,8,0:0:0:0:
225,84,11313,1,0,0:0:0:0:
225,84,11351,1,0,0:0:0:0:
225,84,11389,1,8,0:0:0:0:
193,38,11505,1,0,0:0:0:0:
193,38,11563,1,0,0:0:0:0:
193,38,11620,1,8,0:0:0:0:
289,65,11678,1,8,0:0:0:0:
289,65,11736,1,0,0:0:0:0:
289,65,11851,1,8,0:0:0:0:
256,165,12082,1,8,0:0:0:0:
391,60,12197,1,0,0:0:0:0:
391,60,12255,1,0,0:0:0:0:
391,60,12313,1,8,0:0:0:0:
391,60,12428,1,8,0:0:0:0:
391,60,12543,1,8,0:0:0:0:
391,60,12659,1,0,0:0:0:0:
391,60,12716,1,8,0:0:0:0:
355,78,12774,1,0,0:0:0:0:
340,64,12889,1,8,0:0:0:0:
343,62,12928,1,0,0:0:0:0:
344,61,12966,1,0,0:0:0:0:
344,61,13005,1,8,0:0:0:0:
386,48,13120,1,8,0:0:0:0:
387,48,13236,1,0,0:0:0:0:
268,147,13351,1,8,0:0:0:0:
191,78,13389,1,8,0:0:0:0:
268,147,13428,1,0,0:0:0:0:
191,78,13466,1,8,0:0:0:0:
191,78,13505,1,0,0:0:0:0:
191,78,13543,1,0,0:0:0:0:
292,59,13582,1,8,0:0:0:0:
266,57,13697,1,0,0:0:0:0:
269,55,13813,1,8,0:0:0:0:
270,55,13870,1,8,0:0:0:0:
271,55,13928,1,0,0:0:0:0:
330,60,14043,1,0,0:0:0:0:
330,60,14101,1,0,0:0:0:0:
409,54,14159,1,0,0:0:0:0:
409,54,14274,1,8,0:0:0:0:
292,59,14389,1,0,0:0:0:0:
296,61,14428,1,0,0:0:0:0:
296,61,14466,1,0,0:0:0:0:
296,61,14505,1,8,0:0:0:0:
353,88,14563,1,8,0:0:0:0:
351,89,14620,1,0,0:0:0:0:
337,86,14736,1,8,0:0:0:0:
290,118,14793,1,8,0:0:0:0:
333,71,14851,1,0,0:0:0:0:
280,52,14889,1,0,0:0:0:0:
334,67,14928,1,8,0:0:0:0:
280,52,14966,1,8,0:0:0:0:
280,52,15005,1,0,0:0:0:0:
257,60,15043,1,0,0:0:0:0:
256,59,15082,1,8,0:0:0:0:
298,84,15197,1,0,0:0:0:0:
298,84,15236,1,0,0:0:0:0:
213,55,15274,1,0,0:0:0:0:
298,84,15313,1,8,0:0:0:0:
296,67,15428,1,0,0:0:0:0:
214,28,15486,1,0,0:0:0:0:
280,52,15543,1,8,0:0:0:0:
214,28,15601,1,8,0:0:0:0:
214,28,15659,1,8,0:0:0:0:
214,28,15716,1,8,0:0:0:0:
214,28,15774,1,0,0:0:0:0:
388,55,15832,1,8,0:0:0:0:
388,55,15861,1,8,0:0:0:0:
392,49,15889,1,0,0:0:0:0:
237,80,16005,1,8,0:0:0:0:
353,72,16120,1,0,0:0:0:0:
353,72,16178,1,0,0:0:0:0:
353,72,16236,1,8,0:0:0:0:
228,195,16351,1,0,0:0:0:0:
207,178,16380,1,0,0:0:0:0:
140,115,16466,1,8,0:0:0:0:
190,102,16495,1,8,0:0:0:0:
140,115,16582,1,8,0:0:0:0:
198,101,16611,1,8,0:0:0:0:
285,104,16697,1,0,0:0:0:0:
285,104,16813,1,0,0:0:0:0:
260,98,16928,1,8,0:0:0:0:
212,45,16966,1,8,0:0:0:0:
260,95,17005,1,0,0:0:0:0:
260,95,17043,1,0,0:0:0:0:
382,49,17101,1,0,0:0:0:0:
118,144,17159,1,8,0:0:0:0:
164,68,17274,1,0,0:0:0:0:
426,126,17505,1,0,0:0:0:0:
426,126,17563,1,8,0:0:0:0:
426,126,17620,1,0,0:0:0:0:
426,126,17736,1,8,0:0:0:0:
382,49,17793,1,8,0:0:0:0:
426,126,17851,1,0,0:0:0:0:
367,49,17966,1,0,0:0:0:0:
367,49,18082,1,8,0:0:0:0:
277,70,18197,1,0,0:0:0:0:
348,41,18428,1,0,0:0:0:0:
348,41,18486,1,0,0:0:0:0:
297,92,18543,1,8,0:0:0:0:
296,88,18582,1,0,0:0:0:0:
296,88,18620,1,0,0:0:0:0:
296,88,18659,1,8,0:0:0:0:
295,73,18697,1,0,0:0:0:0:
295,73,18736,1,0,0:0:0:0:
295,73,18774,1,8,0:0:0:0:
443,255,18889,1,0,0:0:0:0:
443,255,19005,1,8,0:0:0:0:
443,255,19120,1,8,0:0:0:0:
443,255,19178,1,8,0:0:0:0:
443,255,19236,1,0,0:0:0:0:
416,87,19351,1,8,0:0:0:0:
242,52,19380,1,8,0:0:0:0:
416,87,19409,1,0,0:0:0:0:
416,87,19438,1,0,0:0:0:0:
242,52,19466,1,8,0:0:0:0:
391,52,19582,1,0,0:0:0:0:
297,71,19639,1,0,0:0:0:0:
297,71,19697,1,0,0:0:0:0:
363,87,19813,1,0,0:0:0:0:
363,87,19928,1,8,0:0:0:0:
363,87,20043,1,8,0:0:0:0:
185,126,20101,1,8,0:0:0:0:
369,88,20159,1,0,0:0:0:0:
258,61,20274,1,0,0:0:0:0:
258,61,20332,1,0,0:0:0:0:
258,61,20389,1,8,0:0:0:0:
258,61,20505,1,8,0:0:0:0:
258,61,20620,1,0,0:0:0:0:
294,163,20678,1,0,0:0:0:0:
258,61,20736,1,8,0:0:0:0:
383,94,20966,1,0,0:0:0:0:
383,94,21082,1,8,0:0:0:0:
383,94,21139,1,8,0:0:0:0:
383,94,21197,1,0,0:0:0:0:
383,94,21255,1,0,0:0:0:0:
352,109,21313,1,8,0:0:0:0:
352,107,21341,1,8,0:0:0:0:
352,106,21370,1,0,0:0:0:0:
381,80,21399,1,0,0:0:0:0:
381,80,21428,1,8,0:0:0:0:
381,80,21486,1,8,0:0:0:0:
313,60,21543,1,0,0:0:0:0:
226,57,21601,1,0,0:0:0:0:
226,57,21659,1,8,0:0:0:0:
175,27,21716,1,0,0:0:0:0:
226,57,21774,1,8,0:0:0:0:
226,57,21813,1,8,0:0:0:0:
218,83,21851,1,8,0:0:0:0:
218,83,21889,1,0,0:0:0:0:
340,24,21947,1,0,0:0:0:0:
340,24,22005,1,8,0:0:0:0:
338,78,22120,1,8,0:0:0:0:
337,78,22236,1,0,0:0:0:0:
337,78,22293,1,0,0:0:0:0:
266,95,22351,1,8,0:0:0:0:
266,95,22466,1,0,0:0:0:0:
202,61,22524,1,8,0:0:0:0:
204,61,22582,1,8,0:0:0:0:
392,27,22697,1,0,0:0:0:0:
392,27,22736,1,0,0:0:0:0:
309,61,22774,1,0,0:0:0:0:
309,61,22813,1,8,0:0:0:0:
309,61,22851,1,8,0:0:0:0:
309,61,22889,1,8,0:0:0:0:
250,64,22928,1,0,0:0:0:0:
250,64,23043,1,8,0:0:0:0:
366,79,23159,1,8,0:0:0:0:
366,79,23274,1,8,0:0:0:0:
366,79,23389,1,8,0:0:0:0:
329,94,23505,1,0,0:0:0:0:
106,151,23543,1,0,0:0:0:0:
106,151,23582,1,0,0:0:0:0:
329,94,23620,1,8,0:0:0:0:
329,94,23736,1,0,0:0:0:0:
315,159,23851,1,8,0:0:0:0:
315,159,23909,1,8,0:0:0:0:
229,59,23966,1,0,0:0:0:0:
229,59,24024,1,0,0:0:0:0:
295,121,24082,1,8,0:0:0:0:
295,121,24197,1,8,0:0:0:0:
229,59,24313,1,0,0:0:0:0:
143,144,24428,1,8,0:0:0:0:
143,144,24466,1,8,0:0:0:0:
143,144,24505,1,8,0:0:0:0:
338,94,24543,1,0,0:0:0:0:
242,76,24601,1,0,0:0:0:0:
322,155,24659,1,8,0:0:0:0:
282,141,24716,1,8,0:0:0:0:
282,141,24774,1,0,0:0:0:0:
225,118,24889,1,8,0:0:0:0:
380,72,25005,1,0,0:0:0:0:
380,72,25043,1,0,0:0:0:0:
200,63,25082,1,8,0:0:0:0:
269,42,25120,1,8,0:0:0:0:
207,75,25236,1,0,0:0:0:0:
252,70,25274,1,0,0:0:0:0:
219,29,25313,1,8,0:0:0:0:
220,41,25351,1,0,0:0:0:0:
220,41,25389,1,8,0:0:0:0:
151,34,25428,1,8,0:0:0:0:
220,41,25466,1,0,0:0:0:0:
331,87,25582,1,0,0:0:0:0:
361,67,25697,1,8,0:0:0:0:
230,95,25726,1,8,0:0:0:0:
230,94,25813,1,8,0:0:0:0:
230,94,25841,1,8,0:0:0:0:
354,209,25928,1,0,0:0:0:0:
325,266,26043,1,0,0:0:0:0:
325,266,26159,1,8,0:0:0:0:
222,131,26389,1,0,0:0:0:0:
222,131,26505,1,8,0:0:0:0:
198,112,26563,1,0,0:0:0:0:
198,112,26620,1,8,0:0:0:0:
198,112,26678,1,0,0:0:0:0:
198,112,26736,1,8,0:0:0:0:
263,186,26851,1,0,0:0:0:0:
276,146,26909,1,0,0:0:0:0:
249,180,26966,1,8,0:0:0:0:
249,180,27082,1,0,0:0:0:0:
299,122,27139,1,0,0:0:0:0:
321,178,27197,1,8,0:0:0:0:
278,91,27255,1,0,0:0:0:0:
321,178,27313,1,8,0:0:0:0:
321,178,27370,1,8,0:0:0:0:
321,178,27428,1,0,0:0:0:0:
322,123,27543,1,0,0:0:0:0:
322,123,27601,1,0,0:0:0:0:
322,123,27659,1,8,0:0:0:0:
160,37,27774,1,0,0:0:0:0:
160,37,27851,1,8,0:0:0:0:
160,37,27928,1,8,0:0:0:0:
239,72,28005,1,0,0:0:0:0:
399,61,28120,1,8,0:0:0:0:
399,61,28178,1,8,0:0:0:0:
399,61,28236,1,8,0:0:0:0:
399,61,28351,1,0,0:0:0:0:
226,61,28466,1,8,0:0:0:0:
226,61,28524,1,0,0:0:0:0:
226,61,28582,1,8,0:0:0:0:
226,61,28697,1,0,0:0:0:0:
316,68,28813,1,8,0:0:0:0:
196,44,28851,1,8,0:0:0:0:
196,44,28889,1,0,0:0:0:0:
196,43,28928,1,0,0:0:0:0:
196,43,28966,1,8,0:0:0:0:
376,35,29005,1,8,0:0:0:0:
375,35,29043,1,0,0:0:0:0:
196,43,29101,1,0,0:0:0:0:
369,75,29159,1,8,0:0:0:0:
250,108,29274,1,8,0:0:0:0:
250,108,29389,1,0,0:0:0:0:
250,108,29447,1,0,0:0:0:0:
250,108,29505,1,8,0:0:0:0:
298,128,29620,1,8,0:0:0:0:
298,128,29736,1,0,0:0:0:0:
239,112,29793,1,8,0:0:0:0:
268,125,29851,1,8,0:0:0:0:
141,202,29966,1,0,0:0:0:0:
149,208,30024,1,0,0:0:0:0:
152,206,30082,1,8,0:0:0:0:
152,206,30139,1,0,0:0:0:0:
272,117,30197,1,0,0:0:0:0:
272,117,30255,1,0,0:0:0:0:
272,117,30313,1,8,0:0:0:0:
272,117,30370,1,8,0:0:0:0:
272,117,30428,1,0,0:0:0:0:
374,143,30543,1,8,0:0:0:0:
374,143,30659,1,8,0:0:0:0:
374,143,30774,1,0,0:0:0:0:
453,286,31005,1,0,0:0:0:0:
292,121,31063,1,0,0:0:0:0:
453,286,31120,1,8,0:0:0:0:
292,117,31236,1,8,0:0:0:0:
292,121,31351,1,8,0:0:0:0:
305,117,31466,1,0,0:0:0:0:
305,117,31524,1,0,0:0:0:0:
212,47,31582,1,8,0:0:0:0:
239,66,31639,1,8,0:0:0:0:
239,66,31697,1,0,0:0:0:0:
212,47,31755,1,8,0:0:0:0:
212,47,31813,1,8,0:0:0:0:
212,47,31870,1,8,0:0:0:0:
212,47,31928,1,0,0:0:0:0:
314,91,31986,1,0,0:0:0:0:
390,39,32043,1,8,0:0:0:0:
390,39,32072,1,8,0:0:0:0:
228,50,32101,1,0,0:0:0:0:
228,50,32159,1,0,0:0:0:0:
361,47,32216,1,8,0:0:0:0:
361,47,32274,1,8,0:0:0:0:
361,47,32332,1,0,0:0:0:0:
361,47,32389,1,8,0:0:0:0:
364,58,32505,1,8,0:0:0:0:
371,87,32620,1,0,0:0:0:0:
371,87,32659,1,0,0:0:0:0:
371,87,32697,1,8,0:0:0:0:
371,87,32736,1,8,0:0:0:0:
375,75,32851,1,0,0:0:0:0:
375,72,32889,1,0,0:0:0:0:
374,71,32928,1,0,0:0:0:0:
237,47,32966,1,8,0:0:0:0:
237,47,33005,1,8,0:0:0:0:
237,47,33043,1,8,0:0:0:0:
237,47,33082,1,0,0:0:0:0:
149,51,33197,1,0,0:0:0:0:
365,66,33313,1,8,0:0:0:0:
341,165,33341,1,8,0:0:0:0:
180,49,33428,1,8,0:0:0:0:
341,165,33457,1,8,0:0:0:0:
380,29,33543,1,0,0:0:0:0:
370,30,33659,1,0,0:0:0:0:
410,32,33774,1,8,0:0:0:0:
108,191,34005,1,0,0:0:0:0:
108,191,34120,1,8,0:0:0:0:
206,96,34178,1,8,0:0:0:0:
108,191,34236,1,8,0:0:0:0:
114,186,34351,1,0,0:0:0:0:
265,89,34466,1,0,0:0:0:0:
265,89,34543,1,8,0:0:0:0:
305,72,34620,1,8,0:0:0:0:
288,83,34697,1,0,0:0:0:0:
452,198,34928,1,8,0:0:0:0:
452,198,35043,1,0,0:0:0:0:
266,103,35101,1,0,0:0:0:0:
452,198,35159,1,8,0:0:0:0:
452,198,35274,1,8,0:0:0:0:
426,186,35389,1,0,0:0:0:0:
266,103,35447,1,0,0:0:0:0:
283,124,35505,1,0,0:0:0:0:
283,124,35620,1,8,0:0:0:0:
426,186,35736,1,0,0:0:0:0:
428,186,35966,1,8,0:0:0:0:
428,186,36024,1,8,0:0:0:0:
426,186,36082,1,0,0:0:0:0:
329,169,36139,1,0,0:0:0:0:
433,186,36197,1,8,0:0:0:0:
249,93,36255,1,8,0:0:0:0:
185,46,36313,1,0,0:0:0:0:
186,57,36428,1,8,0:0:0:0:
197,55,36466,1,8,0:0:0:0:
188,54,36505,1,8,0:0:0:0:
189,54,36543,1,0,0:0:0:0:
60,194,36601,1,0,0:0:0:0:
374,82,36659,1,8,0:0:0:0:
374,82,36697,1,0,0:0:0:0:
374,82,36736,1,0,0:0:0:0:
243,52,36774,1,8,0:0:0:0:
155,144,36832,1,8,0:0:0:0:
155,144,36889,1,0,0:0:0:0:
155,144,37005,1,0,0:0:0:0:
400,132,37120,1,8,0:0:0:0:
400,132,37236,1,0,0:0:0:0:
352,235,37293,1,8,0:0:0:0:
406,131,37351,1,8,0:0:0:0:
406,131,37466,1,0,0:0:0:0:
406,131,37524,1,0,0:0:0:0:
406,131,37582,1,8,0:0:0:0:
406,131,37639,1,8,0:0:0:0:
415,130,37697,1,0,0:0:0:0:
415,130,37813,1,0,0:0:0:0:
415,130,37928,1,8,0:0:0:0:
344,79,37957,1,8,0:0:0:0:
243,90,37986,1,0,0:0:0:0:
243,90,38014,1,0,0:0:0:0:
243,90,38043,1,8,0:0:0:0:
192,47,38072,1,8,0:0:0:0:
243,90,38101,1,0,0:0:0:0:
285,84,38130,1,0,0:0:0:0:
294,83,38159,1,8,0:0:0:0:
430,303,38389,1,8,0:0:0:0:
415,257,38620,1,0,0:0:0:0:
200,111,38736,1,8,0:0:0:0:
197,181,38966,1,8,0:0:0:0:
197,181,39197,1,0,0:0:0:0:
197,181,39255,1,8,0:0:0:0:
197,181,39313,1,8,0:0:0:0:
197,181,39543,1,8,0:0:0:0:
217,180,39774,1,0,0:0:0:0:
219,180,39889,1,8,0:0:0:0:
219,180,40005,1,0,0:0:0:0:
219,180,40236,1,8,0:0:0:0:
303,94,40466,1,0,0:0:0:0:
217,180,40582,1,8,0:0:0:0:
219,180,40813,1,8,0:0:0:0:
219,180,41043,1,0,0:0:0:0:
217,180,41159,1,8,0:0:0:0:
217,180,41274,1,8,0:0:0:0:
217,180,41332,1,8,0:0:0:0:
211,164,41389,1,8,0:0:0:0:
211,164,41505,1,0,0:0:0:0:
211,164,41620,1,0,0:0:0:0:
211,164,41736,1,8,0:0:0:0:
211,164,41851,1,0,0:0:0:0:
211,164,41966,1,0,0:0:0:0:
211,163,42024,1,0,0:0:0:0:
211,163,42082,1,8,0:0:0:0:
314,191,42197,1,0,0:0:0:0:
314,191,42255,1,8,0:0:0:0:
196,69,42313,1,8,0:0:0:0:
196,69,42370,1,8,0:0:0:0:
196,69,42428,1,0,0:0:0:0:
196,69,42543,1,8,0:0:0:0:
188,63,42601,1,8,0:0:0:0:
196,69,42659,1,8,0:0:0:0:
196,69,42774,1,0,0:0:0:0:
196,69,42832,1,8,0:0:0:0:
196,69,42889,1,0,0:0:0:0:
235,74,42947,1,8,0:0:0:0:
196,69,43005,1,8,0:0:0:0:
235,74,43120,1,0,0:0:0:0:
255,75,43149,1,0,0:0:0:0:
255,75,43178,1,8,0:0:0:0:
252,72,43207,1,8,0:0:0:0:
253,71,43236,1,0,0:0:0:0:
385,263,43351,1,8,0:0:0:0:
306,149,43409,1,8,0:0:0:0:
126,120,43466,1,0,0:0:0:0:
270,88,43524,1,8,0:0:0:0:
188,98,43582,1,8,0:0:0:0:
176,51,43639,1,8,0:0:0:0:
342,135,43697,1,0,0:0:0:0:
343,97,43813,1,8,0:0:0:0:
341,94,43851,1,8,0:0:0:0:
340,93,43889,1,8,0:0:0:0:
340,93,43928,1,8,0:0:0:0:
370,104,44043,1,0,0:0:0:0:
370,104,44101,1,8,0:0:0:0:
370,104,44159,1,0,0:0:0:0:
370,104,44216,1,8,0:0:0:0:
221,62,44274,1,0,0:0:0:0:
210,52,44332,1,0,0:0:0:0:
221,62,44389,1,8,0:0:0:0:
221,62,44428,1,0,0:0:0:0:
234,92,44466,1,0,0:0:0:0:
234,92,44505,1,8,0:0:0:0:
384,47,44563,1,8,0:0:0:0:
221,62,44620,1,0,0:0:0:0:
221,62,44736,1,8,0:0:0:0:
222,76,44966,1,8,0:0:0:0:
100,173,45197,1,0,0:0:0:0:
100,173,45313,1,8,0:0:0:0:
100,173,45428,1,8,0:0:0:0:
355,109,45543,1,4,0:0:0:0:
