osu file format v14

[General]
AudioFilename: audio.mp3
AudioLeadIn: 0
PreviewTime: 88068
Countdown: 0
SampleSet: None
StackLeniency: 1
Mode: 1
LetterboxInBreaks: 0
WidescreenStoryboard: 1

[Editor]
DistanceSpacing: 1.3
BeatDivisor: 4
GridSize: 32
TimelineZoom: 1.5

[Metadata]
Title:dreeeeam
TitleUnicode:dreeeeam ・∀・
Artist:dors k(uro)
ArtistUnicode:dors k(uro)
Creator:Vulkin
Version:Sweet Oni
Source:UNDERTALE
Tags:dm dokuro kors k smooooch beatmania iidx 16 empress candy spaghetti rave toby radiation fox asriel dreemurr chara hopes and dreams save the world
BeatmapID:1654047
BeatmapSetID:788077

[Difficulty]
HPDrainRate:5
CircleSize:7
OverallDifficulty:6
ApproachRate:10
SliderMultiplier:1.4
SliderTickRate:1

[Events]
//Background and Video events
0,0,"goatbro.png",0,0
//Break Periods
//Storyboard Layer 0 (Background)
//Storyboard Layer 1 (Fail)
//Storyboard Layer 2 (Pass)
//Storyboard Layer 3 (Foreground)
//Storyboard Sound Samples

[TimingPoints]
1374,338.983050847458,4,1,0,60,1,0
88153,-100,4,1,0,70,0,1
109848,-100,4,1,0,60,0,0
109933,-100,4,1,0,5,0,0

[Colours]
Combo1 : 255,0,255
Combo2 : 0,255,128
Combo3 : 0,255,0
Combo4 : 255,128,255

[HitObjects]
256,192,1374,5,4,0:0:0:0:
256,192,2390,1,8,0:0:0:0:
256,192,2729,1,0,0:0:0:0:
256,192,3407,1,0,0:0:0:0:
256,192,3577,1,0,0:0:0:0:
256,192,3746,1,8,0:0:0:0:
256,192,4085,1,0,0:0:0:0:
256,192,5102,1,8,0:0:0:0:
256,192,5441,1,8,0:0:0:0:
256,192,5526,1,8,0:0:0:0:
256,192,5611,1,0,0:0:0:0:
256,192,5780,1,8,0:0:0:0:
256,192,6119,1,0,0:0:0:0:
256,192,6289,1,0,0:0:0:0:
256,192,6374,1,0,0:0:0:0:
256,192,6458,1,8,0:0:0:0:
256,192,6628,1,8,0:0:0:0:
256,192,6797,1,0,0:0:0:0:
256,192,7814,1,8,0:0:0:0:
256,192,8153,1,0,0:0:0:0:
256,192,8831,1,0,0:0:0:0:
256,192,9001,1,0,0:0:0:0:
256,192,9170,1,8,0:0:0:0:
256,192,9509,1,0,0:0:0:0:
256,192,10526,1,0,0:0:0:0:
256,192,10865,1,8,0:0:0:0:
256,192,10950,1,8,0:0:0:0:
256,192,11035,1,0,0:0:0:0:
256,192,11204,1,8,0:0:0:0:
256,192,11543,1,0,0:0:0:0:
256,192,11712,1,0,0:0:0:0:
256,192,11797,1,0,0:0:0:0:
256,192,11882,1,8,0:0:0:0:
256,192,12051,1,0,0:0:0:0:
256,192,12221,1,12,0:0:0:0:
256,192,12390,1,0,0:0:0:0:
256,192,12560,1,0,0:0:0:0:
256,192,12899,1,8,0:0:0:0:
256,192,13068,1,0,0:0:0:0:
256,192,13153,1,0,0:0:0:0:
256,192,13238,1,0,0:0:0:0:
256,192,13407,1,0,0:0:0:0:
256,192,13577,1,8,0:0:0:0:
256,192,13916,1,0,0:0:0:0:
256,192,14255,1,8,0:0:0:0:
256,192,14424,1,8,0:0:0:0:
256,192,14509,1,8,0:0:0:0:
256,192,14594,1,0,0:0:0:0:
256,192,14763,1,0,0:0:0:0:
256,192,14933,1,12,0:0:0:0:
256,192,15102,1,0,0:0:0:0:
256,192,15272,1,0,0:0:0:0:
256,192,15611,1,8,0:0:0:0:
256,192,15780,1,0,0:0:0:0:
256,192,15865,1,8,0:0:0:0:
256,192,15950,1,0,0:0:0:0:
256,192,16119,1,8,0:0:0:0:
256,192,16289,1,0,0:0:0:0:
256,192,16628,1,0,0:0:0:0:
256,192,16967,1,8,0:0:0:0:
256,192,17136,1,8,0:0:0:0:
256,192,17221,1,8,0:0:0:0:
256,192,17306,1,0,0:0:0:0:
256,192,17475,1,8,0:0:0:0:
256,192,17645,1,4,0:0:0:0:
256,192,17984,1,0,0:0:0:0:
256,192,18153,1,0,0:0:0:0:
256,192,18323,1,8,0:0:0:0:
256,192,18492,1,0,0:0:0:0:
256,192,18577,1,8,0:0:0:0:
256,192,18662,1,0,0:0:0:0:
256,192,18831,1,0,0:0:0:0:
256,192,19001,1,8,0:0:0:0:
256,192,19340,1,0,0:0:0:0:
256,192,19509,1,8,0:0:0:0:
256,192,19679,1,8,0:0:0:0:
256,192,19848,1,0,0:0:0:0:
256,192,20018,1,8,0:0:0:0:
256,192,20187,1,0,0:0:0:0:
256,192,20357,1,8,0:0:0:0:
256,192,20441,1,8,0:0:0:0:
256,192,20526,1,0,0:0:0:0:
256,192,20611,1,0,0:0:0:0:
256,192,20696,1,8,0:0:0:0:
256,192,20865,1,8,0:0:0:0:
256,192,21035,1,0,0:0:0:0:
256,192,21119,1,0,0:0:0:0:
256,192,21204,1,8,0:0:0:0:
256,192,21289,1,8,0:0:0:0:
256,192,21374,1,0,0:0:0:0:
256,192,21543,1,0,0:0:0:0:
256,192,21712,1,12,0:0:0:0:
256,192,22390,1,12,0:0:0:0:
256,192,22899,1,0,0:0:0:0:
256,192,22984,1,0,0:0:0:0:
256,192,23068,1,12,0:0:0:0:
256,192,23407,1,0,0:0:0:0:
256,192,23577,1,0,0:0:0:0:
256,192,23662,1,0,0:0:0:0:
256,192,23746,1,8,0:0:0:0:
256,192,23916,1,0,0:0:0:0:
256,192,24085,1,8,0:0:0:0:
256,192,24170,1,8,0:0:0:0:
256,192,24255,1,0,0:0:0:0:
256,192,24594,1,8,0:0:0:0:
256,192,24679,1,8,0:0:0:0:
256,192,24763,1,8,0:0:0:0:
256,192,24933,1,0,0:0:0:0:
256,192,25102,1,8,0:0:0:0:
256,192,25272,1,0,0:0:0:0:
256,192,25357,1,0,0:0:0:0:
256,192,25441,1,8,0:0:0:0:
256,192,25611,1,0,0:0:0:0:
256,192,25780,1,8,0:0:0:0:
256,192,26119,1,0,0:0:0:0:
256,192,26458,1,8,0:0:0:0:
256,192,26628,1,8,0:0:0:0:
256,192,26712,1,8,0:0:0:0:
256,192,26797,1,0,0:0:0:0:
256,192,26967,1,8,0:0:0:0:
256,192,27306,1,8,0:0:0:0:
256,192,27390,1,8,0:0:0:0:
256,192,27475,1,8,0:0:0:0:
256,192,27645,1,8,0:0:0:0:
256,192,27814,1,0,0:0:0:0:
256,192,27984,1,8,0:0:0:0:
256,192,28068,1,8,0:0:0:0:
256,192,28153,1,0,0:0:0:0:
256,192,28323,1,0,0:0:0:0:
256,192,28492,1,8,0:0:0:0:
256,192,28831,1,0,0:0:0:0:
256,192,29001,1,0,0:0:0:0:
256,192,29085,1,0,0:0:0:0:
256,192,29170,1,8,0:0:0:0:
256,192,29340,1,0,0:0:0:0:
256,192,29509,1,8,0:0:0:0:
256,192,29594,1,8,0:0:0:0:
256,192,29679,1,8,0:0:0:0:
256,192,29848,1,0,0:0:0:0:
256,192,30018,1,8,0:0:0:0:
256,192,30102,1,8,0:0:0:0:
256,192,30187,1,0,0:0:0:0:
256,192,30357,1,8,0:0:0:0:
256,192,30526,1,0,0:0:0:0:
256,192,30865,1,0,0:0:0:0:
256,192,31035,1,0,0:0:0:0:
256,192,31119,1,0,0:0:0:0:
256,192,31204,1,12,0:0:0:0:
256,192,31374,1,0,0:0:0:0:
256,192,31543,1,8,0:0:0:0:
256,192,31712,1,8,0:0:0:0:
256,192,31882,1,12,0:0:0:0:
256,192,32051,1,0,0:0:0:0:
256,192,32221,1,8,0:0:0:0:
256,192,32390,1,8,0:0:0:0:
256,192,32560,1,4,0:0:0:0:
256,192,32899,1,4,0:0:0:0:
256,192,33068,1,0,0:0:0:0:
256,192,33238,1,12,0:0:0:0:
256,192,33407,1,0,0:0:0:0:
256,192,33577,1,8,0:0:0:0:
256,192,33662,1,8,0:0:0:0:
256,192,33746,1,8,0:0:0:0:
256,192,33831,1,8,0:0:0:0:
256,192,33916,1,4,0:0:0:0:
256,192,34255,1,0,0:0:0:0:
256,192,34425,1,0,0:0:0:0:
256,192,34594,1,8,0:0:0:0:
256,192,34763,1,8,0:0:0:0:
256,192,34848,1,8,0:0:0:0:
256,192,34933,1,0,0:0:0:0:
256,192,35018,1,0,0:0:0:0:
256,192,35102,1,8,0:0:0:0:
256,192,35272,1,0,0:0:0:0:
256,192,35611,1,8,0:0:0:0:
256,192,35780,1,0,0:0:0:0:
256,192,35950,1,8,0:0:0:0:
256,192,36119,1,8,0:0:0:0:
256,192,36204,1,8,0:0:0:0:
256,192,36289,1,8,0:0:0:0:
256,192,36458,1,8,0:0:0:0:
256,192,36628,1,0,0:0:0:0:
256,192,36967,1,0,0:0:0:0:
256,192,37136,1,0,0:0:0:0:
256,192,37306,1,8,0:0:0:0:
256,192,37475,1,0,0:0:0:0:
256,192,37560,1,8,0:0:0:0:
256,192,37645,1,8,0:0:0:0:
256,192,37729,1,0,0:0:0:0:
256,192,37814,1,8,0:0:0:0:
256,192,37984,1,0,0:0:0:0:
256,192,38154,1,8,0:0:0:0:
256,192,38323,1,8,0:0:0:0:
256,192,38492,1,0,0:0:0:0:
256,192,38662,1,8,0:0:0:0:
256,192,38831,1,0,0:0:0:0:
256,192,38916,1,0,0:0:0:0:
256,192,39001,1,0,0:0:0:0:
256,192,39170,1,8,0:0:0:0:
256,192,39340,1,4,0:0:0:0:
256,192,39679,1,0,0:0:0:0:
256,192,39848,1,0,0:0:0:0:
256,192,40018,1,8,0:0:0:0:
256,192,40187,1,8,0:0:0:0:
256,192,40272,1,8,0:0:0:0:
256,192,40357,1,0,0:0:0:0:
256,192,40441,1,0,0:0:0:0:
256,192,40526,1,8,0:0:0:0:
256,192,40696,1,8,0:0:0:0:
256,192,41035,1,0,0:0:0:0:
256,192,41204,1,8,0:0:0:0:
256,192,41374,1,0,0:0:0:0:
256,192,41543,1,8,0:0:0:0:
256,192,41628,1,8,0:0:0:0:
256,192,41712,1,8,0:0:0:0:
256,192,41882,1,0,0:0:0:0:
256,192,41967,1,0,0:0:0:0:
256,192,42051,1,8,0:0:0:0:
256,192,42136,1,8,0:0:0:0:
256,192,42221,1,0,0:0:0:0:
256,192,42390,1,8,0:0:0:0:
256,192,42475,1,0,0:0:0:0:
256,192,42560,1,8,0:0:0:0:
256,192,42729,1,0,0:0:0:0:
256,192,42899,1,8,0:0:0:0:
256,192,42984,1,8,0:0:0:0:
256,192,43068,1,8,0:0:0:0:
256,192,43238,1,8,0:0:0:0:
256,192,43577,1,8,0:0:0:0:
256,192,43746,1,0,0:0:0:0:
256,192,43916,1,8,0:0:0:0:
256,192,44085,1,8,0:0:0:0:
256,192,44255,1,8,0:0:0:0:
256,192,44340,1,8,0:0:0:0:
256,192,44424,1,8,0:0:0:0:
256,192,44594,1,0,0:0:0:0:
256,192,44763,1,12,0:0:0:0:
256,192,45102,1,0,0:0:0:0:
256,192,45272,1,0,0:0:0:0:
256,192,45441,1,8,0:0:0:0:
256,192,45611,1,0,0:0:0:0:
256,192,45780,1,8,0:0:0:0:
256,192,45950,1,8,0:0:0:0:
256,192,46119,1,0,0:0:0:0:
256,192,46458,1,8,0:0:0:0:
256,192,46628,1,0,0:0:0:0:
256,192,46797,1,8,0:0:0:0:
256,192,46967,1,0,0:0:0:0:
256,192,47051,1,0,0:0:0:0:
256,192,47136,1,8,0:0:0:0:
256,192,47306,1,8,0:0:0:0:
256,192,47475,1,0,0:0:0:0:
256,192,47814,1,0,0:0:0:0:
256,192,47984,1,0,0:0:0:0:
256,192,48153,1,8,0:0:0:0:
256,192,48323,1,0,0:0:0:0:
256,192,48492,1,8,0:0:0:0:
256,192,48662,1,8,0:0:0:0:
256,192,48831,1,0,0:0:0:0:
256,192,49170,1,8,0:0:0:0:
256,192,49340,1,0,0:0:0:0:
256,192,49509,1,8,0:0:0:0:
256,192,49679,1,8,0:0:0:0:
256,192,49763,1,8,0:0:0:0:
256,192,49848,1,0,0:0:0:0:
256,192,50018,1,0,0:0:0:0:
256,192,50187,1,8,0:0:0:0:
256,192,50526,1,0,0:0:0:0:
256,192,50696,1,0,0:0:0:0:
256,192,50780,1,0,0:0:0:0:
256,192,50865,1,8,0:0:0:0:
256,192,51035,1,0,0:0:0:0:
256,192,51204,1,0,0:0:0:0:
256,192,51374,1,0,0:0:0:0:
256,192,51458,1,0,0:0:0:0:
256,192,51543,1,8,0:0:0:0:
256,192,51882,1,8,0:0:0:0:
256,192,52051,1,0,0:0:0:0:
256,192,52136,1,8,0:0:0:0:
256,192,52221,1,8,0:0:0:0:
256,192,52390,1,8,0:0:0:0:
256,192,52560,1,0,0:0:0:0:
256,192,52729,1,0,0:0:0:0:
256,192,52814,1,0,0:0:0:0:
256,192,52899,1,8,0:0:0:0:
256,192,53238,1,0,0:0:0:0:
256,192,53407,1,0,0:0:0:0:
256,192,53577,1,8,0:0:0:0:
256,192,53746,1,8,0:0:0:0:
256,192,53831,1,8,0:0:0:0:
256,192,53916,1,0,0:0:0:0:
256,192,54085,1,0,0:0:0:0:
256,192,54255,1,12,0:0:0:0:
256,192,54594,1,0,0:0:0:0:
256,192,54933,1,8,0:0:0:0:
256,192,55272,1,12,0:0:0:0:
256,192,55611,1,4,0:0:0:0:
256,192,55780,1,0,0:0:0:0:
256,192,55865,1,0,0:0:0:0:
256,192,55950,1,8,0:0:0:0:
256,192,56119,1,8,0:0:0:0:
256,192,56289,1,0,0:0:0:0:
256,192,56458,1,8,0:0:0:0:
256,192,56543,1,8,0:0:0:0:
256,192,56628,1,0,0:0:0:0:
256,192,56797,1,0,0:0:0:0:
256,192,56967,1,8,0:0:0:0:
256,192,57221,1,8,0:0:0:0:
256,192,57475,1,8,0:0:0:0:
256,192,57645,1,0,0:0:0:0:
256,192,57729,1,0,0:0:0:0:
256,192,57814,1,8,0:0:0:0:
256,192,57899,1,8,0:0:0:0:
256,192,57984,1,8,0:0:0:0:
256,192,58323,1,0,0:0:0:0:
256,192,58492,1,0,0:0:0:0:
256,192,58577,1,0,0:0:0:0:
256,192,58662,1,0,0:0:0:0:
256,192,58831,1,8,0:0:0:0:
256,192,59001,1,0,0:0:0:0:
256,192,59170,1,8,0:0:0:0:
256,192,59255,1,8,0:0:0:0:
256,192,59340,1,8,0:0:0:0:
256,192,59509,1,0,0:0:0:0:
256,192,59679,1,8,0:0:0:0:
256,192,59763,1,8,0:0:0:0:
256,192,59848,1,0,0:0:0:0:
256,192,59933,1,0,0:0:0:0:
256,192,60018,1,0,0:0:0:0:
256,192,60187,1,8,0:0:0:0:
256,192,60357,1,0,0:0:0:0:
256,192,60526,1,0,0:0:0:0:
256,192,60611,1,0,0:0:0:0:
256,192,60696,1,8,0:0:0:0:
256,192,60780,1,8,0:0:0:0:
256,192,60865,1,8,0:0:0:0:
256,192,61035,1,4,0:0:0:0:
256,192,61374,1,0,0:0:0:0:
256,192,61543,1,8,0:0:0:0:
256,192,61628,1,0,0:0:0:0:
256,192,61712,1,8,0:0:0:0:
256,192,61797,1,8,0:0:0:0:
256,192,61882,1,0,0:0:0:0:
256,192,62051,1,8,0:0:0:0:
256,192,62221,1,0,0:0:0:0:
256,192,62390,1,8,0:0:0:0:
256,192,62560,1,0,0:0:0:0:
256,192,62645,1,0,0:0:0:0:
256,192,62729,1,0,0:0:0:0:
256,192,62899,1,8,0:0:0:0:
256,192,63068,1,0,0:0:0:0:
256,192,63238,1,8,0:0:0:0:
256,192,63407,1,8,0:0:0:0:
256,192,63746,1,4,0:0:0:0:
256,192,64085,1,0,0:0:0:0:
256,192,64255,1,8,0:0:0:0:
256,192,64424,1,8,0:0:0:0:
256,192,64509,1,8,0:0:0:0:
256,192,64594,1,0,0:0:0:0:
256,192,64679,1,8,0:0:0:0:
256,192,64763,1,0,0:0:0:0:
256,192,64933,1,0,0:0:0:0:
256,192,65102,1,12,0:0:0:0:
256,192,65441,1,0,0:0:0:0:
256,192,65780,1,8,0:0:0:0:
256,192,66119,1,8,0:0:0:0:
256,192,66204,1,8,0:0:0:0:
256,192,66289,1,8,0:0:0:0:
256,192,66458,1,4,0:0:0:0:
256,192,66797,1,0,0:0:0:0:
256,192,66882,1,0,0:0:0:0:
256,192,66967,1,8,0:0:0:0:
256,192,67306,1,8,0:0:0:0:
256,192,67475,1,8,0:0:0:0:
256,192,67814,1,0,0:0:0:0:
256,192,67984,1,8,0:0:0:0:
256,192,68153,1,8,0:0:0:0:
256,192,68323,1,0,0:0:0:0:
256,192,68492,1,0,0:0:0:0:
256,192,68577,1,0,0:0:0:0:
256,192,68662,1,8,0:0:0:0:
256,192,68831,1,8,0:0:0:0:
256,192,68916,1,0,0:0:0:0:
256,192,69001,1,8,0:0:0:0:
256,192,69170,1,0,0:0:0:0:
256,192,69509,1,0,0:0:0:0:
256,192,69679,1,8,0:0:0:0:
256,192,69848,1,8,0:0:0:0:
256,192,70018,1,0,0:0:0:0:
256,192,70357,1,8,0:0:0:0:
256,192,70526,1,8,0:0:0:0:
256,192,70611,1,8,0:0:0:0:
256,192,70696,1,0,0:0:0:0:
256,192,70780,1,8,0:0:0:0:
256,192,70865,1,0,0:0:0:0:
256,192,71035,1,0,0:0:0:0:
256,192,71374,1,0,0:0:0:0:
256,192,71458,1,0,0:0:0:0:
256,192,71543,1,8,0:0:0:0:
256,192,71628,1,8,0:0:0:0:
256,192,71712,1,8,0:0:0:0:
256,192,71882,1,0,0:0:0:0:
256,192,72221,1,0,0:0:0:0:
256,192,72390,1,8,0:0:0:0:
256,192,72729,1,0,0:0:0:0:
256,192,72899,1,8,0:0:0:0:
256,192,73238,1,0,0:0:0:0:
256,192,73407,1,8,0:0:0:0:
256,192,73577,1,8,0:0:0:0:
256,192,73662,1,8,0:0:0:0:
256,192,73746,1,0,0:0:0:0:
256,192,73916,1,8,0:0:0:0:
256,192,74001,1,0,0:0:0:0:
256,192,74085,1,8,0:0:0:0:
256,192,74255,1,8,0:0:0:0:
256,192,74424,1,0,0:0:0:0:
256,192,74594,1,0,0:0:0:0:
256,192,74933,1,0,0:0:0:0:
256,192,75102,1,8,0:0:0:0:
256,192,75187,1,0,0:0:0:0:
256,192,75272,1,8,0:0:0:0:
256,192,75357,1,0,0:0:0:0:
256,192,75441,1,0,0:0:0:0:
256,192,75611,1,8,0:0:0:0:
256,192,75950,1,0,0:0:0:0:
256,192,76035,1,0,0:0:0:0:
256,192,76119,1,8,0:0:0:0:
256,192,76204,1,8,0:0:0:0:
256,192,76289,1,8,0:0:0:0:
256,192,76458,1,0,0:0:0:0:
256,192,76628,1,8,0:0:0:0:
256,192,76797,1,0,0:0:0:0:
256,192,76967,1,0,0:0:0:0:
256,192,77136,1,8,0:0:0:0:
256,192,77221,1,8,0:0:0:0:
256,192,77306,1,8,0:0:0:0:
256,192,77645,1,0,0:0:0:0:
256,192,77984,1,8,0:0:0:0:
256,192,78323,1,0,0:0:0:0:
256,192,78662,1,8,0:0:0:0:
256,192,78831,1,0,0:0:0:0:
256,192,78916,1,0,0:0:0:0:
256,192,79001,1,0,0:0:0:0:
256,192,79170,1,8,0:0:0:0:
256,192,79509,1,8,0:0:0:0:
256,192,79594,1,8,0:0:0:0:
256,192,79679,1,8,0:0:0:0:
256,192,79848,1,0,0:0:0:0:
256,192,80018,1,8,0:0:0:0:
256,192,80357,1,0,0:0:0:0:
256,192,80696,1,8,0:0:0:0:
256,192,80865,1,0,0:0:0:0:
256,192,81035,1,0,0:0:0:0:
256,192,81204,1,8,0:0:0:0:
256,192,81374,1,8,0:0:0:0:
256,192,81458,1,8,0:0:0:0:
256,192,81543,1,0,0:0:0:0:
256,192,81628,1,8,0:0:0:0:
256,192,81712,1,0,0:0:0:0:
256,192,81882,1,0,0:0:0:0:
256,192,82051,1,8,0:0:0:0:
256,192,82390,1,8,0:0:0:0:
256,192,82560,1,8,0:0:0:0:
256,192,82645,1,8,0:0:0:0:
256,192,82729,1,0,0:0:0:0:
256,192,82899,1,0,0:0:0:0:
256,192,83068,1,8,0:0:0:0:
256,192,83238,1,0,0:0:0:0:
256,192,83407,1,8,0:0:0:0:
256,192,83746,1,0,0:0:0:0:
256,192,84085,1,8,0:0:0:0:
256,192,84170,1,8,0:0:0:0:
256,192,84255,1,0,0:0:0:0:
256,192,84340,1,0,0:0:0:0:
256,192,84424,1,0,0:0:0:0:
256,192,84594,1,8,0:0:0:0:
256,192,84763,1,0,0:0:0:0:
256,192,84933,1,0,0:0:0:0:
256,192,85018,1,0,0:0:0:0:
256,192,85102,1,8,0:0:0:0:
256,192,85272,1,0,0:0:0:0:
256,192,85441,1,8,0:0:0:0:
256,192,85526,1,0,0:0:0:0:
256,192,85611,1,8,0:0:0:0:
256,192,85696,1,8,0:0:0:0:
256,192,85780,1,0,0:0:0:0:
256,192,85950,1,0,0:0:0:0:
256,192,86119,1,8,0:0:0:0:
256,192,86204,1,8,0:0:0:0:
256,192,86289,1,0,0:0:0:0:
256,192,86374,1,0,0:0:0:0:
256,192,86458,1,8,0:0:0:0:
256,192,86628,1,8,0:0:0:0:
256,192,86797,1,4,0:0:0:0:
256,192,87136,1,0,0:0:0:0:
256,192,87475,1,12,0:0:0:0:
256,192,87814,1,8,0:0:0:0:
256,192,88153,1,4,0:0:0:0:
256,192,88492,1,0,0:0:0:0:
256,192,88662,1,8,0:0:0:0:
256,192,88746,1,8,0:0:0:0:
256,192,88831,1,0,0:0:0:0:
256,192,88916,1,0,0:0:0:0:
256,192,89001,1,8,0:0:0:0:
256,192,89170,1,8,0:0:0:0:
256,192,89340,1,8,0:0:0:0:
256,192,89509,1,0,0:0:0:0:
256,192,89848,1,8,0:0:0:0:
256,192,90018,1,0,0:0:0:0:
256,192,90102,1,0,0:0:0:0:
256,192,90187,1,8,0:0:0:0:
256,192,90272,1,8,0:0:0:0:
256,192,90357,1,0,0:0:0:0:
256,192,90441,1,0,0:0:0:0:
256,192,90526,1,8,0:0:0:0:
256,192,90696,1,8,0:0:0:0:
256,192,90865,1,0,0:0:0:0:
256,192,91204,1,8,0:0:0:0:
256,192,91374,1,0,0:0:0:0:
256,192,91543,1,8,0:0:0:0:
256,192,91628,1,8,0:0:0:0:
256,192,91712,1,0,0:0:0:0:
256,192,91797,1,0,0:0:0:0:
256,192,91882,1,8,0:0:0:0:
256,192,92051,1,0,0:0:0:0:
256,192,92390,1,8,0:0:0:0:
256,192,92560,1,0,0:0:0:0:
256,192,92729,1,8,0:0:0:0:
256,192,92899,1,0,0:0:0:0:
256,192,93068,1,8,0:0:0:0:
256,192,93153,1,8,0:0:0:0:
256,192,93238,1,0,0:0:0:0:
256,192,93407,1,0,0:0:0:0:
256,192,93577,1,12,0:0:0:0:
256,192,93916,1,0,0:0:0:0:
256,192,94085,1,0,0:0:0:0:
256,192,94170,1,0,0:0:0:0:
256,192,94255,1,8,0:0:0:0:
256,192,94340,1,8,0:0:0:0:
256,192,94424,1,0,0:0:0:0:
256,192,94594,1,0,0:0:0:0:
256,192,94763,1,8,0:0:0:0:
256,192,94933,1,4,0:0:0:0:
256,192,95272,1,0,0:0:0:0:
256,192,95441,1,8,0:0:0:0:
256,192,95526,1,8,0:0:0:0:
256,192,95611,1,0,0:0:0:0:
256,192,95696,1,0,0:0:0:0:
256,192,95780,1,8,0:0:0:0:
256,192,95865,1,8,0:0:0:0:
256,192,95950,1,0,0:0:0:0:
256,192,96119,1,0,0:0:0:0:
256,192,96289,1,12,0:0:0:0:
256,192,96628,1,0,0:0:0:0:
256,192,96712,1,0,0:0:0:0:
256,192,96797,1,0,0:0:0:0:
256,192,96967,1,12,0:0:0:0:
256,192,97306,1,8,0:0:0:0:
256,192,97390,1,8,0:0:0:0:
256,192,97475,1,8,0:0:0:0:
256,192,97645,1,4,0:0:0:0:
256,192,97984,1,0,0:0:0:0:
256,192,98153,1,0,0:0:0:0:
256,192,98323,1,8,0:0:0:0:
256,192,98492,1,0,0:0:0:0:
256,192,98662,1,8,0:0:0:0:
256,192,98746,1,0,0:0:0:0:
256,192,98831,1,8,0:0:0:0:
256,192,98916,1,8,0:0:0:0:
256,192,99001,1,4,0:0:0:0:
256,192,99340,1,0,0:0:0:0:
256,192,99509,1,0,0:0:0:0:
256,192,99594,1,0,0:0:0:0:
256,192,99679,1,8,0:0:0:0:
256,192,99848,1,0,0:0:0:0:
256,192,100018,1,8,0:0:0:0:
256,192,100187,1,8,0:0:0:0:
256,192,100357,1,0,0:0:0:0:
256,192,100696,1,8,0:0:0:0:
256,192,100865,1,0,0:0:0:0:
256,192,100950,1,8,0:0:0:0:
256,192,101035,1,8,0:0:0:0:
256,192,101204,1,8,0:0:0:0:
256,192,101374,1,0,0:0:0:0:
256,192,101458,1,0,0:0:0:0:
256,192,101543,1,0,0:0:0:0:
256,192,101712,1,8,0:0:0:0:
256,192,102051,1,0,0:0:0:0:
256,192,102221,1,0,0:0:0:0:
256,192,102390,1,8,0:0:0:0:
256,192,102560,1,0,0:0:0:0:
256,192,102645,1,0,0:0:0:0:
256,192,102729,1,8,0:0:0:0:
256,192,102814,1,0,0:0:0:0:
256,192,102899,1,8,0:0:0:0:
256,192,103068,1,4,0:0:0:0:
256,192,103238,1,8,0:0:0:0:
256,192,103323,1,8,0:0:0:0:
256,192,103407,1,8,0:0:0:0:
256,192,103577,1,0,0:0:0:0:
256,192,103746,1,8,0:0:0:0:
256,192,103916,1,8,0:0:0:0:
256,192,104085,1,0,0:0:0:0:
256,192,104170,1,0,0:0:0:0:
256,192,104255,1,0,0:0:0:0:
256,192,104340,1,0,0:0:0:0:
256,192,104424,1,12,0:0:0:0:
256,192,104763,1,0,0:0:0:0:
256,192,104933,1,8,0:0:0:0:
256,192,105018,1,8,0:0:0:0:
256,192,105102,1,8,0:0:0:0:
256,192,105272,1,0,0:0:0:0:
256,192,105441,1,8,0:0:0:0:
256,192,105611,1,4,0:0:0:0:
256,192,105950,1,4,0:0:0:0:
256,192,106289,1,8,0:0:0:0:
256,192,106458,1,0,0:0:0:0:
256,192,106628,1,8,0:0:0:0:
256,192,106712,1,8,0:0:0:0:
256,192,106797,1,8,0:0:0:0:
256,192,106882,1,0,0:0:0:0:
256,192,106967,1,8,0:0:0:0:
256,192,107136,1,4,0:0:0:0:
256,192,107475,1,0,0:0:0:0:
256,192,107645,1,0,0:0:0:0:
256,192,107814,1,12,0:0:0:0:
256,192,107984,1,0,0:0:0:0:
256,192,108153,1,8,0:0:0:0:
256,192,108323,1,8,0:0:0:0:
256,192,108407,1,8,0:0:0:0:
256,192,108492,1,4,0:0:0:0:
256,192,108662,1,0,0:0:0:0:
256,192,108746,1,0,0:0:0:0:
256,192,108831,1,8,0:0:0:0:
256,192,109001,1,0,0:0:0:0:
256,192,109170,1,8,0:0:0:0:
256,192,109255,1,8,0:0:0:0:
256,192,109340,1,0,0:0:0:0:
256,192,109424,1,0,0:0:0:0:
256,192,109509,1,8,0:0:0:0:
256,192,109594,1,8,0:0:0:0:
256,192,109679,1,0,0:0:0:0:
256,192,109848,1,12,0:0:0:0:
256,192,110187,12,0,113916,0:0:0:0:
