osu file format v14

[General]
AudioFilename: audio.mp3
AudioLeadIn: 0
PreviewTime: 88068
Countdown: 0
SampleSet: Normal
StackLeniency: 1
Mode: 1
LetterboxInBreaks: 0
WidescreenStoryboard: 1

[Editor]
DistanceSpacing: 1.3
BeatDivisor: 1
GridSize: 32
TimelineZoom: 0.7999994

[Metadata]
Title:dreeeeam
TitleUnicode:dreeeeam ・∀・
Artist:dors k(uro)
ArtistUnicode:dors k(uro)
Creator:Vulkin
Version:Hopeful Kantan
Source:UNDERTALE
Tags:dm dokuro kors k smooooch beatmania iidx 16 empress candy spaghetti rave toby radiation fox asriel dreemurr chara hopes and dreams save the world
BeatmapID:1654046
BeatmapSetID:788077

[Difficulty]
HPDrainRate:8
CircleSize:7
OverallDifficulty:3
ApproachRate:10
SliderMultiplier:1.4
SliderTickRate:1

[Events]
//Background and Video events
0,0,"goatbro.png",0,0
//Break Periods
//Storyboard Layer 0 (Background)
//Storyboard Layer 1 (Fail)
//Storyboard Layer 2 (Pass)
//Storyboard Layer 3 (Foreground)
//Storyboard Sound Samples

[TimingPoints]
1374,338.983050847458,4,1,0,60,1,0
88153,-100,4,1,0,70,0,1
109848,-100,4,1,0,60,0,0
109933,-100,4,1,0,5,0,0

[Colours]
Combo1 : 255,0,255
Combo2 : 0,255,128
Combo3 : 0,255,0
Combo4 : 255,128,255

[HitObjects]
256,192,1374,5,4,0:0:0:0:
256,192,4085,1,8,0:0:0:0:
256,192,6797,1,8,0:0:0:0:
256,192,9509,1,0,0:0:0:0:
256,192,11543,1,8,0:0:0:0:
256,192,12221,1,4,0:0:0:0:
256,192,12899,1,8,0:0:0:0:
256,192,13577,1,8,0:0:0:0:
256,192,14933,1,4,0:0:0:0:
256,192,15611,1,8,0:0:0:0:
256,192,16289,1,0,0:0:0:0:
256,192,17645,1,4,0:0:0:0:
256,192,18323,1,0,0:0:0:0:
256,192,19001,1,8,0:0:0:0:
256,192,20018,1,8,0:0:0:0:
256,192,20357,1,0,0:0:0:0:
256,192,21035,1,8,0:0:0:0:
256,192,21712,1,4,0:0:0:0:
256,192,22390,1,12,0:0:0:0:
256,192,23068,1,4,0:0:0:0:
256,192,24424,1,0,0:0:0:0:
256,192,25102,1,8,0:0:0:0:
256,192,25780,1,8,0:0:0:0:
256,192,27136,1,0,0:0:0:0:
256,192,27475,1,8,0:0:0:0:
256,192,27814,1,8,0:0:0:0:
256,192,28492,1,0,0:0:0:0:
256,192,29848,1,8,0:0:0:0:
256,192,30526,1,8,0:0:0:0:
256,192,31204,1,4,0:0:0:0:
256,192,31882,1,12,0:0:0:0:
256,192,32560,1,4,0:0:0:0:
256,192,32899,1,4,0:0:0:0:
256,192,33238,1,12,0:0:0:0:
256,192,33916,1,4,0:0:0:0:
256,192,34594,1,8,0:0:0:0:
256,192,35272,1,8,0:0:0:0:
256,192,36628,1,0,0:0:0:0:
256,192,37306,1,8,0:0:0:0:
256,192,37984,1,0,0:0:0:0:
256,192,39340,1,4,0:0:0:0:
256,192,40018,1,0,0:0:0:0:
256,192,40696,1,8,0:0:0:0:
256,192,41712,1,8,0:0:0:0:
256,192,42051,1,12,0:0:0:0:
256,192,42729,1,4,0:0:0:0:
256,192,43407,1,12,0:0:0:0:
256,192,44085,1,8,0:0:0:0:
256,192,44424,1,8,0:0:0:0:
256,192,44763,1,4,0:0:0:0:
256,192,46119,1,0,0:0:0:0:
256,192,46797,1,8,0:0:0:0:
256,192,47475,1,0,0:0:0:0:
256,192,48831,1,8,0:0:0:0:
256,192,49170,1,8,0:0:0:0:
256,192,49509,1,0,0:0:0:0:
256,192,50187,1,8,0:0:0:0:
256,192,50865,1,0,0:0:0:0:
256,192,51543,1,8,0:0:0:0:
256,192,52221,1,0,0:0:0:0:
256,192,52560,1,0,0:0:0:0:
256,192,52899,1,8,0:0:0:0:
256,192,53577,1,8,0:0:0:0:
256,192,54255,1,4,0:0:0:0:
256,192,55611,1,12,0:0:0:0:
256,192,56289,1,0,0:0:0:0:
256,192,56967,1,8,0:0:0:0:
256,192,57306,1,8,0:0:0:0:
256,192,57645,1,8,0:0:0:0:
256,192,58323,1,0,0:0:0:0:
256,192,59001,1,8,0:0:0:0:
256,192,59679,1,0,0:0:0:0:
256,192,60018,1,0,0:0:0:0:
256,192,60357,1,0,0:0:0:0:
256,192,61035,1,12,0:0:0:0:
256,192,62390,1,4,0:0:0:0:
256,192,63746,1,12,0:0:0:0:
256,192,64424,1,8,0:0:0:0:
256,192,64763,1,8,0:0:0:0:
256,192,65102,1,4,0:0:0:0:
256,192,65441,1,0,0:0:0:0:
256,192,65780,1,8,0:0:0:0:
256,192,66458,1,4,0:0:0:0:
256,192,67814,1,0,0:0:0:0:
256,192,68492,1,8,0:0:0:0:
256,192,69170,1,0,0:0:0:0:
256,192,70526,1,8,0:0:0:0:
256,192,70865,1,8,0:0:0:0:
256,192,71204,1,8,0:0:0:0:
256,192,71882,1,0,0:0:0:0:
256,192,73238,1,0,0:0:0:0:
256,192,73916,1,8,0:0:0:0:
256,192,74594,1,0,0:0:0:0:
256,192,75950,1,0,0:0:0:0:
256,192,76289,1,0,0:0:0:0:
256,192,76628,1,8,0:0:0:0:
256,192,77306,1,12,0:0:0:0:
256,192,78662,1,0,0:0:0:0:
256,192,79340,1,8,0:0:0:0:
256,192,80018,1,0,0:0:0:0:
256,192,81374,1,8,0:0:0:0:
256,192,82051,1,8,0:0:0:0:
256,192,82390,1,8,0:0:0:0:
256,192,82729,1,0,0:0:0:0:
256,192,83407,1,0,0:0:0:0:
256,192,84085,1,8,0:0:0:0:
256,192,84763,1,8,0:0:0:0:
256,192,85441,1,0,0:0:0:0:
256,192,85780,1,0,0:0:0:0:
256,192,86119,1,8,0:0:0:0:
256,192,86458,1,8,0:0:0:0:
256,192,86797,1,0,0:0:0:0:
256,192,87475,1,8,0:0:0:0:
256,192,88153,1,4,0:0:0:0:
256,192,88831,1,8,0:0:0:0:
256,192,89509,1,8,0:0:0:0:
256,192,90865,1,0,0:0:0:0:
256,192,91543,1,8,0:0:0:0:
256,192,91882,1,8,0:0:0:0:
256,192,92221,1,8,0:0:0:0:
256,192,92899,1,0,0:0:0:0:
256,192,93577,1,12,0:0:0:0:
256,192,94255,1,0,0:0:0:0:
256,192,94594,1,0,0:0:0:0:
256,192,94933,1,12,0:0:0:0:
256,192,95611,1,8,0:0:0:0:
256,192,95950,1,0,0:0:0:0:
256,192,96289,1,12,0:0:0:0:
256,192,96967,1,4,0:0:0:0:
256,192,97645,1,12,0:0:0:0:
256,192,97984,1,12,0:0:0:0:
256,192,98323,1,4,0:0:0:0:
256,192,99001,1,12,0:0:0:0:
256,192,100357,1,0,0:0:0:0:
256,192,100696,1,0,0:0:0:0:
256,192,101035,1,8,0:0:0:0:
256,192,101712,1,8,0:0:0:0:
256,192,102390,1,0,0:0:0:0:
256,192,103068,1,12,0:0:0:0:
256,192,104085,1,8,0:0:0:0:
256,192,104424,1,4,0:0:0:0:
256,192,105102,1,0,0:0:0:0:
256,192,105780,1,8,0:0:0:0:
256,192,106119,1,8,0:0:0:0:
256,192,106458,1,0,0:0:0:0:
256,192,107136,1,12,0:0:0:0:
256,192,107814,1,4,0:0:0:0:
256,192,108492,1,12,0:0:0:0:
256,192,108831,1,4,0:0:0:0:
256,192,109170,1,12,0:0:0:0:
256,192,109848,1,12,0:0:0:0:
256,192,110187,12,0,113916,0:0:0:0:
