osu file format v14

[General]
AudioFilename: fluffy.mp3
AudioLeadIn: 0
PreviewTime: 88153
Countdown: 0
SampleSet: Soft
StackLeniency: 0.2
Mode: 0
LetterboxInBreaks: 0
WidescreenStoryboard: 1

[Editor]
Bookmarks: 109170
DistanceSpacing: 0.4
BeatDivisor: 1
GridSize: 8
TimelineZoom: 3.299999

[Metadata]
Title:dreeeeam
TitleUnicode:dreeeeam ・∀・
Artist:dors k(uro)
ArtistUnicode:dors k(uro)
Creator:MusicLovin
Version:Eeeeasy
Source:UNDERTALE
Tags:dm dokuro kors k smooooch beatmania iidx 16 empress candy spaghetti rave toby radiation fox asriel dreemurr hopes and dreams save the world vulkin guitarlol raianshimuzu
BeatmapID:1427375
BeatmapSetID:673203

[Difficulty]
HPDrainRate:1
CircleSize:2
OverallDifficulty:1
ApproachRate:2
SliderMultiplier:0.800000005960464
SliderTickRate:1

[Events]
//Background and Video events
0,0,"goatbro.png",0,0
//Break Periods
2,66658,74390
//Storyboard Layer 0 (Background)
//Storyboard Layer 1 (Fail)
//Storyboard Layer 2 (Pass)
//Storyboard Layer 3 (Foreground)
//Storyboard Sound Samples

[TimingPoints]
1374,338.983050847458,4,2,0,60,1,0
1543,-100,4,2,0,40,0,0
12221,-100,4,2,0,60,0,0
12899,-100,4,2,0,40,0,0
14933,-100,4,2,0,60,0,0
15611,-100,4,2,0,40,0,0
17306,-100,4,1,0,40,0,0
22051,-100,4,1,0,40,0,0
23068,-100,4,1,0,50,0,1
33916,-100,4,1,0,50,0,0
44763,-100,4,1,0,45,0,0
56967,-100,4,1,0,45,0,0
58323,-100,4,1,0,45,0,0
59679,-100,4,1,0,45,0,0
61035,-100,4,1,0,45,0,0
62390,-100,4,1,0,45,0,0
63746,-100,4,1,0,45,0,0
66458,-100,4,1,0,40,0,0
77306,-100,4,2,0,50,0,0
82729,-100,4,1,0,50,0,0
85441,-100,4,1,0,50,0,0
88153,-100,4,2,0,60,0,1
104424,-100,4,1,0,60,0,1
109170,-100,4,1,0,60,0,1
109848,-100,4,2,0,40,0,0
110526,-100,4,2,0,30,0,0
111204,-100,4,2,0,20,0,0
111882,-100,4,2,0,10,0,0
113577,-100,4,2,0,5,0,0

[Colours]
Combo1 : 163,70,255
Combo2 : 255,128,255
Combo3 : 0,255,0
Combo4 : 128,255,255

[HitObjects]
48,48,1374,5,0,0:0:0:0:
160,48,2729,1,0,0:0:0:0:
272,48,4085,1,0,0:0:0:0:
384,48,5441,1,0,0:0:0:0:
384,160,6797,5,0,0:0:0:0:
272,160,8153,1,0,0:0:0:0:
160,160,9508,1,0,0:0:0:0:
48,160,10864,1,0,0:0:0:0:
56,336,12221,6,0,L|168:216,1,160.000001192093,4|0,0:0|0:0,0:0:0:0:
224,144,13577,1,0,0:0:0:0:
456,232,14933,6,0,P|400:264|304:280,1,160.000001192093,4|0,0:0|0:0,0:0:0:0:
216,240,16289,1,0,0:0:0:0:
72,72,17645,6,0,P|168:96|224:128,1,160.000001192093
288,200,19043,1,0,0:0:0:0:
416,104,20018,1,0,0:0:0:0:
256,192,20357,12,0,23068,0:0:0:0:
56,112,24424,5,0,0:0:0:0:
240,112,25780,1,0,0:0:0:0:
56,192,27136,1,0,0:0:0:0:
120,192,27814,1,0,0:0:0:0:
120,128,28492,1,0,0:0:0:0:
280,128,29848,1,0,0:0:0:0:
96,72,31204,5,4,0:0:0:0:
192,72,31882,1,4,0:0:0:0:
192,160,32560,1,4,0:0:0:0:
280,160,33238,1,4,0:0:0:0:
296,248,33916,6,0,P|384:192|400:112,1,160.000001192093
304,80,35272,1,0,0:0:0:0:
104,128,36628,2,0,P|184:144|160:208,1,160.000001192093
104,264,37984,1,0,0:0:0:0:
64,152,39340,2,0,L|232:152,2,160.000001192093
256,192,42051,12,0,44763,0:0:0:0:
176,168,47475,5,0,0:0:0:0:
272,168,48153,1,0,0:0:0:0:
272,72,48831,1,0,0:0:0:0:
176,72,49509,1,0,0:0:0:0:
176,168,50187,5,0,0:0:0:0:
176,264,50865,1,0,0:0:0:0:
272,264,51543,1,0,0:0:0:0:
272,168,52221,1,0,0:0:0:0:
176,168,52899,5,0,0:0:0:0:
80,168,53577,1,0,0:0:0:0:
80,264,54255,1,0,0:0:0:0:
176,264,54933,1,0,0:0:0:0:
256,192,55611,12,0,66458,0:0:0:0:
72,312,75950,6,0,L|192:176,2,160.000001192093
200,312,78662,1,0,0:0:0:0:
304,240,80018,1,0,0:0:0:0:
184,192,81374,1,0,0:0:0:0:
248,80,82729,1,0,0:0:0:0:
304,112,83407,1,0,0:0:0:0:
272,168,84085,1,0,0:0:0:0:
216,144,84763,1,0,0:0:0:0:
184,200,85441,1,0,0:0:0:0:
240,232,86119,1,0,0:0:0:0:
256,192,86797,12,0,88153,0:0:0:0:
147,284,90864,6,0,P|171:164|211:116,1,160.000001192093
264,64,92221,1,0,0:0:0:0:
416,112,93577,2,0,P|392:192|320:264,1,160.000001192093
240,280,94933,1,0,0:0:0:0:
88,296,96289,6,0,L|176:152,2,160.000001192093
224,296,99001,5,0,0:0:0:0:
224,160,100357,1,0,0:0:0:0:
352,160,101712,1,0,0:0:0:0:
352,240,102390,1,0,0:0:0:0:
272,240,103068,1,0,0:0:0:0:
272,96,104424,5,0,0:0:0:0:
144,96,105780,1,0,0:0:0:0:
144,240,107136,1,0,0:0:0:0:
224,240,107814,1,0,0:0:0:0:
224,160,108492,1,0,0:0:0:0:
144,160,109170,1,0,0:0:0:0:
256,192,109848,12,0,114255,0:0:0:0:
