osu file format v14

[General]
AudioFilename: fluffy.mp3
AudioLeadIn: 0
PreviewTime: 88153
Countdown: 0
SampleSet: Soft
StackLeniency: 0.7
Mode: 2
LetterboxInBreaks: 0
WidescreenStoryboard: 1

[Editor]
Bookmarks: 61035,109170
DistanceSpacing: 1.2
BeatDivisor: 4
GridSize: 8
TimelineZoom: 2.699999

[Metadata]
Title:dreeeeam
TitleUnicode:dreeeeam ・∀・
Artist:dors k(uro)
ArtistUnicode:dors k(uro)
Creator:Chara
Version:A Platter of Friendship
Source:UNDERTALE
Tags:dm dokuro kors k smooooch beatmania iidx 16 empress candy spaghetti rave toby radiation fox asriel dreemurr hopes and dreams save the world vulkin guitarlol raianshimuzu
BeatmapID:955341
BeatmapSetID:444696

[Difficulty]
HPDrainRate:5
CircleSize:3.7
OverallDifficulty:8.2
ApproachRate:8.2
SliderMultiplier:1.6
SliderTickRate:2

[Events]
//Background and Video events
0,0,"goatbro.png",0,0
//Break Periods
2,66658,75230
//Storyboard Layer 0 (Background)
//Storyboard Layer 1 (Fail)
//Storyboard Layer 2 (Pass)
//Storyboard Layer 3 (Foreground)
//Storyboard Sound Samples

[TimingPoints]
1374,338.983050847458,4,2,0,60,1,0
1543,-100,4,2,0,40,0,0
12221,-100,4,2,0,60,0,0
12899,-100,4,2,0,40,0,0
13238,-100,4,1,0,40,0,0
13407,-100,4,2,0,40,0,0
14933,-100,4,2,0,60,0,0
15611,-100,4,2,0,40,0,0
17306,-100,4,1,0,40,0,0
23068,-100,4,1,0,50,0,1
23407,-100,4,1,0,50,0,0
30526,-100,4,1,0,50,0,0
33916,-90.9090909090909,4,1,0,50,0,0
44763,-100,4,1,0,45,0,0
56967,-66.6666666666667,4,1,0,45,0,0
58323,-100,4,1,0,45,0,0
59679,-80,4,1,0,45,0,0
61035,-100,4,1,0,45,0,0
62390,-66.6666666666667,4,1,0,45,0,0
63746,-100,4,1,0,45,0,0
66458,-111.111111111111,4,1,0,40,0,0
77306,-100,4,2,0,50,0,0
82729,-100,4,1,0,50,0,0
85441,-83.3333333333333,4,1,0,50,0,0
88153,-74.794315632012,4,2,0,60,0,1
104424,-74.794315632012,4,1,0,60,0,1
109848,-100,4,2,0,40,0,0
110526,-100,4,2,0,30,0,0
111204,-100,4,2,0,20,0,0
111882,-100,4,2,0,10,0,0
113577,-100,4,2,0,5,0,0

[Colours]
Combo1 : 163,70,255
Combo2 : 255,128,255
Combo3 : 0,255,0
Combo4 : 128,255,255

[HitObjects]
104,328,1374,5,0,1:0:0:0:
79,253,1543,1,0,0:0:0:0:
105,178,1712,1,2,0:0:0:0:
170,134,1882,1,0,0:0:0:0:
248,137,2051,2,0,L|352:128,1,80
184,160,2390,2,0,L|80:150,1,80,2|0,0:0|0:0,0:0:0:0:
280,264,2729,5,0,0:0:0:0:
304,189,2898,1,0,0:0:0:0:
278,114,3067,1,2,0:0:0:0:
213,70,3237,1,0,0:0:0:0:
344,48,3407,2,0,L|328:160,1,80
176,104,3746,2,0,L|192:216,1,80,2|0,0:0|0:0,0:0:0:0:
344,224,4085,5,0,0:0:0:0:
392,191,4254,1,0,0:0:0:0:
402,133,4423,1,2,0:0:0:0:
368,86,4593,1,0,0:0:0:0:
168,72,4763,1,0,0:0:0:0:
134,119,4933,1,0,0:0:0:0:
144,176,5102,1,2,0:0:0:0:
192,210,5271,1,0,0:0:0:0:
328,240,5441,5,0,0:0:0:0:
312,208,5526,1,0,0:0:0:0:
296,176,5611,1,0,0:0:0:0:
160,160,5780,2,0,L|256:160,1,80,2|0,0:0|0:0,0:0:0:0:
368,112,6119,2,0,L|272:112,1,80
200,80,6458,1,2,0:0:0:0:
312,72,6628,1,0,0:0:0:0:
432,160,6797,5,0,0:0:0:0:
472,152,6967,1,0,0:0:0:0:
416,144,7136,1,2,0:0:0:0:
456,136,7306,1,0,0:0:0:0:
320,136,7475,1,0,0:0:0:0:
280,128,7645,1,0,0:0:0:0:
336,120,7814,1,2,0:0:0:0:
296,112,7984,1,0,0:0:0:0:
168,160,8153,5,0,0:0:0:0:
208,152,8323,1,0,0:0:0:0:
152,144,8492,1,2,0:0:0:0:
192,136,8662,1,0,0:0:0:0:
56,136,8831,1,0,0:0:0:0:
16,128,9001,1,0,0:0:0:0:
104,104,9170,2,0,L|16:96,1,80,2|0,0:0|0:0,0:0:0:0:
208,96,9509,6,0,L|216:200,2,80,0|0|2,0:0|0:0|0:0,0:0:0:0:
328,104,10018,1,0,0:0:0:0:
208,96,10187,2,0,L|104:72,1,80
80,120,10526,2,0,L|184:96,1,80,2|0,0:0|0:0,0:0:0:0:
336,96,10865,6,0,L|440:72,1,80
368,184,11204,2,0,L|264:160,1,80,2|0,0:0|0:0,0:0:0:0:
160,184,11543,1,0,0:0:0:0:
102,173,11712,1,0,0:0:0:0:
72,123,11882,1,2,0:0:0:0:
89,68,12051,1,0,0:0:0:0:
336,112,12221,6,0,P|440:112|504:80,1,160,0|0,1:0|1:0,1:0:0:0:
264,224,12899,2,0,P|216:176|208:104,2,120,0|0|0,1:0|0:0|0:0,0:0:0:0:
112,256,13577,5,0,1:0:0:0:
103,187,13746,1,0,0:0:0:0:
135,126,13915,1,0,1:0:0:0:
197,95,14085,1,0,0:0:0:0:
360,144,14255,2,0,P|408:96|416:24,2,120,0|0|0,1:0|0:0|0:0,0:0:0:0:
112,152,14933,5,0,1:0:0:0:
16,152,15102,1,0,1:0:0:0:
72,112,15272,1,0,1:0:0:0:
336,152,15611,2,0,P|384:88|376:40,2,120,0|0|0,1:0|0:0|0:0,0:0:0:0:
168,160,16289,6,0,L|264:160,1,80,0|0,1:0|0:0,0:0:0:0:
368,168,16628,2,0,L|272:168,1,80,0|0,1:0|0:0,0:0:0:0:
144,240,16967,2,0,P|104:192|104:160,2,80,0|0|0,1:0|0:0|1:0,0:0:0:0:
240,240,17475,1,0,0:0:0:0:
472,264,17645,6,0,L|504:160,3,80
304,224,18323,1,0,0:0:0:0:
226,221,18492,1,0,0:0:0:0:
181,158,18661,1,0,0:0:0:0:
202,84,18831,1,0,0:0:0:0:
40,264,19001,6,0,L|8:160,3,80
160,192,19679,2,0,L|240:176,1,80
136,144,20018,2,0,L|216:160,1,80
376,216,20357,5,0,0:0:0:0:
406,181,20441,1,0,0:0:0:0:
415,136,20526,1,0,0:0:0:0:
401,92,20611,1,0,0:0:0:0:
366,62,20695,1,0,0:0:0:0:
321,53,20780,1,0,0:0:0:0:
277,67,20865,1,0,0:0:0:0:
128,64,21035,5,0,0:0:0:0:
97,99,21119,1,0,0:0:0:0:
88,144,21204,1,0,0:0:0:0:
102,188,21289,1,0,0:0:0:0:
137,218,21373,1,0,0:0:0:0:
182,227,21458,1,0,0:0:0:0:
226,213,21543,1,0,0:0:0:0:
392,208,21712,6,0,P|424:144|296:72,1,240,2|0,0:0|0:0,0:0:0:0:
120,208,22390,2,0,P|88:144|216:72,1,240,2|0,0:0|0:0,0:0:0:0:
456,216,23068,6,0,P|488:168|472:64,1,160,2|8,0:0|0:0,0:0:0:0:
368,64,23577,1,0,0:0:0:0:
280,80,23746,2,0,P|304:128|416:144,1,160,2|8,0:0|0:0,0:0:0:0:
256,176,24255,1,2,0:0:0:0:
72,176,24594,1,2,0:0:0:0:
216,176,24763,2,0,P|272:160|304:136,1,80,8|2,0:0|0:0,0:0:0:0:
144,168,25102,2,0,L|128:88,1,80,2|0,0:0|0:0,0:0:0:0:
296,136,25441,2,0,L|312:56,1,80,8|2,0:0|0:0,0:0:0:0:
160,48,25780,6,0,P|64:56|8:112,2,160,2|8|2,0:0|0:0|0:0,0:0:0:0:
288,80,26628,2,0,P|344:80|376:64,1,80,0|8,0:0|0:0,0:0:0:0:
160,48,26967,6,0,P|64:56|8:112,1,160,2|0,0:0|0:0,0:0:0:0:
144,128,27475,2,0,L|232:136,1,80,8|2,0:0|0:0,0:0:0:0:
352,152,27814,1,2,0:0:0:0:
312,192,27984,1,0,0:0:0:0:
152,152,28153,2,0,L|240:160,1,80,8|0,0:0|0:0,0:0:0:0:
424,192,28492,6,0,P|432:112|352:64,1,160,2|8,0:0|0:0,0:0:0:0:
296,80,29001,1,0,0:0:0:0:
152,168,29170,2,2,P|104:128|216:48,1,240
368,96,30018,6,0,L|256:88,1,80,2|8,0:0|0:0,0:0:0:0:
144,96,30357,2,0,L|256:88,1,80
56,160,30865,2,0,L|32:64,1,80,8|0,0:0|0:0,0:0:0:0:
304,192,31204,5,6,0:0:0:0:
364,146,31373,1,0,0:0:0:0:
351,71,31542,1,8,0:0:0:0:
279,48,31712,1,0,0:0:0:0:
144,48,31882,1,6,0:0:0:0:
84,94,32051,1,0,0:0:0:0:
97,169,32220,1,8,0:0:0:0:
169,192,32390,1,0,0:0:0:0:
360,224,32560,6,0,L|272:224,1,80,6|0,0:0|0:0,0:0:0:0:
128,248,32899,2,0,L|216:248,1,80,6|0,0:0|0:0,0:0:0:0:
352,248,33238,1,6,0:0:0:0:
152,320,33577,2,0,L|136:256,3,40
208,248,33916,6,0,L|408:248,1,176.000005371094,6|8,0:0|0:0,0:0:0:0:
288,240,34424,1,0,0:0:0:0:
128,256,34594,2,0,L|328:256,1,176.000005371094,2|8,0:0|0:0,0:0:0:0:
208,248,35102,1,0,0:0:0:0:
48,264,35272,6,0,L|248:264,1,176.000005371094,2|8,0:0|0:0,0:0:0:0:
128,256,35780,1,0,0:0:0:0:
224,264,35950,2,0,P|288:240|320:176,1,132.00000402832,2|2,0:0|0:2,0:0:0:0:
160,152,36458,1,2,0:2:0:0:
304,248,36628,6,0,L|104:248,1,176.000005371094,2|8,0:0|0:0,0:0:0:0:
224,240,37136,1,0,0:0:0:0:
384,256,37306,2,0,L|184:256,1,176.000005371094,2|8,0:0|0:0,0:0:0:0:
304,248,37814,1,0,0:0:0:0:
464,264,37984,6,0,L|264:264,1,176.000005371094,2|8,0:0|0:0,0:0:0:0:
384,256,38492,1,0,0:0:0:0:
288,264,38662,2,0,P|224:240|192:176,1,132.00000402832,2|2,0:0|0:2,0:0:0:0:
352,152,39170,1,2,0:2:0:0:
192,192,39340,6,0,P|120:144|120:56,1,176.000005371094,2|8,0:0|0:0,0:0:0:0:
208,56,39848,1,0,0:0:0:0:
320,192,40018,2,0,P|392:144|392:56,1,176.000005371094,2|8,0:0|0:0,0:0:0:0:
304,56,40526,1,0,0:0:0:0:
136,64,40696,6,0,P|56:96|24:208,2,176.000005371094,2|8|0,0:0|0:0|0:0,0:0:0:0:
264,64,41543,2,0,L|376:64,2,88.000002685547,0|8|2,0:0|0:0|0:0,0:0:0:0:
48,160,42051,6,0,L|40:112,2,44.0000013427735,2|0|0,0:0|0:0|0:0,0:0:0:0:
144,176,42390,1,2,0:0:0:0:
272,176,42560,2,0,L|384:176,1,88.000002685547,2|0,0:0|0:0,0:0:0:0:
240,176,42899,2,0,L|128:176,1,88.000002685547,2|0,0:0|0:0,0:0:0:0:
296,232,43238,6,0,P|344:176|280:88,1,176.000005371094,2|2,0:0|0:0,0:0:0:0:
192,80,43746,2,0,L|304:80,1,88.000002685547,0|2,0:0|0:0,0:0:0:0:
416,128,44085,2,2,L|392:40,2,88.000002685547
152,216,44763,6,0,P|80:200|24:136,1,160,2|8,0:0|0:0,0:0:0:0:
144,112,45272,1,2,0:2:0:0:
272,120,45441,2,0,L|288:304,1,160,0|8,0:0|0:0,0:0:0:0:
88,328,46119,1,2,0:0:0:0:
256,352,46458,2,0,L|320:280,1,80,8|2,0:0|0:2,0:0:0:0:
160,272,46797,2,0,P|128:208|192:136,1,160,0|8,0:0|0:0,0:0:0:0:
272,112,47306,1,2,0:2:0:0:
424,120,47475,6,0,L|408:304,1,160,2|8,0:0|0:0,0:0:0:0:
320,312,47984,1,2,0:2:0:0:
168,312,48153,1,0,0:0:0:0:
240,352,48492,2,0,P|264:280|248:248,1,80,8|2,0:0|0:2,0:0:0:0:
80,256,48831,6,0,L|56:88,1,160,2|8,0:0|0:0,0:0:0:0:
176,128,49340,1,2,0:2:0:0:
256,64,49509,2,0,L|152:56,1,80,0|2,0:0|0:2,0:0:0:0:
40,64,49848,1,8,0:0:0:0:
304,64,50187,5,2,0:0:0:0:
128,184,50526,2,0,L|144:88,1,80,8|2,0:0|0:2,0:0:0:0:
256,72,50865,1,0,0:0:0:0:
472,200,51204,2,0,L|456:104,1,80,8|2,0:0|0:2,0:0:0:0:
280,136,51543,6,0,P|192:136|136:72,1,160,2|8,0:0|0:0,0:0:0:0:
280,104,52051,1,2,0:2:0:0:
344,136,52221,1,0,0:0:0:0:
192,152,52390,1,2,0:2:0:0:
128,184,52560,1,8,0:0:0:0:
264,200,52729,1,2,0:2:0:0:
440,224,52899,6,0,L|408:56,1,160,2|8,0:0|0:0,0:0:0:0:
304,48,53407,1,2,0:2:0:0:
168,56,53577,2,0,L|184:160,1,80,2|2,0:0|0:2,0:0:0:0:
344,56,53916,2,0,L|328:160,1,80,8|2,0:0|0:2,0:0:0:0:
88,296,54255,6,0,P|32:224|56:136,1,160,4|2,0:2|2:0,0:0:0:0:
331,135,54933,2,0,P|432:128|491:167,1,160,2|4,2:0|0:2,0:0:0:0:
384,192,55441,1,0,0:0:0:0:
96,240,55611,6,0,L|80:152,1,80,2|2,0:0|0:2,0:0:0:0:
224,184,55950,1,2,0:0:0:0:
248,184,56119,1,2,0:2:0:0:
96,240,56289,1,2,0:0:0:0:
104,208,56374,1,0,0:0:0:0:
112,176,56458,1,2,0:2:0:0:
264,240,56628,2,0,L|248:136,1,80,2|2,0:0|0:2,0:0:0:0:
112,176,56967,6,2,P|24:128|56:32,2,180.000006866455
248,176,57645,2,0,L|288:104,2,60.0000022888184,2|0|2,0:0|0:0|0:0,0:0:0:0:
112,240,57984,2,0,L|96:96,1,120.000004577637,2|0,0:0|0:0,0:0:0:0:
400,240,58323,5,2,0:0:0:0:
442,161,58492,1,2,0:2:0:0:
395,85,58662,1,2,0:0:0:0:
306,87,58831,1,2,0:2:0:0:
112,224,59001,1,2,0:0:0:0:
70,145,59170,1,2,0:2:0:0:
117,69,59340,1,2,0:0:0:0:
206,71,59509,1,2,0:2:0:0:
376,144,59679,5,0,0:0:0:0:
432,144,59763,2,2,L|480:216,1,50,2|2,0:2|0:2,0:2:0:0:
480,184,59933,1,2,0:2:0:0:
459,185,60018,2,2,L|432:144,1,50,2|2,0:2|0:2,0:2:0:0:
376,144,60187,1,2,0:2:0:0:
224,184,60357,1,2,0:2:0:0:
152,184,60526,2,0,L|136:120,2,50
56,120,60865,1,0,0:0:0:0:
416,240,61035,6,0,L|432:152,1,80,2|2,0:0|0:2,0:0:0:0:
288,184,61374,1,2,0:0:0:0:
264,184,61543,1,2,0:2:0:0:
416,240,61713,1,2,0:0:0:0:
408,208,61798,1,0,0:0:0:0:
400,176,61882,1,2,0:2:0:0:
248,240,62052,2,0,L|264:136,1,80,2|2,0:0|0:2,0:0:0:0:
400,176,62391,6,2,P|488:128|456:32,2,180.000006866455
264,176,63069,2,0,L|224:104,2,60.0000022888184,2|0|2,0:0|0:0|0:0,0:0:0:0:
400,240,63408,2,0,L|416:96,1,120.000004577637,2|0,0:0|0:0,0:0:0:0:
96,280,63746,6,0,P|48:200|208:88,1,320,4|0,0:0|0:0,0:0:0:0:
235,124,64509,1,0,0:0:0:0:
233,182,64594,1,0,0:0:0:0:
189,221,64679,1,0,0:0:0:0:
131,216,64763,1,0,0:0:0:0:
72,211,64848,1,0,0:0:0:0:
29,249,64933,1,0,0:0:0:0:
26,308,65018,1,0,0:0:0:0:
64,344,65102,6,0,P|199:288|216:256,2,160,4|0|0,0:0|0:0|0:0,0:0:0:0:
272,352,66120,1,0,0:0:0:0:
297,299,66204,1,0,0:0:0:0:
275,245,66289,1,0,0:0:0:0:
220,226,66374,1,0,0:0:0:0:
152,224,66458,1,4,0:0:0:0:
184,328,75950,6,0,L|160:96,1,215.999993408203,2|0,0:0|0:0,0:0:0:0:
328,328,76628,2,0,L|352:96,1,215.999993408203,2|0,0:0|0:0,0:0:0:0:
168,176,77306,6,2,P|96:176|8:96,1,160,2|2,1:0|1:0,0:0:0:0:
112,80,77814,1,0,0:0:0:0:
224,80,77984,2,0,L|264:184,1,80,2|0,1:0|0:0,0:0:0:0:
408,128,78323,2,0,L|368:232,1,80,2|0,1:0|0:0,0:0:0:0:
240,272,78662,6,0,P|176:256|144:224,2,80,2|0|0,1:0|0:0|1:0,0:0:0:0:
400,288,79170,2,0,P|440:216|392:144,1,160,2|2,0:1|0:0,1:0:0:0:
384,136,79594,1,0,0:0:0:0:
360,128,79679,2,0,L|272:136,1,80,2|0,1:0|1:0,0:0:0:0:
32,192,80018,6,2,P|40:120|128:88,1,160,2|2,1:0|1:0,0:0:0:0:
248,88,80526,1,0,0:0:0:0:
112,120,80696,2,0,L|120:224,1,80,2|0,1:0|0:0,0:0:0:0:
264,152,81035,2,0,L|256:256,1,80,2|0,1:0|0:0,0:0:0:0:
104,224,81374,5,2,1:0:0:0:
48,224,81458,1,0,0:0:0:0:
24,224,81543,1,2,0:0:0:0:
48,224,81628,1,0,0:0:0:0:
104,224,81712,1,2,1:0:0:0:
160,224,81797,1,2,0:0:0:0:
184,224,81882,1,2,0:0:0:0:
312,224,82051,2,0,L|392:224,1,80,2|0,1:0|0:0,0:0:0:0:
448,144,82390,2,2,L|336:144,1,80,2|2,1:0|1:0,1:0:0:0:
56,272,82729,5,0,0:0:0:0:
33,184,82898,1,0,0:0:0:0:
85,110,83067,1,0,0:0:0:0:
175,103,83237,1,0,0:0:0:0:
328,256,83407,1,0,0:0:0:0:
350,168,83576,1,0,0:0:0:0:
298,94,83745,1,0,0:0:0:0:
208,87,83915,1,0,0:0:0:0:
344,128,84085,6,0,L|368:16,1,80,0|0,1:0|1:0,1:0:0:0:
232,120,84424,2,0,L|256:8,1,80,0|0,1:0|1:0,1:0:0:0:
400,64,84763,2,0,L|304:32,1,80,0|0,1:0|1:0,1:0:0:0:
192,72,85102,2,0,L|288:40,1,80,0|0,1:0|1:0,1:0:0:0:
440,88,85441,5,0,0:0:0:0:
462,129,85525,1,0,0:0:0:0:
464,177,85610,1,0,0:0:0:0:
446,221,85695,1,0,0:0:0:0:
411,253,85779,1,0,0:0:0:0:
365,267,85864,1,0,0:0:0:0:
318,260,85949,1,0,0:0:0:0:
126,281,86119,5,0,0:0:0:0:
103,239,86203,1,0,0:0:0:0:
101,191,86288,1,0,0:0:0:0:
119,147,86373,1,0,0:0:0:0:
154,115,86457,1,0,0:0:0:0:
200,101,86542,1,0,0:0:0:0:
247,108,86627,1,0,0:0:0:0:
392,176,86797,6,0,L|384:240,1,47.9999985351563,2|0,1:0|2:0,0:0:0:0:
480,224,87136,2,0,L|472:288,1,47.9999985351563,2|0,1:0|2:0,0:0:0:0:
312,264,87475,2,0,L|304:328,1,47.9999985351563,2|0,1:0|2:0,0:0:0:0:
120,248,87814,2,0,L|104:152,1,95.9999970703126,2|0,1:0|0:0,0:0:0:0:
440,256,88153,6,0,L|464:144,1,106.959994965033,2|2,1:0|0:0,0:0:0:0:
336,168,88492,2,0,L|296:104,2,53.4799974825166,0|0|2,1:0|0:0|0:0,0:0:0:0:
191,198,88831,2,0,P|151:134|255:54,1,213.919989930066,2|0,1:0|1:0,0:0:0:0:
352,88,89340,1,2,0:0:0:0:
64,192,89509,6,0,L|56:64,1,106.959994965033,2|2,1:0|0:0,0:0:0:0:
160,112,89848,1,0,1:0:0:0:
224,112,89933,1,0,0:0:0:0:
256,112,90018,2,0,L|288:32,1,53.4799974825166,2|0,0:0|0:0,0:0:0:0:
192,64,90187,1,2,1:0:0:0:
128,64,90272,1,0,0:0:0:0:
96,64,90357,2,0,L|64:-16,2,53.4799974825166,2|0|0,0:0|0:0|1:0,0:0:0:0:
224,84,90696,1,2,0:0:0:0:
456,56,90865,6,0,P|496:112|432:248,1,213.919989930066,2|0,1:0|1:0,0:0:0:0:
296,240,91374,1,2,0:0:0:0:
392,296,91543,2,0,L|360:176,1,106.959994965033,2|2,1:0|0:0,0:0:0:0:
264,208,91882,1,2,1:0:0:0:
407,151,92051,2,0,L|432:256,1,106.959994965033,2|0,0:1|1:0,0:0:0:0:
264,120,92390,6,0,L|208:104,2,53.4799974825166,2|2|0,0:1|0:0|1:0,0:0:0:0:
400,96,92729,2,0,L|456:80,2,53.4799974825166,2|2|0,0:1|0:0|1:0,0:0:0:0:
256,72,93068,2,0,L|200:56,2,53.4799974825166,2|2|0,0:1|0:0|1:0,0:0:0:0:
408,48,93407,1,0,1:0:0:0:
136,240,93577,6,0,P|88:192|88:40,1,213.919989930066,4|2,1:2|1:0,0:0:0:0:
200,56,94085,1,2,0:0:0:0:
320,64,94255,2,0,P|368:112|368:184,2,106.959994965033,2|2|2,1:0|0:0|1:0,0:0:0:0:
200,56,94763,1,2,0:0:0:0:
480,96,94933,6,0,P|480:168|376:264,1,213.919989930066,4|2,1:2|1:0,0:0:0:0:
248,264,95441,1,2,0:0:0:0:
128,256,95611,2,0,P|80:208|72:128,1,106.959994965033,2|2,1:0|0:0,0:0:0:0:
120,136,95865,1,0,0:0:0:0:
176,160,95950,2,0,P|224:112|232:32,1,106.959994965033,2|2,1:0|0:0,0:0:0:0:
72,80,96289,5,4,1:2:0:0:
87,149,96458,1,0,1:0:0:0:
119,212,96628,1,0,1:0:0:0:
167,265,96797,1,0,1:0:0:0:
440,80,96967,5,4,1:2:0:0:
425,149,97136,1,0,1:0:0:0:
393,212,97306,1,0,1:0:0:0:
345,265,97475,1,0,1:0:0:0:
112,344,97645,6,0,L|128:224,1,106.959994965033,4|0,1:2|1:0,1:0:0:0:
256,288,97984,2,0,L|240:168,1,106.959994965033,4|4,1:2|1:2,1:0:0:0:
96,224,98323,2,0,L|168:112,1,106.959994965033,4|0,1:2|0:0,0:0:0:0:
56,136,98662,2,0,L|40:72,2,53.4799974825166
272,56,99001,6,0,L|376:136,1,106.959994965033,4|2,1:2|0:0,0:0:0:0:
504,136,99340,1,0,1:0:0:0:
432,224,99509,1,2,0:0:0:0:
256,64,99679,2,0,L|360:144,1,106.959994965033,2|2,1:0|0:0,0:0:0:0:
488,144,100018,1,0,1:0:0:0:
384,184,100187,1,2,0:0:0:0:
224,192,100357,6,0,L|112:168,1,106.959994965033,2|0,1:0|0:0,0:0:0:0:
8,120,100696,1,0,1:0:0:0:
128,144,100865,1,2,0:0:0:0:
248,152,101035,2,0,L|200:48,1,106.959994965033,2|0,1:0|0:0,0:0:0:0:
40,56,101374,1,0,1:0:0:0:
160,80,101543,1,2,0:0:0:0:
432,200,101712,6,2,P|472:136|352:56,1,213.919989930066,2|2,1:0|1:0,0:0:0:0:
280,72,102221,1,2,0:0:0:0:
160,136,102390,2,0,L|176:272,1,106.959994965033,2|2,1:0|0:0,0:0:0:0:
304,240,102729,2,0,L|440:288,1,106.959994965033,0|2,1:0|0:1,0:0:0:0:
88,336,103068,6,0,P|32:304|24:232,1,106.959994965033,4|2,1:2|0:0,0:0:0:0:
64,232,103323,1,0,0:0:0:0:
136,224,103407,1,0,1:0:0:0:
248,232,103577,1,2,0:0:0:0:
136,224,103746,2,0,P|88:184|56:128,1,106.959994965033,0|2,1:0|0:0,0:0:0:0:
192,120,104085,2,0,L|80:96,1,106.959994965033,4|2,1:2|0:0,0:0:0:0:
376,264,104424,6,0,P|448:192|344:128,1,213.919989930066,4|0,0:2|0:0,0:0:0:0:
264,112,104933,2,0,P|204:188|275:254,1,213.919989930066
344,248,105441,1,0,0:0:0:0:
88,256,105611,6,4,P|32:192|40:56,2,213.919989930066,4|4|4,0:2|0:2|0:2,0:2:0:0:
224,240,106458,2,0,L|352:240,1,106.959994965033,4|0,0:2|0:0,0:0:0:0:
280,240,106712,1,0,0:0:0:0:
208,240,106797,2,0,L|176:96,1,106.959994965033,4|0,0:3|0:0,0:0:0:0:
448,184,107136,5,4,0:2:0:0:
482,156,107220,1,0,0:0:0:0:
496,114,107305,1,0,0:0:0:0:
486,71,107390,1,0,0:0:0:0:
455,40,107474,1,0,0:0:0:0:
412,31,107559,1,0,0:0:0:0:
370,46,107644,1,0,0:0:0:0:
88,232,107814,5,4,0:2:0:0:
54,204,107898,1,0,0:0:0:0:
40,162,107983,1,0,0:0:0:0:
50,119,108068,1,0,0:0:0:0:
81,88,108152,1,0,0:0:0:0:
124,79,108237,1,0,0:0:0:0:
166,94,108322,1,0,0:0:0:0:
432,192,108492,6,0,L|448:120,2,53.4799974825166,4|0|0,0:2|0:0|0:0,0:0:0:0:
304,232,108831,2,0,L|288:160,2,53.4799974825166,4|0|0,0:2|0:0|0:0,0:0:0:0:
456,280,109170,6,0,L|472:224,12,35.6533316550111,4|0|0|0|0|0|4|0|0|0|0|0|4,0:2|0:0|0:0|0:0|0:0|0:0|0:2|0:0|0:0|0:0|0:0|0:0|0:0,0:0:0:0:
256,192,110018,12,0,114594,0:0:0:0:
