osu file format v14

[General]
AudioFilename: fluffy.mp3
AudioLeadIn: 0
PreviewTime: 88153
Countdown: 0
SampleSet: Normal
StackLeniency: 0.7
Mode: 2
LetterboxInBreaks: 0
WidescreenStoryboard: 0

[Editor]
Bookmarks: 109170
DistanceSpacing: 1.2
BeatDivisor: 4
GridSize: 8
TimelineZoom: 2.699999

[Metadata]
Title:dreeeeam
TitleUnicode:dreeeeam ・∀・
Artist:dors k(uro)
ArtistUnicode:dors k(uro)
Creator:Chara
Version:A Heart Filled With Determination
Source:UNDERTALE
Tags:dm dokuro kors k smooooch beatmania iidx 16 empress candy spaghetti rave toby radiation fox asriel dreemurr hopes and dreams save the world vulkin guitarlol raianshimuzu
BeatmapID:955340
BeatmapSetID:444696

[Difficulty]
HPDrainRate:6.5
CircleSize:4.2
OverallDifficulty:9.6
ApproachRate:9.6
SliderMultiplier:1.9
SliderTickRate:2

[Events]
//Background and Video events
0,0,"goatbro.png",0,0
//Break Periods
2,66658,75425
//Storyboard Layer 0 (Background)
//Storyboard Layer 1 (Fail)
//Storyboard Layer 2 (Pass)
//Storyboard Layer 3 (Foreground)
//Storyboard Sound Samples

[TimingPoints]
1374,338.983050847458,4,2,0,60,1,0
1543,-100,4,2,0,40,0,0
12221,-100,4,2,0,60,0,0
12899,-100,4,2,0,40,0,0
14933,-100,4,2,0,60,0,0
15611,-100,4,2,0,40,0,0
17306,-100,4,1,0,40,0,0
22051,-83.3333333333333,4,1,0,40,0,0
23068,-100,4,1,0,50,0,1
23407,-100,4,1,0,50,0,0
29509,-66.6666666666667,4,1,0,50,0,0
30526,-100,4,1,0,50,0,0
32560,-74.0740740740741,4,1,0,50,0,0
33916,-90.9090909090909,4,1,0,50,0,0
44763,-100,4,1,0,45,0,0
56967,-66.6666666666667,4,1,0,45,0,0
58323,-100,4,1,0,45,0,0
59679,-80,4,1,0,45,0,0
61035,-100,4,1,0,45,0,0
62390,-66.6666666666667,4,1,0,45,0,0
63746,-100,4,1,0,45,0,0
66458,-111.111111111111,4,1,0,40,0,0
77306,-100,4,2,0,50,0,0
82729,-100,4,1,0,50,0,0
85441,-83.3333333333333,4,1,0,50,0,0
88153,-74.794315632012,4,2,0,60,0,1
104424,-74.794315632012,4,1,0,60,0,1
109170,-50,4,1,0,60,0,1
109848,-100,4,2,0,40,0,0
110526,-100,4,2,0,30,0,0
111204,-100,4,2,0,20,0,0
111882,-100,4,2,0,10,0,0
113577,-100,4,2,0,5,0,0

[Colours]
Combo1 : 163,70,255
Combo2 : 255,128,255
Combo3 : 0,255,0
Combo4 : 128,255,255

[HitObjects]
392,312,1374,5,2,1:2:0:0:
129,314,1543,1,0,0:0:0:0:
104,224,1712,1,2,0:0:0:0:
145,141,1882,1,0,0:0:0:0:
232,108,2051,1,0,0:0:0:0:
319,141,2220,1,0,0:0:0:0:
424,120,2390,1,2,0:0:0:0:
319,141,2559,1,0,0:0:0:0:
160,328,2729,5,0,0:0:0:0:
140,312,2899,1,0,0:0:0:0:
120,308,3068,1,2,0:0:0:0:
108,312,3238,1,0,0:0:0:0:
336,288,3407,1,0,0:0:0:0:
356,272,3577,1,0,0:0:0:0:
376,268,3746,1,2,0:0:0:0:
388,272,3916,1,0,0:0:0:0:
96,216,4085,6,0,L|0:164,1,95
132,120,4424,2,0,L|36:172,1,95,2|0,0:0|0:0,0:0:0:0:
252,184,4763,2,0,L|348:132,1,95
216,88,5102,2,0,L|312:140,1,95,2|0,0:0|0:0,0:0:0:0:
463,165,5441,5,0,0:0:0:0:
421,142,5525,1,0,0:0:0:0:
380,120,5610,1,0,0:0:0:0:
499,170,5780,2,0,L|416:216,1,95,2|0,0:0|0:0,0:0:0:0:
176,240,6119,2,0,L|259:286,1,95
208,304,6374,1,0,0:0:0:0:
144,304,6458,1,2,0:0:0:0:
32,304,6628,1,0,0:0:0:0:
424,368,6797,5,0,0:0:0:0:
407,275,6966,1,0,0:0:0:0:
350,200,7135,1,2,0:0:0:0:
265,160,7305,1,0,0:0:0:0:
171,163,7474,1,0,0:0:0:0:
265,160,7645,1,0,0:0:0:0:
364,152,7814,1,2,0:0:0:0:
460,112,7984,1,0,0:0:0:0:
88,368,8153,6,0,L|120:248,1,95
248,160,8492,2,0,L|280:280,1,95,2|0,0:0|0:0,0:0:0:0:
406,368,8831,2,0,L|440:248,1,95
272,251,9170,2,0,L|248:160,1,95,2|0,0:0|0:0,0:0:0:0:
16,268,9509,5,0,0:0:0:0:
128,268,9679,1,0,0:0:0:0:
32,268,9848,1,2,0:0:0:0:
144,268,10018,1,0,0:0:0:0:
384,232,10187,1,0,0:0:0:0:
240,232,10357,1,0,0:0:0:0:
360,232,10526,1,2,0:0:0:0:
216,232,10696,1,0,0:0:0:0:
448,320,10865,6,0,L|472:272,2,47.5
288,336,11204,2,0,L|160:336,1,95,2|0,0:0|0:0,0:0:0:0:
344,48,11543,2,0,L|216:48,1,95
184,48,11797,1,0,0:0:0:0:
120,48,11882,1,2,0:0:0:0:
384,56,12051,1,0,0:0:0:0:
32,96,12221,5,4,1:0:0:0:
312,96,12560,1,2,1:2:0:0:
96,256,12899,2,0,L|112:136,1,95,2|0,1:2|0:0,0:0:0:0:
310,128,13153,2,0,L|304:176,1,47.5,2|0,0:0|1:0,0:0:0:0:
144,144,13407,1,2,0:0:0:0:
384,160,13577,6,0,L|512:144,1,95,0|2,1:0|0:0,0:0:0:0:
304,200,13916,2,0,L|176:184,1,95,2|2,1:2|0:0,0:0:0:0:
40,208,14255,2,0,L|56:80,1,95,2|0,1:2|0:0,0:0:0:0:
104,80,14509,1,2,0:0:0:0:
280,160,14594,2,0,L|264:32,1,95,0|2,1:2|1:2,0:0:0:0:
24,160,14933,5,0,1:0:0:0:
144,160,15102,1,0,1:0:0:0:
8,208,15272,1,2,1:2:0:0:
304,256,15611,2,0,L|224:320,1,95,2|0,1:2|0:0,0:0:0:0:
40,288,15865,2,0,L|88:294,1,47.5,2|0,0:0|1:0,0:0:0:0:
240,336,16119,1,2,0:2:0:0:
480,344,16289,6,0,L|496:224,1,95,0|2,1:0|0:0,0:0:0:0:
296,232,16628,2,0,L|280:352,1,95,2|2,1:2|0:0,0:0:0:0:
448,320,16967,1,2,1:2:0:0:
288,352,17136,2,0,L|264:272,1,47.5,0|2,0:0|0:0,0:0:0:0:
432,312,17306,2,0,L|464:176,1,95,0|2,0:0|0:2,0:0:0:0:
376,208,17560,1,0,0:0:0:0:
112,184,17645,6,0,L|0:184,1,95,4|0,0:0|0:0,0:0:0:0:
160,192,17984,1,0,0:0:0:0:
16,192,18153,1,0,0:0:0:0:
376,208,18323,6,0,L|488:208,1,95
328,216,18662,1,0,0:0:0:0:
472,216,18831,1,0,0:0:0:0:
96,320,19001,6,0,L|72:184,1,95
240,240,19340,2,0,L|264:104,1,95
488,112,19679,2,0,L|360:120,1,95
72,168,20018,2,0,L|200:176,1,95
424,224,20357,5,0,0:0:0:0:
472,216,20441,1,0,0:0:0:0:
360,264,20526,1,0,0:0:0:0:
312,256,20610,1,0,0:0:0:0:
408,240,20696,5,0,0:0:0:0:
456,232,20780,1,0,0:0:0:0:
344,280,20865,1,0,0:0:0:0:
296,272,20949,1,0,0:0:0:0:
24,296,21035,5,0,0:0:0:0:
16,264,21119,1,0,0:0:0:0:
56,232,21204,1,0,0:0:0:0:
136,232,21289,1,0,0:0:0:0:
352,208,21374,2,0,L|368:144,1,47.5
159,207,21543,2,0,L|112:208,1,47.5
440,352,21712,5,6,0:0:0:0:
454,333,21754,1,0,0:0:0:0:
462,310,21796,1,0,0:0:0:0:
463,287,21839,1,0,0:0:0:0:
458,264,21881,1,0,0:0:0:0:
446,243,21923,1,0,0:0:0:0:
429,227,21966,1,0,0:0:0:0:
248,240,22051,5,0,0:0:0:0:
224,224,22093,1,0,0:0:0:0:
210,200,22135,1,0,0:0:0:0:
209,171,22178,1,0,0:0:0:0:
221,146,22220,1,0,0:0:0:0:
243,129,22262,1,0,0:0:0:0:
271,124,22305,1,0,0:0:0:0:
432,152,22390,5,2,0:0:0:0:
459,147,22432,1,0,0:0:0:0:
480,129,22474,1,0,0:0:0:0:
488,102,22517,1,0,0:0:0:0:
479,75,22559,1,0,0:0:0:0:
458,57,22601,1,0,0:0:0:0:
430,54,22644,1,0,0:0:0:0:
240,256,22730,5,0,0:0:0:0:
213,251,22772,1,0,0:0:0:0:
192,233,22814,1,0,0:0:0:0:
184,206,22857,1,0,0:0:0:0:
200,208,22899,1,0,0:0:0:0:
224,208,22941,1,0,0:0:0:0:
264,208,22984,1,0,0:0:0:0:
320,208,23026,1,0,0:0:0:0:
472,208,23068,6,0,L|496:48,1,142.5,2|0,0:0|0:0,0:0:0:0:
304,144,23407,2,0,L|280:32,1,95,10|0,0:0|0:0,0:0:0:0:
464,72,23746,1,2,0:0:0:0:
336,72,23916,1,0,0:0:0:0:
352,72,24001,1,0,0:0:0:0:
368,72,24085,1,8,0:0:0:0:
136,160,24255,6,0,P|56:160|16:80,1,142.5,2|0,0:0|0:0,0:0:0:0:
240,176,24594,2,0,L|360:112,2,95,2|8|2,0:0|0:0|0:0,0:0:0:0:
344,128,25102,1,2,0:0:0:0:
48,240,25272,6,2,L|24:232,1,23.75,2|2,2:0|2:0,2:0:0:0:
56,224,25357,2,2,L|32:216,1,23.75,2|2,2:0|2:0,2:0:0:0:
80,192,25441,1,10,1:0:0:0:
186,152,25611,2,0,L|192:200,1,47.5,2|0,0:0|0:0,0:0:0:0:
376,264,25780,6,0,B|328:200|328:200|256:200,1,142.5,2|0,0:0|0:0,0:0:0:0:
464,224,26119,2,0,L|480:112,1,95,10|0,0:0|0:0,0:0:0:0:
284,128,26458,2,0,L|412:128,1,95,2|0,0:0|0:0,0:0:0:0:
324,76,26797,1,8,0:0:0:0:
72,120,26967,6,2,P|3:173|67:221,1,190,2|2,0:0|2:0,0:0:0:0:
99,221,27348,1,2,2:0:0:0:
135,221,27390,1,2,2:0:0:0:
171,221,27433,1,2,2:0:0:0:
207,221,27475,2,2,L|327:221,1,95,10|2,0:0|0:0,0:0:0:0:
112,304,27814,1,2,0:0:0:0:
320,328,27984,2,0,L|216:328,1,95,0|10,0:0|0:0,0:0:0:0:
472,352,28323,1,2,2:0:0:0:
480,288,28365,1,2,2:0:0:0:
488,224,28407,1,2,2:0:0:0:
496,160,28450,1,2,2:0:0:0:
504,96,28492,6,0,B|352:96,1,142.5,2|0,0:0|0:0,0:0:0:0:
112,88,28831,2,0,L|-16:88,3,95,10|0|2|0,0:0|0:0|0:0|0:0,0:0:0:0:
280,128,29509,1,8,2:1:0:0:
320,128,29551,1,2,2:0:0:0:
352,128,29594,1,2,2:0:0:0:
376,128,29636,1,2,2:0:0:0:
392,128,29679,6,2,L|104:128,2,285.000010871888
128,272,30526,6,0,P|80:224|72:168,1,95,2|0,0:0|0:0,0:0:0:0:
288,192,30780,1,0,0:0:0:0:
328,192,30865,2,0,L|200:192,1,95,8|0,0:0|0:0,0:0:0:0:
480,192,31204,5,6,0:0:0:0:
360,192,31374,1,0,0:0:0:0:
496,168,31543,1,8,0:0:0:0:
344,168,31713,1,0,0:0:0:0:
56,192,31882,5,6,0:0:0:0:
192,176,32051,1,0,0:0:0:0:
40,176,32221,1,8,0:0:0:0:
208,192,32390,1,0,0:0:0:0:
472,136,32560,6,0,L|320:136,1,128.250000489235,6|0,0:0|0:0,0:0:0:0:
40,136,32899,2,0,L|192:136,1,128.250000489235,14|0,0:0|0:0,0:0:0:0:
448,336,33238,6,0,P|480:280|432:144,1,192.375000733852,6|0,0:0|2:0,2:0:0:0:
128,176,33577,2,0,L|64:176,1,64.1250002446175
328,176,33746,2,0,L|400:176,1,64.1250002446175
112,288,33916,6,0,P|56:240|56:128,1,156.750004783631,6|0,0:0|0:0,0:0:0:0:
169,72,34255,2,0,L|264:160,1,104.500003189087,8|0,0:0|0:0,0:0:0:0:
368,280,34594,2,0,P|424:232|424:120,1,156.750004783631,2|0,0:0|0:0,0:0:0:0:
208,208,34933,2,0,L|296:136,1,104.500003189087,8|0,0:0|0:0,0:0:0:0:
32,104,35272,6,0,L|160:104,1,104.500003189087,2|0,0:0|0:0,0:0:0:0:
320,104,35611,1,8,0:0:0:0:
208,104,35780,1,0,0:0:0:0:
376,192,35950,2,0,P|416:152|424:88,1,104.500003189087,2|0,0:0|0:0,0:0:0:0:
256,152,36204,2,0,L|248:40,1,104.500003189087,2|0,0:2|0:0,0:0:0:0:
408,56,36458,1,2,0:2:0:0:
128,192,36628,6,0,P|48:184|-8:96,1,156.750004783631,2|0,0:0|0:0,0:0:0:0:
112,72,36967,2,0,L|224:72,1,104.500003189087,8|0,0:0|0:0,0:0:0:0:
448,120,37306,2,0,P|384:80|272:56,1,156.750004783631,2|0,0:0|0:0,0:0:0:0:
80,96,37645,2,0,L|200:96,1,104.500003189087,8|0,0:0|0:0,0:0:0:0:
432,88,37984,6,0,L|456:208,1,104.500003189087,2|0,0:0|0:0,0:0:0:0:
352,120,38323,2,0,L|331:222,1,104.500003189087,8|0,0:0|0:0,0:0:0:0:
104,148,38662,1,2,0:0:0:0:
8,136,38831,2,0,L|24:80,1,52.2500015945435,0|2,0:0|0:2,0:0:0:0:
185,37,39085,2,0,L|200:88,1,52.2500015945435,0|2,0:0|0:2,0:0:0:0:
496,112,39340,6,0,L|312:112,1,156.750004783631,6|0,0:0|0:0,0:0:0:0:
240,112,39679,1,8,0:0:0:0:
368,112,39848,1,0,0:0:0:0:
16,112,40018,2,0,L|200:112,1,156.750004783631,2|0,0:0|0:0,0:0:0:0:
272,112,40357,1,8,0:0:0:0:
128,112,40526,1,0,0:0:0:0:
368,304,40696,6,0,P|400:240|376:136,1,156.750004783631,2|0,0:0|0:0,0:0:0:0:
144,304,41035,2,0,P|112:240|136:136,1,156.750004783631,8|0,0:0|0:0,0:0:0:0:
352,112,41374,2,0,L|488:112,1,104.500003189087,2|0,0:0|0:0,0:0:0:0:
160,104,41628,2,0,L|24:104,1,104.500003189087,2|0,0:2|0:0,0:0:0:0:
299,112,41882,2,0,L|371:112,1,52.2500015945435,2|0,0:2|0:0,0:0:0:0:
112,176,42051,6,0,L|56:176,1,52.2500015945435,2|0,0:0|0:0,0:0:0:0:
144,176,42221,2,0,L|200:176,1,52.2500015945435
112,176,42390,2,0,L|56:176,1,52.2500015945435,2|0,0:0|0:0,0:0:0:0:
400,176,42560,6,0,L|456:176,1,52.2500015945435,2|0,0:0|0:0,0:0:0:0:
368,176,42730,2,0,L|312:176,1,52.2500015945435
400,176,42899,2,0,L|456:176,1,52.2500015945435,2|0,0:0|0:0,0:0:0:0:
176,240,43068,6,0,L|112:240,1,52.2500015945435
336,240,43238,2,0,L|400:240,1,52.2500015945435,2|0,0:0|0:0,0:0:0:0:
64,168,43407,5,0,0:0:0:0:
48,120,43492,1,0,0:0:0:0:
80,72,43577,1,2,0:0:0:0:
152,72,43662,1,0,0:0:0:0:
400,112,43746,6,0,L|336:112,1,52.2500015945435
120,192,43916,2,0,L|208:192,1,52.2500015945435,2|0,0:0|0:0,0:0:0:0:
488,264,44085,6,0,L|472:176,1,52.2500015945435,2|0,0:0|0:0,0:0:0:0:
285,224,44255,2,0,L|253:144,1,52.2500015945435,2|0,0:0|0:0,0:0:0:0:
75,132,44424,2,0,L|24:224,1,104.500003189087,2|0,0:0|0:0,0:0:0:0:
384,80,44763,6,0,L|488:112,1,95,2|2,0:0|0:2,0:0:0:0:
336,136,45102,2,0,L|440:168,1,95,8|2,0:0|0:2,0:0:0:0:
272,272,45441,1,2,0:0:0:0:
144,272,45611,1,2,0:2:0:0:
312,224,45780,1,8,0:0:0:0:
440,224,45950,1,2,0:2:0:0:
152,136,46119,6,0,L|256:168,1,95,2|2,0:0|0:2,0:0:0:0:
104,192,46458,2,0,L|208:224,1,95,8|2,0:0|0:2,0:0:0:0:
40,272,46797,1,2,0:0:0:0:
16,192,46967,1,2,0:2:0:0:
168,168,47136,2,0,P|96:144|56:144,1,95,8|2,0:0|0:2,0:0:0:0:
360,104,47475,6,0,L|256:104,1,95,2|2,0:0|0:2,0:0:0:0:
432,216,47814,1,8,0:0:0:0:
480,152,47984,1,2,0:2:0:0:
392,80,48153,1,2,0:0:0:0:
200,80,48323,2,0,P|248:88|272:144,2,95,2|8|2,0:2|0:0|0:2,0:0:0:0:
480,104,48831,6,0,L|360:104,1,95,2|2,0:0|0:2,0:0:0:0:
104,160,49170,2,0,L|224:160,1,95,8|2,0:0|0:2,0:0:0:0:
488,208,49509,1,2,0:0:0:0:
352,208,49679,1,0,0:0:0:0:
496,208,49848,2,0,L|480:312,1,95,10|0,0:0|0:0,0:0:0:0:
128,336,50187,6,0,P|48:296|104:216,1,190,2|8,0:0|0:0,0:0:0:0:
200,200,50696,1,2,0:2:0:0:
16,184,50865,2,0,L|32:80,1,95,2|2,0:0|0:2,0:0:0:0:
192,88,51204,2,0,L|208:192,1,95,8|2,0:0|0:2,0:0:0:0:
472,248,51543,6,0,L|368:256,1,95,2|2,0:0|0:2,0:0:0:0:
208,280,51882,2,0,L|312:288,1,95,8|2,0:0|0:2,0:0:0:0:
424,312,52221,1,2,0:0:0:0:
272,320,52390,1,2,0:2:0:0:
440,320,52560,1,8,0:0:0:0:
256,336,52729,1,2,0:2:0:0:
492,348,52899,6,0,L|460:236,1,95,2|2,0:0|0:2,0:0:0:0:
296,192,53238,2,0,L|192:192,1,95,8|2,0:0|0:2,0:0:0:0:
48,272,53577,2,0,L|21:363,1,95,2|2,0:0|0:2,0:0:0:0:
320,264,53916,1,8,0:0:0:0:
176,264,54085,1,0,0:0:0:0:
440,344,54255,6,0,P|464:272|368:200,1,190,4|2,0:0|2:0,2:0:0:0:
240,200,54763,1,0,2:0:0:0:
88,200,54933,2,2,L|24:128,3,95,2|2|4|0,2:0|2:0|1:0|1:0,2:0:0:0:
368,208,55611,6,0,P|424:152|432:56,1,142.5,2|0,0:0|0:0,0:0:0:0:
248,96,55950,2,0,L|128:96,1,95,2|2,0:0|0:2,0:0:0:0:
304,152,56289,2,0,L|352:152,2,47.5,2|0|2,0:0|0:0|0:2,0:0:0:0:
160,200,56628,1,2,0:0:0:0:
304,152,56797,1,2,0:2:0:0:
144,280,56967,6,0,L|24:200,1,142.500005435944,2|2,0:0|0:0,0:0:0:0:
188,204,57221,2,0,L|68:124,1,142.500005435944,2|2,0:0|0:0,0:0:0:0:
320,200,57475,2,0,L|400:148,1,71.2500027179719,2|0,0:0|0:0,0:0:0:0:
144,280,57645,2,0,L|48:280,1,71.2500027179719,2|0,0:0|0:0,0:0:0:0:
256,280,57814,1,0,0:0:0:0:
296,280,57857,1,0,0:0:0:0:
336,280,57899,1,0,0:0:0:0:
376,280,57941,1,0,0:0:0:0:
416,280,57984,2,0,L|488:280,2,71.2500027179719,2|0|0,0:0|0:0|0:0,0:0:0:0:
184,344,58323,6,0,L|304:344,1,95,6|2,0:0|0:2,0:0:0:0:
128,296,58662,2,0,L|248:296,1,95,2|2,0:0|0:2,0:0:0:0:
376,296,59001,2,0,L|432:296,1,47.5,2|0,0:0|0:0,0:0:0:0:
336,264,59170,2,0,L|280:264,1,47.5,2|0,0:2|0:0,0:0:0:0:
472,272,59340,2,0,P|488:224|464:184,1,95,0|2,0:0|0:2,0:0:0:0:
88,224,59679,6,2,L|104:144,1,59.375,2|2,0:0|0:2,0:2:0:0:
256,120,59848,2,2,L|272:200,1,59.375,2|2,0:2|0:2,0:2:0:0:
424,224,60018,2,2,L|440:144,1,59.375,2|2,0:2|0:2,0:2:0:0:
168,232,60187,2,2,L|24:232,1,118.75,2|2,0:0|0:2,0:2:0:0:
368,288,60526,2,0,L|464:288,1,59.375
128,320,60696,1,0,0:0:0:0:
94,323,60738,1,0,0:0:0:0:
65,305,60780,1,0,0:0:0:0:
53,273,60823,1,0,0:0:0:0:
63,240,60865,1,0,0:0:0:0:
91,221,60907,1,0,0:0:0:0:
125,223,60950,1,0,0:0:0:0:
304,208,61035,6,0,L|168:208,1,95,2|2,0:0|0:2,0:0:0:0:
400,208,61374,2,0,L|424:88,1,95,2|2,0:0|0:2,0:0:0:0:
77,114,61712,2,0,L|96:208,1,95,2|2,0:0|0:2,0:0:0:0:
256,216,62051,2,0,L|120:216,1,95,2|2,0:0|0:2,0:0:0:0:
400,288,62390,6,0,B|464:256|464:256|504:184,1,142.500005435944,2|0,0:0|0:0,0:0:0:0:
328,176,62645,2,0,L|200:288,1,142.500005435944,2|0,0:0|0:0,0:0:0:0:
56,176,62899,2,0,P|32:160|16:112,1,71.2500027179719,2|0,0:0|0:0,0:0:0:0:
176,48,63068,6,0,L|224:120,1,71.2500027179719,2|0,0:0|0:0,0:0:0:0:
400,104,63238,2,0,P|432:120|488:112,1,71.2500027179719,2|0,0:0|0:0,0:0:0:0:
200,160,63407,2,0,P|104:184|48:136,1,142.500005435944,2|0,0:0|0:0,0:0:0:0:
408,352,63746,6,0,L|448:24,1,285,2|0,0:2|0:0,0:0:0:0:
125,365,64424,5,0,0:0:0:0:
63,324,64508,1,0,0:0:0:0:
57,251,64593,1,0,0:0:0:0:
109,200,64678,1,0,0:0:0:0:
182,210,64764,1,0,0:0:0:0:
254,221,64848,1,0,0:0:0:0:
308,169,64933,1,0,0:0:0:0:
301,96,65018,1,0,0:0:0:0:
64,104,65102,5,2,0:0:0:0:
360,124,65441,2,0,P|422:174|414:286,2,190
294,126,66204,1,0,0:0:0:0:
196,144,66289,1,0,0:0:0:0:
280,158,66374,1,0,0:0:0:0:
486,206,66458,1,4,0:2:0:0:
128,344,75950,6,0,P|48:296|184:200,1,299.249990867615,2|0,0:0|2:0,0:0:0:0:
358,203,76628,2,0,P|471:137|400:48,1,256.499992172241,2|2,0:0|2:0,0:0:0:0:
376,56,77179,1,2,2:0:0:0:
328,56,77221,1,2,2:0:0:0:
120,56,77306,6,0,L|-8:56,1,95,2|0,1:0|0:0,0:0:0:0:
168,128,77645,2,0,L|296:128,1,95,2|0,1:0|0:0,0:0:0:0:
96,80,77984,2,0,L|-32:80,1,95,2|0,1:0|0:0,0:0:0:0:
144,152,78323,2,0,L|272:152,1,95,2|0,1:0|0:0,0:0:0:0:
472,224,78662,6,0,L|368:224,1,95,2|0,1:0|0:0,0:0:0:0:
248,224,79001,1,2,1:0:0:0:
448,208,79170,2,0,L|480:104,1,95,0|2,0:0|1:0,0:0:0:0:
352,136,79509,2,2,L|296:136,1,47.5
376,128,79679,2,0,P|400:80|408:24,1,95,2|0,1:0|1:0,0:0:0:0:
112,176,80018,6,0,L|224:176,2,95,2|0|2,1:0|0:0|1:0,0:0:0:0:
272,208,80526,2,0,L|160:208,2,95,0|2|0,0:0|1:0|0:0,0:0:0:0:
112,256,81035,1,2,1:0:0:0:
272,256,81204,1,0,0:0:0:0:
40,304,81374,6,2,L|16:224,1,47.5,2|2,1:0|0:0,0:0:0:0:
112,256,81543,2,2,L|88:336,1,47.5
184,304,81712,2,2,L|160:224,1,47.5,2|2,1:0|0:0,0:0:0:0:
80,256,81882,1,2,0:0:0:0:
256,272,82051,2,0,L|280:152,1,95,2|0,1:0|0:0,0:0:0:0:
88,160,82390,6,2,L|112:80,1,47.5,2|0,1:0|0:0,0:0:0:0:
272,112,82560,2,2,L|296:32,1,47.5,2|0,1:0|0:0,0:0:0:0:
48,88,82729,5,2,1:0:0:0:
168,104,82899,1,0,1:0:0:0:
32,104,83068,1,0,1:0:0:0:
184,88,83238,1,0,1:0:0:0:
464,88,83407,5,2,1:0:0:0:
312,120,83577,1,0,1:0:0:0:
480,104,83746,1,0,1:0:0:0:
296,104,83916,1,0,1:0:0:0:
40,288,84085,6,0,L|88:176,1,95,2|0,1:0|0:0,0:0:0:0:
224,176,84424,1,0,0:0:0:0:
472,288,84594,2,0,L|424:176,1,95,0|2,1:0|1:0,0:0:0:0:
264,224,84933,2,2,P|208:224|192:224,2,47.5,2|2|2,2:0|2:0|0:2,0:0:0:0:
120,224,85272,1,0,0:0:0:0:
368,168,85441,5,0,0:0:0:0:
408,168,85526,1,0,0:0:0:0:
360,168,85611,1,0,0:0:0:0:
280,168,85696,1,0,0:0:0:0:
32,144,85780,2,0,L|104:144,1,56.9999982604981
296,216,85950,2,0,L|216:216,1,56.9999982604981
48,328,86119,6,0,L|32:248,1,56.9999982604981
232,192,86289,2,0,L|216:272,1,56.9999982604981
24,352,86458,2,0,L|8:272,1,56.9999982604981
244,231,86628,2,0,L|256:176,1,56.9999982604981
424,324,86797,5,2,0:0:0:0:
444,304,86840,1,0,0:0:0:0:
460,276,86882,1,0,0:0:0:0:
468,252,86924,1,0,0:0:0:0:
472,232,86967,2,2,L|416:232,1,56.9999982604981,2|2,2:0|2:0,2:0:0:0:
216,256,87136,5,2,0:0:0:0:
184,248,87179,1,0,0:0:0:0:
160,232,87221,1,0,0:0:0:0:
148,208,87263,1,0,0:0:0:0:
144,188,87306,2,2,L|200:188,1,56.9999982604981,2|2,2:0|2:0,2:0:0:0:
376,192,87475,5,2,0:0:0:0:
428,184,87518,1,0,0:0:0:0:
460,168,87560,1,0,0:0:0:0:
476,144,87602,1,0,0:0:0:0:
484,124,87645,2,2,L|428:124,1,56.9999982604981,2|2,2:0|2:0,2:0:0:0:
120,208,87814,5,0,0:0:0:0:
84,208,87857,1,0,0:0:0:0:
56,208,87899,1,0,0:0:0:0:
44,208,87941,1,0,0:0:0:0:
56,208,87984,1,0,0:0:0:0:
84,208,88026,1,0,0:0:0:0:
120,208,88068,1,0,0:0:0:0:
176,208,88111,1,0,0:0:0:0:
391,253,88153,6,0,L|455:253,1,63.5074970104885,2|0,1:0|0:0,0:0:0:0:
223,257,88323,2,2,L|195:173,1,63.5074970104885
412,192,88492,6,2,L|384:276,1,63.5074970104885,0|2,1:0|0:0,0:0:0:0:
223,257,88662,2,0,L|159:257,1,63.5074970104885,2|2,0:0|0:0,0:0:0:0:
372,312,88831,6,0,L|436:312,1,63.5074970104885,2|0,1:0|0:0,0:0:0:0:
152,356,89001,1,2,0:0:0:0:
99,323,89085,1,2,0:0:0:0:
84,263,89170,5,0,1:0:0:0:
116,210,89255,1,0,0:0:0:0:
316,220,89340,2,2,L|379:220,1,63.5074970104885
124,168,89509,6,0,L|108:80,1,63.5074970104885,2|0,1:0|0:0,0:0:0:0:
200,128,89679,2,0,L|184:40,1,63.5074970104885,2|2,0:0|0:0,0:0:0:0:
20,88,89848,5,0,1:0:0:0:
64,88,89932,1,0,0:0:0:0:
220,132,90018,1,2,0:0:0:0:
264,132,90102,1,2,0:0:0:0:
428,168,90187,5,0,1:0:0:0:
488,148,90272,1,0,0:0:0:0:
468,88,90357,1,2,0:0:0:0:
400,88,90441,1,2,0:0:0:0:
168,200,90526,6,0,L|132:116,1,63.5074970104885,0|0,1:0|0:0,0:0:0:0:
344,200,90696,2,2,L|370:141,1,63.5074970104885
56,232,90865,5,2,1:0:0:0:
76,248,90950,1,0,0:0:0:0:
160,232,91035,1,2,0:0:0:0:
180,216,91120,1,2,0:0:0:0:
28,268,91204,5,0,1:0:0:0:
48,284,91289,1,0,0:0:0:0:
132,268,91374,1,2,0:0:0:0:
152,252,91459,1,2,0:0:0:0:
344,212,91543,5,2,1:0:0:0:
403,225,91627,1,0,0:0:0:0:
428,280,91712,1,2,0:0:0:0:
399,334,91797,1,2,0:0:0:0:
168,308,91882,2,0,L|68:304,1,63.5074970104885,0|0,1:0|0:0,0:0:0:0:
312,164,92051,6,0,L|400:176,1,63.5074970104885,2|0,0:1|0:0,0:0:0:0:
472,180,92221,2,0,L|384:192,1,63.5074970104885,0|0,1:0|0:0,0:0:0:0:
304,192,92390,6,0,L|392:204,1,63.5074970104885,2|2,0:1|0:0,0:0:0:0:
464,208,92560,2,0,L|376:220,1,63.5074970104885,0|0,1:0|0:0,0:0:0:0:
296,220,92729,6,0,L|384:232,1,63.5074970104885,2|2,0:1|0:0,0:0:0:0:
456,236,92899,2,0,L|368:248,1,63.5074970104885,0|0,1:0|0:0,0:0:0:0:
118,244,93068,6,0,L|56:236,1,63.5074970104885,2|2,0:0|0:0,0:0:0:0:
232,292,93238,1,2,1:0:0:0:
292,285,93322,1,0,0:0:0:0:
315,229,93407,1,2,0:0:0:0:
278,181,93492,1,2,0:0:0:0:
88,120,93577,6,0,L|52:172,1,63.5074970104885,4|0,1:2|0:0,0:0:0:0:
88,120,93746,1,2,0:0:0:0:
160,104,93831,1,2,0:0:0:0:
392,136,93916,6,0,L|344:56,1,63.5074970104885,2|0,1:0|0:0,0:0:0:0:
152,81,94085,2,0,L|120:136,1,63.5074970104885,2|0,0:0|0:0,0:0:0:0:
372,288,94255,5,2,1:0:0:0:
406,238,94339,1,0,0:0:0:0:
376,185,94424,1,2,0:0:0:0:
316,188,94509,1,2,0:0:0:0:
156,212,94594,6,0,L|80:212,1,63.5074970104885,2|0,1:0|0:0,0:0:0:0:
356,212,94763,2,0,L|432:212,1,63.5074970104885,2|2,0:0|0:0,0:0:0:0:
56,120,94933,6,0,L|12:176,1,63.5074970104885,4|0,1:2|0:0,0:0:0:0:
56,120,95102,1,2,0:0:0:0:
128,120,95187,1,2,0:0:0:0:
288,128,95272,6,0,L|352:128,1,63.5074970104885,2|0,1:0|0:0,0:0:0:0:
119,120,95441,2,0,L|55:120,1,63.5074970104885,2|2,0:0|0:0,0:0:0:0:
296,200,95611,6,0,L|392:200,1,63.5074970104885,2|0,1:0|0:0,0:0:0:0:
432,200,95780,2,0,L|495:200,1,63.5074970104885,2|2,0:0|0:0,0:0:0:0:
220,200,95950,5,2,1:0:0:0:
157,197,96034,1,0,0:0:0:0:
110,156,96119,1,0,0:0:0:0:
96,95,96204,1,0,0:0:0:0:
400,80,96289,6,0,L|416:164,1,63.5074970104885,4|0,1:2|0:0,0:0:0:0:
232,104,96458,2,0,L|216:188,1,63.5074970104885,0|0,1:0|0:0,0:0:0:0:
52,172,96628,6,0,L|36:256,1,63.5074970104885,2|0,1:0|0:0,0:0:0:0:
256,240,96797,2,0,L|240:324,1,63.5074970104885,0|0,1:0|0:0,0:0:0:0:
56,272,96967,6,0,L|72:356,1,63.5074970104885,4|0,1:2|0:0,0:0:0:0:
364,292,97136,2,0,L|375:229,1,63.5074970104885,0|0,1:0|0:0,0:0:0:0:
176,232,97306,6,0,L|164:169,1,63.5074970104885,2|0,1:0|0:0,0:0:0:0:
428,96,97475,2,0,L|416:158,1,63.5074970104885,0|0,1:0|0:0,0:0:0:0:
116,132,97645,5,4,1:2:0:0:
44,120,97729,1,0,1:0:0:0:
104,96,97814,1,0,1:0:0:0:
192,96,97899,1,0,1:0:0:0:
388,136,97984,6,0,L|464:136,1,63.5074970104885,4|0,1:2|1:0,1:0:0:0:
124,136,98153,2,0,L|48:136,1,63.5074970104885,4|0,1:2|1:0,1:0:0:0:
348,204,98323,5,4,1:2:0:0:
280,204,98407,1,0,1:0:0:0:
212,204,98492,1,0,1:0:0:0:
148,204,98577,1,0,1:0:0:0:
376,248,98662,2,0,L|464:248,1,63.5074970104885,4|0,1:2|1:0,1:0:0:0:
136,356,98831,5,0,1:0:0:0:
100,359,98874,1,0,1:0:0:0:
67,344,98916,1,0,1:0:0:0:
45,316,98959,1,0,1:0:0:0:
40,300,99001,6,0,L|108:296,1,63.5074970104885,4|0,1:2|0:0,0:0:0:0:
327,291,99170,2,0,L|264:288,1,63.5074970104885,2|2,0:0|0:0,0:0:0:0:
184,291,99340,2,0,L|248:288,1,63.5074970104885,0|0,1:0|0:0,0:0:0:0:
472,300,99509,2,0,L|408:296,1,63.5074970104885,2|2,0:2|0:0,0:0:0:0:
28,283,99679,6,0,L|92:280,1,63.5074970104885,2|0,1:0|0:0,0:0:0:0:
327,291,99848,2,0,L|264:288,1,63.5074970104885,2|2,0:0|0:0,0:0:0:0:
184,291,100018,2,0,L|248:288,1,63.5074970104885,0|0,1:0|0:0,0:0:0:0:
483,283,100187,2,0,L|420:280,1,63.5074970104885,2|0,0:2|0:0,0:0:0:0:
84,264,100357,6,0,L|20:267,1,63.5074970104885,2|0,1:0|0:0,0:0:0:0:
264,288,100526,2,0,L|327:291,1,63.5074970104885,2|2,0:0|0:0,0:0:0:0:
248,288,100696,2,0,L|184:291,1,63.5074970104885,0|0,1:0|0:0,0:0:0:0:
428,264,100865,2,0,L|491:267,1,63.5074970104885,2|0,0:2|0:0,0:0:0:0:
68,248,101035,6,0,L|4:251,1,63.5074970104885,2|0,1:0|0:0,0:0:0:0:
264,288,101204,2,0,L|327:291,1,63.5074970104885,2|2,0:0|0:0,0:0:0:0:
248,288,101374,2,0,L|184:291,1,63.5074970104885,0|0,1:0|0:0,0:0:0:0:
444,248,101543,2,0,L|507:251,1,63.5074970104885,2|0,0:2|0:0,0:0:0:0:
144,328,101712,5,2,1:0:0:0:
96,360,101796,1,0,0:0:0:0:
144,328,101881,1,2,0:0:0:0:
216,328,101966,1,2,0:0:0:0:
444,248,102051,5,0,1:0:0:0:
492,280,102135,1,0,0:0:0:0:
444,248,102220,1,2,0:0:0:0:
372,248,102305,1,2,0:0:0:0:
152,192,102390,6,0,L|88:192,1,63.5074970104885,2|0,1:0|0:0,0:0:0:0:
160,176,102560,2,2,L|96:176,1,63.5074970104885
364,172,102729,5,0,1:0:0:0:
440,172,102814,1,2,0:0:0:0:
448,148,102857,1,2,0:0:0:0:
460,116,102899,2,0,L|388:116,1,63.5074970104885,2|0,0:1|0:0,0:0:0:0:
96,132,103068,6,0,L|176:132,1,63.5074970104885,4|0,1:2|0:0,0:0:0:0:
336,136,103238,1,2,0:1:0:0:
388,136,103323,1,2,0:1:0:0:
408,200,103407,2,0,L|332:200,1,63.5074970104885,2|0,1:0|0:0,0:0:0:0:
440,200,103577,1,2,0:0:0:0:
496,200,103662,1,2,0:0:0:0:
148,320,103746,5,2,1:0:0:0:
90,305,103830,1,0,0:0:0:0:
89,246,103915,1,2,0:0:0:0:
145,229,104000,1,2,0:0:0:0:
340,316,104085,5,4,1:2:0:0:
412,316,104170,1,0,0:0:0:0:
172,316,104255,1,2,0:0:0:0:
100,316,104340,1,2,0:0:0:0:
444,160,104424,6,0,L|280:160,2,127.014994020977,4|0|0,0:2|2:0|0:0,0:0:0:0:
148,160,104933,2,0,P|76:104|156:32,1,190.522491031465,0|0,0:0|2:0,0:0:0:0:
216,32,105272,1,0,0:0:0:0:
32,32,105441,1,0,0:0:0:0:
364,160,105611,6,0,P|436:104|356:32,1,190.522491031465,4|0,0:2|2:0,0:0:0:0:
148,160,105950,2,0,P|76:104|156:32,1,190.522491031465,4|0,0:2|2:0,0:0:0:0:
288,48,106289,2,0,L|224:48,1,63.5074970104885,4|0,0:2|2:0,0:0:0:0:
412,204,106458,6,0,P|468:144|464:104,1,127.014994020977,4|0,0:2|0:0,0:0:0:0:
424,80,106712,1,0,0:0:0:0:
272,88,106797,2,0,L|200:32,1,63.5074970104885,4|0,0:2|0:0,0:0:0:0:
72,48,106967,2,0,L|0:48,1,63.5074970104885
396,252,107136,6,0,L|472:256,1,63.5074970104885,4|0,0:2|0:0,0:0:0:0:
152,260,107306,2,0,L|120:172,1,63.5074970104885
368,184,107475,2,0,L|344:120,1,63.5074970104885
56,136,107645,2,0,L|124:136,1,63.5074970104885
344,192,107814,5,4,0:2:0:0:
392,152,107899,1,0,0:0:0:0:
88,76,107984,1,0,0:0:0:0:
40,76,108068,1,0,0:0:0:0:
480,76,108153,1,0,0:0:0:0:
432,76,108238,1,0,0:0:0:0:
180,208,108323,1,0,0:0:0:0:
142,201,108365,1,0,0:0:0:0:
123,168,108407,1,0,0:0:0:0:
138,132,108450,1,0,0:0:0:0:
175,123,108492,6,0,L|264:136,1,63.5074970104885,4|0,0:2|0:0,0:0:0:0:
336,120,108662,2,0,L|247:133,1,63.5074970104885,0|0,0:2|0:0,0:0:0:0:
164,112,108831,6,0,L|253:125,1,63.5074970104885,4|0,0:2|0:0,0:0:0:0:
348,112,109001,2,0,L|259:125,1,63.5074970104885,0|0,0:2|0:0,0:0:0:0:
44,312,109170,5,4,0:2:0:0:
42,248,109226,1,0,0:0:0:0:
60,188,109282,5,0,0:0:0:0:
95,135,109339,1,0,0:0:0:0:
143,95,109395,5,0,0:0:0:0:
201,70,109452,1,0,0:0:0:0:
467,269,109508,5,4,0:2:0:0:
455,207,109565,1,0,0:0:0:0:
426,151,109621,5,0,0:0:0:0:
381,106,109678,1,0,0:0:0:0:
326,76,109734,5,0,0:0:0:0:
264,64,109791,1,0,0:2:0:0:
44,312,109847,5,4,0:2:0:0:
256,192,109933,12,0,114594,0:0:0:0:
