osu file format v14

[General]
AudioFilename: winteralice.mp3
AudioLeadIn: 2000
PreviewTime: -1
Countdown: 0
SampleSet: Soft
StackLeniency: 0.7
Mode: 0
LetterboxInBreaks: 1
WidescreenStoryboard: 0

[Editor]
Bookmarks: 488,2477,17048,31621,46194,60767,77161,91734,106080,120653,137048,151113,151621,166194,180767,195112,209685,224258,238831,253404,267977,282550,296668
DistanceSpacing: 2
BeatDivisor: 4
GridSize: 4
TimelineZoom: 2

[Metadata]
Title:Winter Alice
TitleUnicode:Winter Alice
Artist:doriko
ArtistUnicode:doriko
Creator:rui
Version:Alice
Source:
Tags:
BeatmapID:849219
BeatmapSetID:389480

[Difficulty]
HPDrainRate:6
CircleSize:3.8
OverallDifficulty:7
ApproachRate:8
SliderMultiplier:1.6
SliderTickRate:1

[Events]
//Background and Video events
0,0,"miku.jpg",0,0
//Break Periods
2,106313,118090
//Storyboard Layer 0 (Background)
//Storyboard Layer 1 (Fail)
//Storyboard Layer 2 (Pass)
//Storyboard Layer 3 (Foreground)
//Storyboard Sound Samples

[TimingPoints]
1568,454.545454545455,4,2,0,40,1,0
2477,454.545454545455,4,2,0,40,1,0
2477,-133.333333333333,4,2,0,40,0,0
17022,-100,4,2,0,40,0,0
31567,-133.333333333333,4,2,0,40,0,0
46113,-100,4,2,0,40,0,0
60658,-100,4,2,0,40,0,0
77022,-100,4,2,0,40,0,0
106113,-100,4,2,0,40,0,0
149067,-83.3333333333333,4,2,0,40,0,0
149977,-100,4,2,0,40,0,0
178158,-83.3333333333333,4,2,0,40,0,0
180658,-100,4,2,0,40,0,0
194295,-200,4,2,0,40,0,0
195204,-166.666666666667,4,2,0,40,0,0
207249,-100,4,2,0,40,0,0
235204,-90.9090909090909,4,2,0,40,0,0

[Colours]
Combo1 : 255,205,181
Combo2 : 121,255,255
Combo3 : 255,255,155
Combo4 : 134,194,255

[HitObjects]
476,124,1568,5,0,0:0:0:0:
324,240,1908,1,0,0:0:0:0:
152,156,2249,1,0,0:0:0:0:
116,244,2477,6,0,P|217:219|228:100,1,240.000009155274
396,40,4067,1,0,0:0:0:0:
463,109,4295,2,0,B|480:124|492:144|492:144|499:122|512:96,2,90.0000034332277
404,88,5204,5,0,0:0:0:0:
320,136,5431,1,0,0:0:0:0:
228,112,5658,1,0,0:0:0:0:
144,160,5885,1,0,0:0:0:0:
32,112,6113,5,0,0:0:0:0:
256,24,6567,1,0,0:0:0:0:
468,140,7022,1,0,0:0:0:0:
476,168,7136,1,0,0:0:0:0:
476,196,7249,1,0,0:0:0:0:
464,224,7363,1,0,0:0:0:0:
448,248,7477,1,0,0:0:0:0:
424,264,7590,1,0,0:0:0:0:
396,272,7704,1,0,0:0:0:0:
368,276,7817,1,0,0:0:0:0:
340,272,7931,6,0,P|296:268|252:256,1,90.0000034332277
220,184,8386,2,0,L|260:176,1,30.0000011444092
172,248,8613,2,0,P|136:192|168:120,1,150.000005722046
240,80,9295,1,0,0:0:0:0:
240,80,9749,5,0,0:0:0:0:
284,256,10090,1,0,0:0:0:0:
128,348,10431,1,0,0:0:0:0:
24,288,10658,5,0,0:0:0:0:
196,228,10999,1,0,0:0:0:0:
368,284,11340,1,0,0:0:0:0:
456,164,11567,5,0,0:0:0:0:
456,164,12477,2,0,L|332:180,1,120.000004577637
188,60,13386,5,0,0:0:0:0:
252,160,13613,2,0,L|268:132,2,20.0000007629395
232,196,13840,1,0,0:0:0:0:
188,280,14067,1,0,0:0:0:0:
208,376,14295,1,0,0:0:0:0:
280,312,14522,1,0,0:0:0:0:
420,256,14749,1,0,0:0:0:0:
356,328,14976,1,0,0:0:0:0:
188,280,15204,6,0,L|224:264,1,30.0000011444092
324,180,15431,2,0,L|348:160,2,30.0000011444092
256,332,15886,5,0,0:0:0:0:
284,112,16113,2,0,L|300:72,1,30.0000011444092
152,188,16340,2,0,L|136:228,1,30.0000011444092
68,60,16567,1,0,0:0:0:0:
8,164,16795,5,0,0:0:0:0:
8,164,16908,1,0,0:0:0:0:
8,164,17022,2,0,P|4:212|12:248,1,80
85,326,17477,2,0,L|202:313,1,80
174,270,17817,2,0,L|291:283,1,80
291,308,18158,1,0,0:0:0:0:
413,269,18386,1,0,0:0:0:0:
450,298,18499,2,0,L|456:219,1,80
461,77,18840,5,0,0:0:0:0:
482,120,18954,2,0,P|442:102|372:102,1,80
369,128,19295,2,0,P|345:88|267:58,1,120
234,71,19749,1,0,0:0:0:0:
222,100,19863,1,0,0:0:0:0:
220,132,19977,1,0,0:0:0:0:
297,189,20204,1,0,0:0:0:0:
309,218,20318,1,0,0:0:0:0:
311,250,20432,1,0,0:0:0:0:
304,281,20545,1,0,0:0:0:0:
284,306,20658,6,0,L|192:315,1,80
104,365,21113,2,0,P|92:326|94:285,1,80
122,248,21454,1,0,0:0:0:0:
146,207,21567,2,0,L|141:165,2,40
235,94,22022,1,0,0:0:0:0:
244,85,22136,2,0,L|235:183,1,80
225,252,22477,6,0,P|266:252|330:293,1,120
359,373,22931,1,0,0:0:0:0:
461,200,23158,1,0,0:0:0:0:
461,200,23272,2,0,P|421:204|384:223,1,80
445,284,23613,1,0,0:0:0:0:
481,118,23840,1,0,0:0:0:0:
317,41,24067,5,0,0:0:0:0:
317,41,24181,1,0,0:0:0:0:
317,41,24295,2,0,P|301:82|303:120,1,80
357,294,24749,2,0,P|357:254|342:217,1,80
299,195,25090,2,0,L|211:191,1,80
180,162,25431,1,0,0:0:0:0:
66,218,25658,1,0,0:0:0:0:
33,182,25772,2,0,P|21:219|19:266,1,80
111,335,26113,6,0,L|116:374,2,40
180,162,26567,2,0,P|165:202|166:242,1,80
185,282,26908,1,0,0:0:0:0:
213,321,27022,2,0,L|281:316,2,40
337,215,27477,1,0,0:0:0:0:
347,230,27590,2,0,L|268:221,1,80
180,162,27931,6,0,B|210:122|244:117|244:117|245:80|277:46,1,160
425,139,28613,1,0,0:0:0:0:
425,139,28727,2,0,P|385:122|345:120,1,80
368,202,29067,1,0,0:0:0:0:
452,60,29295,1,0,0:0:0:0:
452,60,29408,2,0,P|486:84|508:133,1,80
487,197,29749,6,0,L|482:280,1,80
363,122,30204,2,0,L|368:205,1,80
348,245,30545,1,0,0:0:0:0:
321,284,30658,2,0,L|328:329,1,40
249,204,30886,2,0,L|256:159,1,40
218,307,31113,2,0,L|225:352,1,40
146,227,31341,2,0,L|153:182,1,40
115,326,31567,5,0,0:0:0:0:
160,172,33386,5,0,0:0:0:0:
272,288,34238,2,0,L|292:280,1,15.0000005722046
160,172,35204,5,0,0:0:0:0:
320,72,37249,6,0,L|332:48,2,20.0000007629395
304,100,37477,2,0,P|308:129|316:160,1,60.0000022888184
288,252,37931,1,0,0:0:0:0:
194,281,38158,1,0,0:0:0:0:
137,203,38386,1,0,0:0:0:0:
194,124,38613,1,0,0:0:0:0:
52,160,38840,5,0,0:0:0:0:
432,248,40431,6,0,L|444:276,2,20.0000007629395
416,220,40658,1,0,0:0:0:0:
324,94,40885,1,0,0:0:0:0:
267,171,41112,1,0,0:0:0:0:
415,123,41340,1,0,0:0:0:0:
324,249,41567,1,0,0:0:0:0:
352,172,42477,5,0,0:0:0:0:
240,288,43386,2,0,L|220:280,1,15.0000005722046
144,48,43992,6,0,L|104:64,1,40.000001525879
212,104,44295,6,0,L|206:143,2,40.000001525879
300,88,44749,6,0,L|331:112,2,40.000001525879
348,12,45204,5,0,0:0:0:0:
380,38,45317,1,0,0:0:0:0:
403,73,45431,1,0,0:0:0:0:
415,113,45544,1,0,0:0:0:0:
414,155,45658,1,0,0:0:0:0:
376,332,45886,5,0,0:0:0:0:
376,332,46000,1,0,0:0:0:0:
376,332,46113,2,0,P|343:298|264:289,1,120
230,316,46567,1,0,0:0:0:0:
129,191,46795,2,0,P|162:157|241:148,1,120
275,175,47249,1,0,0:0:0:0:
230,316,47477,1,0,0:0:0:0:
37,247,47704,1,0,0:0:0:0:
129,191,47931,6,0,P|139:229|140:269,1,80
35,141,48386,2,0,P|63:106|136:84,1,120
181,101,48840,1,0,0:0:0:0:
230,316,49067,1,0,0:0:0:0:
294,234,49295,2,0,P|259:215|216:213,1,80
172,231,49636,1,0,0:0:0:0:
140,269,49749,6,0,L|136:355,1,80
294,234,50204,2,0,L|290:154,1,80
230,316,50658,1,0,0:0:0:0:
397,215,50886,1,0,0:0:0:0:
194,141,51113,2,0,L|190:220,1,80
325,330,51567,5,0,0:0:0:0:
328,137,51795,2,0,L|323:108,2,26.6666666666667
338,169,52022,2,0,P|381:176|421:177,1,80
242,51,52477,2,0,P|199:44|159:43,1,80
255,278,52931,1,0,0:0:0:0:
328,137,53158,5,0,0:0:0:0:
328,137,53272,1,0,0:0:0:0:
328,137,53386,2,0,P|279:133|222:171,1,120
199,217,53840,1,0,0:0:0:0:
126,142,54067,2,0,P|119:98|119:60,1,80
300,228,54522,2,0,P|299:267|292:307,1,80
52,252,54977,2,0,P|83:214|150:201,1,120
199,217,55431,5,0,0:0:0:0:
145,315,55658,1,0,0:0:0:0:
11,168,55886,1,0,0:0:0:0:
205,137,56113,2,0,L|199:217,1,80
127,72,56567,5,0,0:0:0:0:
154,48,56681,1,0,0:0:0:0:
188,36,56795,1,0,0:0:0:0:
223,37,56908,1,0,0:0:0:0:
256,49,57022,2,0,P|312:75|384:60,1,120
408,34,57477,1,0,0:0:0:0:
484,175,57704,2,0,P|428:201|356:186,1,120
332,160,58159,1,0,0:0:0:0:
408,34,58386,1,0,0:0:0:0:
484,175,58613,5,0,0:0:0:0:
490,198,58727,1,0,0:0:0:0:
492,221,58840,2,0,P|492:268|484:306,1,80
452,340,59181,1,0,0:0:0:0:
402,355,59295,2,0,L|315:348,1,80
256,164,59749,1,0,0:0:0:0:
353,265,59977,6,0,L|313:262,1,40
159,265,60204,2,0,L|198:262,1,40
189,348,60431,1,0,0:0:0:0:
149,351,60544,1,0,0:0:0:0:
108,356,60658,6,0,L|24:368,1,80
72,208,61113,2,0,P|100:184|144:164,1,80
176,156,61454,1,0,0:0:0:0:
216,164,61567,1,0,0:0:0:0:
252,184,61681,1,0,0:0:0:0:
280,212,61795,1,0,0:0:0:0:
436,212,62022,1,0,0:0:0:0:
436,212,62136,2,0,P|456:176|464:128,1,80
477,52,62477,6,0,L|512:72,2,40
348,140,62931,2,0,P|308:156|264:164,1,80
228,116,63272,1,0,0:0:0:0:
188,128,63386,1,0,0:0:0:0:
148,136,63499,1,0,0:0:0:0:
108,140,63613,1,0,0:0:0:0:
32,260,63840,1,0,0:0:0:0:
32,260,63954,2,0,P|69:274|102:296,1,80
148,224,64295,6,0,P|173:254|192:289,1,80
368,312,64749,2,0,P|376:268|388:228,1,80
456,196,65090,1,0,0:0:0:0:
442,160,65204,1,0,0:0:0:0:
434,121,65317,1,0,0:0:0:0:
425,85,65431,5,0,0:0:0:0:
316,212,65658,2,0,L|312:172,1,40
328,80,65886,1,0,0:0:0:0:
236,240,66113,6,0,L|240:200,1,40
320,48,66340,2,0,L|344:32,2,26.6666666666667
294,70,66567,2,0,P|254:66|210:54,1,80
176,44,66908,1,0,0:0:0:0:
136,32,67022,1,0,0:0:0:0:
96,36,67136,1,0,0:0:0:0:
60,52,67249,1,0,0:0:0:0:
60,224,67477,1,0,0:0:0:0:
100,236,67591,1,0,0:0:0:0:
140,232,67705,1,0,0:0:0:0:
176,216,67818,1,0,0:0:0:0:
212,184,67931,6,0,P|231:237|244:312,1,120
176,262,68386,2,0,P|235:252|292:232,1,120
336,212,68840,1,0,0:0:0:0:
412,44,69067,5,0,0:0:0:0:
291,232,69295,1,0,0:0:0:0:
291,232,69749,6,0,P|305:177|338:108,1,120
364,187,70204,2,0,P|309:162|251:146,1,120
204,136,70658,1,0,0:0:0:0:
46,231,70885,5,0,0:0:0:0:
331,119,71113,1,0,0:0:0:0:
331,119,71454,5,0,0:0:0:0:
331,119,71567,2,0,P|324:160|320:200,1,80
234,159,71908,1,0,0:0:0:0:
234,159,72022,2,0,P|230:119|224:80,1,80
132,36,72363,2,0,L|138:75,1,40
48,136,72590,2,0,L|54:96,1,40
128,260,72931,2,0,P|132:220|138:180,1,80
204,8,73386,5,0,0:0:0:0:
376,48,73613,2,0,L|408:28,2,26.6666666666667
340,52,73840,2,0,P|320:84|304:124,1,80
292,208,74181,2,0,L|332:200,1,40
444,324,74522,2,0,L|480:316,2,26.6666666666667
396,308,74749,1,0,0:0:0:0:
356,316,74863,1,0,0:0:0:0:
320,336,74977,1,0,0:0:0:0:
280,344,75090,1,0,0:0:0:0:
244,328,75204,5,0,0:0:0:0:
64,288,75431,2,0,L|20:304,2,40
263,207,75886,1,0,0:0:0:0:
128,52,76113,2,0,P|167:55|207:62,1,80
292,104,76454,1,0,0:0:0:0:
292,104,76567,2,0,P|331:107|371:114,1,80
164,154,77022,5,0,0:0:0:0:
298,14,77249,1,0,0:0:0:0:
343,204,77477,2,0,L|261:208,1,80
194,247,77817,1,0,0:0:0:0:
194,247,77931,2,0,L|186:292,1,40
164,154,78158,5,0,0:0:0:0:
359,97,78386,1,0,0:0:0:0:
370,104,78499,2,0,L|288:108,1,80
213,83,78840,6,0,P|172:69|129:76,1,80
298,14,79295,1,0,0:0:0:0:
164,154,79522,1,0,0:0:0:0:
179,181,79636,1,0,0:0:0:0:
204,199,79749,1,0,0:0:0:0:
233,211,79863,1,0,0:0:0:0:
264,216,79977,1,0,0:0:0:0:
408,118,80204,1,0,0:0:0:0:
395,108,80317,2,0,P|372:147|370:212,1,80
400,264,80658,5,0,0:0:0:0:
256,117,80886,1,0,0:0:0:0:
465,195,81113,2,0,P|490:237|481:313,1,120
405,359,81567,1,0,0:0:0:0:
365,367,81681,1,0,0:0:0:0:
324,365,81795,1,0,0:0:0:0:
287,350,81908,1,0,0:0:0:0:
256,323,82022,1,0,0:0:0:0:
225,296,82136,1,0,0:0:0:0:
188,281,82249,1,0,0:0:0:0:
147,279,82363,1,0,0:0:0:0:
107,287,82477,6,0,P|96:227|92:160,1,120
116,86,82931,1,0,0:0:0:0:
194,191,83158,2,0,P|217:202|243:211,1,40
315,232,83386,2,0,P|267:173|194:192,1,160
287,350,84067,1,0,0:0:0:0:
484,305,84295,6,0,P|492:247|465:195,1,120
401,60,84749,2,0,L|394:140,1,80
315,232,85090,2,0,L|307:152,1,80
255,85,85431,1,0,0:0:0:0:
80,241,85658,1,0,0:0:0:0:
99,266,85772,2,0,P|147:261|202:222,1,80
222,168,86113,6,0,L|234:314,1,120
191,359,86567,1,0,0:0:0:0:
315,232,86795,1,0,0:0:0:0:
315,232,86908,1,0,0:0:0:0:
123,177,87136,1,0,0:0:0:0:
123,177,87249,1,0,0:0:0:0:
321,129,87477,1,0,0:0:0:0:
204,273,87704,2,0,L|209:228,1,40
230,47,87931,6,0,P|259:17|297:5,1,80
377,16,88234,2,0,P|392:11|410:9,2,26.6666666666667
232,133,88613,1,0,0:0:0:0:
413,169,88840,1,0,0:0:0:0:
422,134,88953,1,0,0:0:0:0:
417,98,89067,1,0,0:0:0:0:
315,232,89295,1,0,0:0:0:0:
303,270,89408,1,0,0:0:0:0:
134,50,89636,1,0,0:0:0:0:
146,88,89749,2,0,P|185:86|229:67,1,80
282,11,90090,5,0,0:0:0:0:
255,51,90204,1,0,0:0:0:0:
241,92,90317,1,0,0:0:0:0:
240,128,90431,1,0,0:0:0:0:
251,157,90545,1,0,0:0:0:0:
269,177,90658,6,0,L|348:182,1,80
204,252,90999,2,0,L|125:257,1,80
293,309,91340,2,0,L|301:270,1,40
424,208,91567,6,0,P|417:169|404:124,1,80
303,143,92022,2,0,P|272:117|245:89,1,80
180,40,92363,1,0,0:0:0:0:
168,76,92477,1,0,0:0:0:0:
168,116,92590,1,0,0:0:0:0:
184,152,92704,1,0,0:0:0:0:
284,276,92931,1,0,0:0:0:0:
307,244,93044,1,0,0:0:0:0:
326,208,93158,1,0,0:0:0:0:
373,65,93386,6,0,P|334:72|296:84,1,80
144,120,93727,1,0,0:0:0:0:
144,120,93840,2,0,P|183:127|221:138,1,80
326,208,94181,1,0,0:0:0:0:
440,152,94408,2,0,L|456:200,1,40
341,315,94749,2,0,L|360:280,1,40
144,256,95090,1,0,0:0:0:0:
137,268,95204,6,0,P|176:280|216:280,1,80
292,208,95658,2,0,P|327:189|365:143,1,80
380,68,95999,1,0,0:0:0:0:
380,68,96113,2,0,L|368:28,2,40
284,96,96454,1,0,0:0:0:0:
264,108,96567,1,0,0:0:0:0:
240,132,96681,1,0,0:0:0:0:
216,164,96795,1,0,0:0:0:0:
204,212,96908,1,0,0:0:0:0:
208,260,97022,5,0,0:0:0:0:
228,304,97136,1,0,0:0:0:0:
264,336,97249,1,0,0:0:0:0:
336,228,97477,1,0,0:0:0:0:
248,84,97704,1,0,0:0:0:0:
248,84,97817,1,0,0:0:0:0:
392,168,98045,1,0,0:0:0:0:
392,168,98158,1,0,0:0:0:0:
204,212,98386,1,0,0:0:0:0:
204,212,98500,2,0,P|165:200|129:182,1,80
64,116,98840,6,0,P|96:96|144:92,1,80
328,28,99295,2,0,P|296:48|248:52,1,80
212,124,99636,1,0,0:0:0:0:
212,124,99749,2,0,B|212:163|199:195|199:195|212:248,1,120
280,284,100204,2,0,L|265:321,1,40
88,145,100658,5,0,0:0:0:0:
100,173,100772,1,0,0:0:0:0:
112,205,100886,1,0,0:0:0:0:
204,292,101113,2,0,P|224:260|240:208,1,80
300,164,101454,2,0,L|320:212,1,40
384,240,101681,2,0,L|372:280,1,40
124,328,102022,1,0,0:0:0:0:
116,336,102136,2,0,P|121:295|129:251,1,80
148,176,102477,5,0,0:0:0:0:
28,60,102704,2,0,L|-8:68,2,26.6666666666667
60,76,102931,2,0,P|100:84|152:100,1,80
216,128,103272,2,0,L|264:116,1,40
392,164,103499,2,0,L|354:174,1,40
252,224,103840,1,0,0:0:0:0:
204,234,103954,1,0,0:0:0:0:
156,248,104067,1,0,0:0:0:0:
112,267,104181,1,0,0:0:0:0:
73,295,104295,6,0,P|113:299|161:307,1,80
185,331,104598,2,0,L|221:315,2,26.6666666666667
1,231,104977,1,0,0:0:0:0:
53,375,105204,1,0,0:0:0:0:
144,132,105431,6,0,L|169:85,1,40
231,218,105658,2,0,L|256:173,1,40
312,305,105886,2,0,L|337:259,1,40
451,55,106113,5,0,0:0:0:0:
144,149,118840,6,0,P|209:146|286:136,1,120
301,108,119295,1,0,0:0:0:0:
200,265,119522,1,0,0:0:0:0:
200,265,119636,1,0,0:0:0:0:
200,265,119749,2,0,P|193:287|190:309,1,40
295,255,119977,2,0,P|291:235|285:216,1,40
258,341,120204,1,0,0:0:0:0:
296,350,120317,1,0,0:0:0:0:
335,343,120431,1,0,0:0:0:0:
368,320,120545,1,0,0:0:0:0:
390,286,120658,6,0,L|402:195,1,80
321,67,121113,2,0,L|310:146,1,80
284,177,121454,2,0,P|242:184|207:197,1,80
181,228,121795,1,0,0:0:0:0:
45,144,122022,1,0,0:0:0:0:
72,114,122136,2,0,L|65:193,1,80
17,257,122477,6,0,P|25:299|28:340,1,80
181,228,122931,2,0,P|173:186|170:145,1,80
198,120,123272,2,0,L|283:109,1,80
307,83,123613,1,0,0:0:0:0:
456,187,123841,1,0,0:0:0:0:
424,162,123954,2,0,P|417:126|419:77,1,80
463,12,124295,6,0,P|421:37|350:31,1,120
316,3,124749,2,0,L|307:83,1,80
275,107,125090,1,0,0:0:0:0:
275,107,125204,2,0,L|284:184,2,40
119,48,125658,1,0,0:0:0:0:
155,31,125772,2,0,P|152:74|143:122,1,80
103,185,126113,5,0,0:0:0:0:
204,269,126340,2,0,L|206:295,2,26.6666666666667
202,239,126567,2,0,P|205:196|214:148,1,80
251,141,126908,5,0,0:0:0:0:
275,107,127022,2,0,P|272:86|271:64,2,40
363,264,127477,1,0,0:0:0:0:
393,233,127590,2,0,P|352:217|314:210,1,80
243,176,127931,6,0,P|202:191|144:178,1,80
18,213,128386,2,0,L|23:131,1,80
55,103,128727,2,0,L|139:91,1,80
168,63,129067,1,0,0:0:0:0:
273,209,129295,1,0,0:0:0:0:
243,176,129408,2,0,P|240:137|242:95,1,80
237,12,129749,6,0,P|256:48|329:79,1,120
364,100,130204,2,0,L|373:182,1,80
411,200,130545,2,0,L|402:282,1,80
372,311,130886,1,0,0:0:0:0:
234,229,131113,1,0,0:0:0:0:
273,209,131227,2,0,P|272:251|266:290,1,80
228,365,131567,6,0,P|196:332|123:318,1,120
91,289,132022,2,0,L|82:206,1,80
45,185,132363,2,0,L|54:102,1,80
85,75,132704,1,0,0:0:0:0:
253,205,132931,1,0,0:0:0:0:
281,171,133045,2,0,P|244:145|204:141,1,80
132,153,133386,5,0,0:0:0:0:
241,53,133613,2,0,L|235:16,2,26.6666666666667
260,74,133840,2,0,L|344:83,1,80
383,89,134181,1,0,0:0:0:0:
424,74,134295,1,0,0:0:0:0:
441,231,134522,2,0,L|447:268,2,26.6666666666667
422,210,134749,2,0,L|338:201,1,80
299,195,135090,1,0,0:0:0:0:
258,210,135204,6,0,P|253:231|251:253,1,40
301,348,135431,1,0,0:0:0:0:
267,334,135545,1,0,0:0:0:0:
231,327,135658,1,0,0:0:0:0:
195,333,135772,1,0,0:0:0:0:
161,345,135886,2,0,P|137:352|115:352,1,40
59,302,136113,6,0,L|52:220,1,80
17,195,136454,1,0,0:0:0:0:
17,195,136567,2,0,L|24:113,1,80
208,48,137022,6,0,P|220:88|228:136,1,80
328,176,137477,2,0,P|316:216|308:264,1,80
360,316,137817,1,0,0:0:0:0:
380,280,137931,1,0,0:0:0:0:
392,240,138045,1,0,0:0:0:0:
404,204,138158,1,0,0:0:0:0:
476,96,138386,2,0,L|492:144,1,40
396,68,138613,2,0,L|394:118,1,40
324,28,138840,6,0,P|308:72|288:112,1,80
172,60,139181,1,0,0:0:0:0:
160,80,139295,2,0,L|172:168,1,80
256,304,139636,2,0,L|274:217,1,80
284,188,139977,1,0,0:0:0:0:
384,68,140204,1,0,0:0:0:0:
371,85,140317,2,0,P|331:89|279:109,1,80
208,140,140658,6,0,L|124:120,1,80
376,264,141113,2,0,P|432:276|488:244,1,120
420,184,141567,1,0,0:0:0:0:
384,168,141681,1,0,0:0:0:0:
344,168,141795,1,0,0:0:0:0:
304,180,141908,1,0,0:0:0:0:
276,212,142022,1,0,0:0:0:0:
248,244,142136,1,0,0:0:0:0:
208,256,142249,1,0,0:0:0:0:
168,256,142363,1,0,0:0:0:0:
132,172,142477,6,0,P|88:216|80:272,1,120
104,348,142931,1,0,0:0:0:0:
236,148,143158,1,0,0:0:0:0:
220,176,143272,2,0,P|208:132|184:96,1,80
164,72,143613,1,0,0:0:0:0:
64,200,143840,2,0,B|46:237|16:264|16:264|72:272,1,120
124,312,144295,6,0,P|180:304|256:272,1,120
276,264,144749,1,0,0:0:0:0:
396,156,144977,1,0,0:0:0:0:
396,156,145090,1,0,0:0:0:0:
428,312,145317,1,0,0:0:0:0:
428,312,145431,1,0,0:0:0:0:
292,164,145658,1,0,0:0:0:0:
292,164,145772,2,0,P|252:144|212:128,1,80
112,24,146113,6,0,P|152:44|192:60,1,80
360,108,146567,2,0,L|376:64,1,40
432,168,146795,1,0,0:0:0:0:
444,184,146908,2,0,L|416:268,1,80
330,329,147249,2,0,L|344:292,1,40
323,205,147477,2,0,P|292:220|260:252,1,80
184,324,147817,1,0,0:0:0:0:
192,340,147931,2,0,L|152:324,1,40
48,312,148158,6,0,L|20:324,2,26.6666666666667
72,284,148386,2,0,P|104:252|144:228,1,80
250,192,148840,2,0,L|292:216,1,40
332,124,149067,6,0,P|352:80|356:28,1,95.9999970703126
219,104,149408,2,0,P|226:152|251:193,1,95.9999970703126
254,311,149749,2,0,P|211:291|172:263,1,95.9999970703126
144,232,150091,1,0,0:0:0:0:
128,196,150204,1,0,0:0:0:0:
124,156,150318,1,0,0:0:0:0:
136,116,150431,1,0,0:0:0:0:
276,24,150658,5,0,0:0:0:0:
408,128,150886,2,0,L|419:166,1,40
320,224,151113,2,0,L|316:264,1,40
204,168,151340,2,0,L|215:206,1,40
116,277,151567,6,0,L|106:367,1,80
47,168,152022,2,0,P|82:149|122:143,1,80
204,168,152363,1,0,0:0:0:0:
268,105,152477,2,0,L|271:62,1,40
320,224,152704,2,0,L|323:267,1,40
422,123,152931,1,0,0:0:0:0:
422,123,153045,1,0,0:0:0:0:
422,123,153158,2,0,L|369:132,1,40
204,168,153386,6,0,L|210:211,1,40
343,55,153613,2,0,L|337:15,1,40
117,128,153840,2,0,L|132:232,1,80
158,358,154181,2,0,L|169:278,1,80
282,244,154522,2,0,L|243:248,1,40
48,281,154749,2,0,L|87:284,1,40
324,331,154977,5,0,0:0:0:0:
324,331,155090,1,0,0:0:0:0:
324,331,155204,2,0,L|236:336,1,80
117,128,155658,2,0,L|196:132,1,80
269,166,155999,1,0,0:0:0:0:
331,116,156113,2,0,L|338:77,1,40
203,215,156340,2,0,L|210:254,1,40
257,84,156567,1,0,0:0:0:0:
218,74,156681,1,0,0:0:0:0:
177,76,156795,1,0,0:0:0:0:
143,97,156908,1,0,0:0:0:0:
117,128,157022,6,0,L|112:173,1,40
283,288,157249,2,0,L|278:248,1,40
322,32,157477,1,0,0:0:0:0:
361,39,157590,1,0,0:0:0:0:
392,64,157704,1,0,0:0:0:0:
411,98,157817,2,0,P|412:138|407:186,1,80
360,242,158158,1,0,0:0:0:0:
152,142,158386,2,0,L|232:151,1,80
302,112,158727,1,0,0:0:0:0:
283,288,158840,6,0,P|244:277|201:284,1,80
151,342,159181,1,0,0:0:0:0:
71,331,159295,2,0,L|64:248,1,80
9,192,159636,2,0,L|16:109,1,80
22,32,159977,1,0,0:0:0:0:
229,192,160204,1,0,0:0:0:0:
198,217,160317,2,0,P|152:215|122:180,1,80
98,118,160658,6,0,L|101:78,1,40
280,248,160886,2,0,L|283:288,1,40
310,46,161113,1,0,0:0:0:0:
310,46,161227,1,0,0:0:0:0:
310,46,161340,2,0,L|270:58,1,40
46,185,161567,5,0,0:0:0:0:
82,202,161681,1,0,0:0:0:0:
121,198,161795,2,0,L|163:203,1,40
391,186,162022,1,0,0:0:0:0:
391,186,162136,2,0,L|309:178,1,80
236,149,162477,5,0,0:0:0:0:
414,79,162704,2,0,L|409:47,2,26.6666666666667
455,112,162931,2,0,P|480:147|486:193,1,80
459,258,163272,2,0,L|376:273,1,80
320,326,163613,2,0,L|275:315,1,40
236,149,163840,1,0,0:0:0:0:
236,149,163954,2,0,P|231:199|211:233,1,80
154,274,164295,6,0,L|109:280,1,40
323,214,164522,2,0,L|368:220,1,40
116,155,164749,1,0,0:0:0:0:
121,115,164863,1,0,0:0:0:0:
138,78,164977,1,0,0:0:0:0:
166,50,165090,1,0,0:0:0:0:
202,32,165204,6,0,P|226:29|254:30,1,40
380,139,165431,1,0,0:0:0:0:
343,123,165544,1,0,0:0:0:0:
304,123,165658,1,0,0:0:0:0:
267,139,165772,1,0,0:0:0:0:
241,168,165885,1,0,0:0:0:0:
228,206,165999,1,0,0:0:0:0:
216,244,166113,6,0,P|223:286|239:326,1,80
312,356,166454,2,0,P|344:328|371:295,1,80
412,228,166795,1,0,0:0:0:0:
452,64,167022,6,0,P|480:88|508:128,1,80
344,136,167363,2,0,P|316:112|288:72,1,80
248,4,167704,1,0,0:0:0:0:
208,192,167931,2,0,L|202:231,2,40
97,29,168386,6,0,L|84:108,1,80
64,192,168727,1,0,0:0:0:0:
64,192,168840,2,0,P|97:212|136:224,1,80
164,328,169181,2,0,P|190:298|223:276,1,80
296,232,169522,1,0,0:0:0:0:
344,80,169749,6,0,P|374:105|396:138,1,80
456,224,170090,2,0,P|418:237|378:240,1,80
296,232,170431,1,0,0:0:0:0:
148,324,170658,2,0,P|134:290|122:237,1,80
129,113,170999,2,0,P|155:142|185:171,1,80
296,232,171340,2,0,P|261:252|224:267,1,80
27,193,171795,6,0,P|62:173|99:158,1,80
184,170,172136,2,0,P|221:154|255:135,1,80
316,78,172477,1,0,0:0:0:0:
128,240,172704,1,0,0:0:0:0:
460,312,172931,1,0,0:0:0:0:
460,312,173045,2,0,P|421:319|383:331,1,80
252,352,173386,6,0,L|264:272,1,80
133,307,173727,2,0,L|121:227,1,80
108,144,174067,1,0,0:0:0:0:
260,32,174295,6,0,L|248:112,1,80
379,77,174636,2,0,L|391:157,1,80
404,240,174976,1,0,0:0:0:0:
268,340,175204,5,0,0:0:0:0:
272,316,175317,1,0,0:0:0:0:
276,292,175431,1,0,0:0:0:0:
92,180,175658,1,0,0:0:0:0:
85,211,175772,1,0,0:0:0:0:
336,380,175999,1,0,0:0:0:0:
343,349,176113,2,0,L|360:256,1,80
440,256,176454,1,0,0:0:0:0:
433,214,176567,1,0,0:0:0:0:
425,172,176681,1,0,0:0:0:0:
419,130,176795,1,0,0:0:0:0:
412,88,176908,1,0,0:0:0:0:
384,60,177022,6,0,P|368:104|352:140,1,80
228,236,177363,2,0,P|214:201|200:144,1,80
52,104,177704,1,0,0:0:0:0:
272,44,177931,5,0,0:0:0:0:
312,32,178045,1,0,0:0:0:0:
352,36,178158,2,0,P|400:40|456:64,1,95.9999970703126
488,244,178499,2,0,P|440:240|384:216,1,95.9999970703126
296,152,178840,1,0,0:0:0:0:
120,80,179067,1,0,0:0:0:0:
113,118,179181,1,0,0:0:0:0:
117,159,179295,1,0,0:0:0:0:
132,193,179408,1,0,0:0:0:0:
161,221,179522,1,0,0:0:0:0:
310,351,179749,5,0,0:0:0:0:
278,373,179863,1,0,0:0:0:0:
239,379,179977,1,0,0:0:0:0:
201,370,180090,1,0,0:0:0:0:
166,350,180204,2,0,L|128:316,1,47.9999985351563
62,180,180431,2,0,L|80:128,1,47.9999985351563
178,21,180658,6,0,P|196:56|204:94,1,80
259,153,180999,2,0,L|350:160,1,80
402,110,181340,2,0,L|408:65,1,40
460,169,181567,6,0,P|469:210|465:267,1,80
415,307,181908,2,0,L|324:314,1,80
261,344,182249,2,0,L|255:383,1,40
202,287,182477,6,0,L|196:247,1,40
129,320,182704,1,0,0:0:0:0:
307,228,182931,2,0,B|301:186|301:186|312:150|312:150|304:107,1,120
237,65,183386,2,0,P|192:83|156:79,1,80
88,46,183727,2,0,L|77:130,1,80
26,186,184067,2,0,L|36:232,1,40
97,275,184295,6,0,P|141:280|178:295,1,80
276,193,184636,2,0,P|232:198|195:213,1,80
254,324,184977,2,0,L|257:285,1,40
265,101,185204,5,0,0:0:0:0:
265,101,185317,1,0,0:0:0:0:
265,101,185431,1,0,0:0:0:0:
265,101,185545,2,0,P|312:97|345:84,1,80
459,144,185886,2,0,P|440:142|419:136,1,40
427,39,186113,5,0,0:0:0:0:
310,378,186454,1,0,0:0:0:0:
75,103,186795,1,0,0:0:0:0:
254,195,187022,6,0,P|251:238|248:279,1,80
181,333,187363,2,0,L|189:373,2,40
143,224,187704,2,0,L|135:264,1,40
50,337,187931,6,0,P|29:290|43:220,1,120
92,161,188386,1,0,0:0:0:0:
239,250,188613,1,0,0:0:0:0:
101,48,188840,6,0,P|80:95|94:165,1,120
143,224,189295,1,0,0:0:0:0:
290,135,189522,1,0,0:0:0:0:
273,353,189749,6,0,L|192:343,1,80
239,31,190204,2,0,L|320:41,1,80
95,209,190658,2,0,L|105:128,1,80
417,175,191113,2,0,L|407:256,1,80
239,31,191567,6,0,P|270:58|248:169,1,160
87,113,192249,1,0,0:0:0:0:
87,113,192363,1,0,0:0:0:0:
87,113,192477,2,0,P|126:122|160:144,1,80
384,195,192931,2,0,P|345:204|311:225,1,80
256,360,193386,5,0,0:0:0:0:
208,276,193613,5,0,0:0:0:0:
256,192,193840,5,0,0:0:0:0:
304,108,194067,5,0,0:0:0:0:
256,24,194295,6,0,B|177:0|178:49|98:24,1,160
0,128,195545,5,0,0:0:0:0:
36,136,195658,1,0,0:0:0:0:
220,160,196113,2,0,P|172:180|140:216,1,95.9999970703126
236,272,196795,1,0,0:0:0:0:
236,272,196908,1,0,0:0:0:0:
236,272,197022,2,0,P|240:312|252:348,1,71.9999978027344
264,380,197477,1,0,0:0:0:0:
336,296,197704,2,0,L|344:236,1,47.9999985351563
458,116,198158,2,0,L|456:140,1,23.9999992675781
480,216,198386,2,0,P|436:216|408:204,1,71.9999978027344
344,140,198840,6,0,P|296:148|248:164,1,95.9999970703126
44,280,199749,2,0,P|92:288|140:304,1,95.9999970703126
372,316,200658,2,0,L|332:280,1,47.9999985351563
204,248,201113,2,0,L|255:231,1,47.9999985351563
348,136,201567,2,0,L|336:188,1,47.9999985351563
328,216,201908,1,0,0:0:0:0:
320,248,202022,1,0,0:0:0:0:
228,152,202249,1,0,0:0:0:0:
220,184,202363,1,0,0:0:0:0:
212,216,202477,6,0,L|196:276,1,47.9999985351563
104,344,202931,1,0,0:0:0:0:
88,316,203045,1,0,0:0:0:0:
76,284,203158,1,0,0:0:0:0:
88,167,203386,2,0,P|41:175|0:200,1,95.9999970703126
184,180,204067,1,0,0:0:0:0:
272,224,204295,2,0,L|336:212,1,47.9999985351563
444,56,204749,2,0,L|380:44,1,47.9999985351563
248,92,205204,2,0,L|312:104,1,47.9999985351563
328,108,205545,1,0,0:0:0:0:
360,116,205658,5,0,0:0:0:0:
448,80,205886,1,0,0:0:0:0:
368,240,206113,2,0,L|308:260,1,47.9999985351563
180,344,206567,2,0,L|159:284,1,47.9999985351563
120,136,207022,1,0,0:0:0:0:
296,60,207249,6,0,P|320:93|338:142,1,80
458,238,207590,2,0,P|423:214|390:174,1,80
314,214,207931,2,0,P|303:230|288:248,1,40
213,302,208158,1,0,0:0:0:0:
168,293,208272,1,0,0:0:0:0:
130,260,208386,1,0,0:0:0:0:
117,213,208499,1,0,0:0:0:0:
268,28,208840,6,0,P|290:62|309:104,1,80
220,184,209181,1,0,0:0:0:0:
201,228,209295,1,0,0:0:0:0:
202,276,209409,1,0,0:0:0:0:
225,321,209522,1,0,0:0:0:0:
263,349,209636,1,0,0:0:0:0:
310,356,209749,6,0,P|356:360|428:331,1,120
471,268,210204,2,0,L|477:187,1,80
336,63,210658,1,0,0:0:0:0:
336,63,210772,1,0,0:0:0:0:
336,63,210886,2,0,L|342:138,1,40
299,185,211113,1,0,0:0:0:0:
422,67,211340,1,0,0:0:0:0:
365,296,211567,6,0,P|323:295|281:287,1,80
217,245,211908,1,0,0:0:0:0:
217,245,212022,2,0,L|208:166,1,80
156,103,212363,1,0,0:0:0:0:
156,103,212477,2,0,L|162:56,1,40
63,154,212704,6,0,P|45:193|127:190,1,160
29,300,213386,2,0,B|48:339|48:339|133:344,1,120
196,379,213840,2,0,L|280:375,1,80
347,339,214181,1,0,0:0:0:0:
382,357,214295,5,0,0:0:0:0:
402,322,214408,1,0,0:0:0:0:
427,291,214522,2,0,P|446:284|474:281,1,40
389,209,214749,5,0,0:0:0:0:
369,174,214862,1,0,0:0:0:0:
344,143,214976,2,0,P|325:136|297:133,1,40
413,67,215204,5,0,0:0:0:0:
105,200,215431,1,0,0:0:0:0:
247,26,215658,2,0,P|267:24|291:29,2,40
172,74,215999,2,0,P|127:81|81:75,1,80
21,40,216340,1,0,0:0:0:0:
253,115,216567,1,0,0:0:0:0:
253,115,216681,2,0,B|264:155|264:155|256:215,1,80
212,258,217022,6,0,P|164:264|132:258,1,80
69,209,217363,2,0,L|62:126,1,80
142,132,217704,2,0,L|145:184,1,40
152,357,217931,6,0,P|191:353|233:358,1,80
291,304,218272,2,0,L|296:220,1,80
214,218,218613,2,0,L|211:270,1,40
372,351,218840,6,0,L|374:311,1,40
380,132,219067,1,0,0:0:0:0:
380,132,219295,6,0,B|343:117|304:131|304:131|260:113,1,120
196,72,219749,6,0,P|182:113|217:187,1,120
266,238,220204,2,0,L|356:230,1,80
425,223,220545,1,0,0:0:0:0:
425,223,220658,1,0,0:0:0:0:
438,63,220886,2,0,L|440:33,2,26.6666666666667
405,105,221113,6,0,P|357:124|315:127,1,80
254,97,221454,2,0,P|214:103|178:119,1,80
125,179,221795,1,0,0:0:0:0:
387,205,222022,1,0,0:0:0:0:
387,205,222136,1,0,0:0:0:0:
387,205,222249,1,0,0:0:0:0:
65,260,222477,6,0,P|60:303|81:337,1,80
110,351,222780,1,0,0:0:0:0:
146,355,222855,1,0,0:0:0:0:
181,342,222931,2,0,P|214:333|261:330,1,80
452,374,223386,5,0,0:0:0:0:
313,235,223613,1,0,0:0:0:0:
309,186,223727,1,0,0:0:0:0:
330,143,223840,2,0,L|349:106,1,40
238,76,224067,2,0,L|232:31,1,40
127,114,224295,6,0,L|139:193,1,80
32,220,224749,2,0,P|52:256|88:292,1,80
116,296,225090,1,0,0:0:0:0:
156,296,225204,1,0,0:0:0:0:
192,284,225317,1,0,0:0:0:0:
220,256,225431,1,0,0:0:0:0:
264,120,225658,2,0,L|304:144,1,40
460,284,226113,5,0,0:0:0:0:
424,300,226227,1,0,0:0:0:0:
384,304,226340,1,0,0:0:0:0:
292,324,226567,2,0,P|296:288|312:236,1,80
252,188,226908,2,0,P|213:199|173:203,1,80
96,192,227249,1,0,0:0:0:0:
200,88,227477,1,0,0:0:0:0:
240,80,227590,1,0,0:0:0:0:
280,88,227704,1,0,0:0:0:0:
312,108,227817,1,0,0:0:0:0:
332,144,227931,6,0,P|367:139|422:127,1,80
232,204,228386,2,0,P|196:208|141:220,1,80
89,282,228727,1,0,0:0:0:0:
128,292,228840,1,0,0:0:0:0:
168,296,228954,1,0,0:0:0:0:
208,296,229067,1,0,0:0:0:0:
336,284,229295,2,0,L|320:232,2,40
456,324,229749,2,0,L|444:362,2,40
336,284,230204,2,0,L|377:157,1,120
364,40,230772,2,0,L|396:72,1,40
284,148,231113,5,0,0:0:0:0:
244,156,231227,1,0,0:0:0:0:
208,172,231340,1,0,0:0:0:0:
176,196,231454,1,0,0:0:0:0:
148,224,231567,2,0,P|132:264|124:304,1,80
313,263,232022,2,0,P|305:211|281:143,2,120
284,340,232931,5,0,0:0:0:0:
248,320,233045,1,0,0:0:0:0:
228,284,233158,1,0,0:0:0:0:
113,142,233386,1,0,0:0:0:0:
149,121,233500,1,0,0:0:0:0:
188,120,233613,1,0,0:0:0:0:
370,93,233840,1,0,0:0:0:0:
240,188,234067,1,0,0:0:0:0:
206,209,234181,1,0,0:0:0:0:
166,213,234295,1,0,0:0:0:0:
126,217,234408,1,0,0:0:0:0:
93,239,234522,1,0,0:0:0:0:
160,336,234749,6,0,L|164:292,1,40
280,304,234977,2,0,L|261:263,1,40
356,200,235204,6,0,P|324:160|340:84,1,132.00000402832
392,136,235658,1,0,0:0:0:0:
343,160,235772,1,0,0:0:0:0:
291,155,235886,1,0,0:0:0:0:
247,179,235999,1,0,0:0:0:0:
196,168,236113,6,0,L|152:160,1,44.0000013427735
108,292,236340,2,0,L|152:284,1,44.0000013427735
304,232,236567,2,0,L|348:224,1,44.0000013427735
396,360,236794,2,0,L|352:352,1,44.0000013427735
213,240,237022,6,0,P|197:196|197:144,1,88.000002685547
292,50,237363,1,0,0:0:0:0:
292,50,237477,2,0,P|308:94|308:146,1,88.000002685547
384,328,237931,6,0,L|345:319,1,29.3333342285157
328,273,238083,6,0,L|290:285,1,29.3333342285157
251,252,238234,6,0,L|224:281,1,29.3333342285157
161,350,238386,6,0,L|188:322,1,29.3333342285157
84,330,238537,6,0,L|122:318,1,29.3333342285157
28,274,238689,6,0,L|68:283,1,29.3333342285157
1,178,238840,6,0,P|9:137|12:76,1,88.000002685547
170,217,239295,2,0,P|162:176|159:115,1,88.000002685547
204,62,239636,2,0,L|296:49,1,88.000002685547
362,84,239977,1,0,0:0:0:0:
134,10,240204,1,0,0:0:0:0:
134,10,240317,1,0,0:0:0:0:
290,141,240545,5,0,0:0:0:0:
290,141,240658,2,0,P|306:181|314:225,1,88.000002685547
270,324,241113,1,0,0:0:0:0:
82,206,241340,1,0,0:0:0:0:
82,206,241454,1,0,0:0:0:0:
82,206,241567,2,0,L|170:217,1,88.000002685547
362,84,242022,1,0,0:0:0:0:
362,84,242136,1,0,0:0:0:0:
362,84,242249,1,0,0:0:0:0:
270,324,242477,5,0,0:0:0:0:
197,132,242704,1,0,0:0:0:0:
401,170,242931,1,0,0:0:0:0:
288,206,243158,1,0,0:0:0:0:
288,206,243272,1,0,0:0:0:0:
288,206,243386,2,0,L|243:201,3,44.0000013427735
197,132,243840,2,0,L|152:137,3,44.0000013427735
89,185,244295,5,0,0:0:0:0:
299,103,244522,1,0,0:0:0:0:
270,324,244749,1,0,0:0:0:0:
217,206,244977,1,0,0:0:0:0:
217,206,245090,1,0,0:0:0:0:
217,206,245204,1,0,0:0:0:0:
352,223,245431,1,0,0:0:0:0:
140,308,245658,1,0,0:0:0:0:
169,79,245886,5,0,0:0:0:0:
169,79,245999,1,0,0:0:0:0:
169,79,246113,2,0,L|261:90,1,88.000002685547
349,40,246567,1,0,0:0:0:0:
296,196,246795,1,0,0:0:0:0:
296,196,246908,1,0,0:0:0:0:
296,196,247022,2,0,L|203:186,1,88.000002685547
392,151,247477,1,0,0:0:0:0:
392,151,247590,1,0,0:0:0:0:
392,151,247704,1,0,0:0:0:0:
392,151,247817,1,0,0:0:0:0:
392,151,247931,6,0,P|403:198|396:237,1,88.000002685547
184,348,248386,2,0,P|173:301|180:262,1,88.000002685547
211,220,248727,1,0,0:0:0:0:
298,302,248954,1,0,0:0:0:0:
298,302,249067,1,0,0:0:0:0:
85,264,249295,1,0,0:0:0:0:
427,120,249749,6,0,P|445:161|410:239,1,132.00000402832
412,236,250204,2,0,L|319:230,1,88.000002685547
80,34,250658,1,0,0:0:0:0:
80,34,250772,1,0,0:0:0:0:
80,34,250886,2,0,P|62:75|91:140,1,88.000002685547
128,175,251227,2,0,L|219:181,1,88.000002685547
286,129,251567,1,0,0:0:0:0:
45,199,251795,1,0,0:0:0:0:
45,199,251908,1,0,0:0:0:0:
45,199,252022,2,0,P|29:251|34:291,1,88.000002685547
60,328,252363,1,0,0:0:0:0:
106,353,252477,6,0,L|201:347,1,88.000002685547
280,329,252817,1,0,0:0:0:0:
305,293,252931,1,0,0:0:0:0:
319,252,253045,1,0,0:0:0:0:
320,208,253158,1,0,0:0:0:0:
309,166,253272,1,0,0:0:0:0:
286,129,253386,6,0,L|196:116,1,88.000002685547
100,84,253840,2,0,P|100:132|116:176,1,88.000002685547
164,240,254181,2,0,P|131:269|110:307,1,88.000002685547
196,320,254522,1,0,0:0:0:0:
368,280,254749,1,0,0:0:0:0:
368,280,254863,2,0,P|346:241|314:212,1,88.000002685547
264,152,255204,5,0,0:0:0:0:
224,168,255317,1,0,0:0:0:0:
180,176,255431,1,0,0:0:0:0:
44,72,255658,2,0,B|87:82|120:96|120:96|144:88|176:76,1,132.00000402832
304,32,256227,1,0,0:0:0:0:
304,32,256340,1,0,0:0:0:0:
348,164,256567,1,0,0:0:0:0:
348,164,256681,1,0,0:0:0:0:
464,84,256908,1,0,0:0:0:0:
464,84,257022,6,0,P|476:128|488:176,1,88.000002685547
336,320,257477,2,0,B|368:296|368:296|380:252|391:204,1,132.00000402832
368,168,257931,1,0,0:0:0:0:
364,124,258045,1,0,0:0:0:0:
344,84,258158,1,0,0:0:0:0:
229,121,258386,1,0,0:0:0:0:
216,164,258499,1,0,0:0:0:0:
219,207,258613,1,0,0:0:0:0:
219,252,258727,1,0,0:0:0:0:
206,294,258840,5,0,0:0:0:0:
179,328,258954,1,0,0:0:0:0:
136,344,259067,2,0,P|112:303|87:271,1,88.000002685547
8,180,259522,2,0,P|48:164|96:152,1,88.000002685547
136,152,259863,1,0,0:0:0:0:
176,168,259977,1,0,0:0:0:0:
264,228,260204,1,0,0:0:0:0:
264,228,260317,2,0,P|308:216|352:200,1,88.000002685547
376,112,260658,6,0,P|333:121|290:133,1,88.000002685547
168,160,261113,1,0,0:0:0:0:
64,96,261340,1,0,0:0:0:0:
64,96,261454,2,0,P|52:144|48:192,1,88.000002685547
48,228,261795,1,0,0:0:0:0:
168,160,262022,1,0,0:0:0:0:
168,160,262136,2,0,P|180:112|192:68,1,88.000002685547
208,36,262477,5,0,0:0:0:0:
280,212,262704,1,0,0:0:0:0:
316,48,262931,1,0,0:0:0:0:
200,240,263158,1,0,0:0:0:0:
200,240,263272,1,0,0:0:0:0:
368,112,263499,1,0,0:0:0:0:
368,112,263613,2,0,P|376:160|384:208,1,88.000002685547
340,276,263954,2,0,P|300:268|248:248,1,88.000002685547
172,220,264295,5,0,0:0:0:0:
72,340,264522,2,0,L|60:368,2,29.3333342285157
88,316,264749,2,0,P|84:268|72:216,1,88.000002685547
74,138,265090,2,0,P|115:153|161:178,1,88.000002685547
224,224,265431,1,0,0:0:0:0:
409,325,265658,1,0,0:0:0:0:
409,325,265772,2,0,P|367:309|321:284,1,88.000002685547
245,309,266113,6,0,P|233:269|221:201,1,88.000002685547
192,72,266567,1,0,0:0:0:0:
128,216,266795,1,0,0:0:0:0:
300,72,267022,1,0,0:0:0:0:
428,192,267249,6,0,L|437:235,1,44.0000013427735
328,240,267477,2,0,L|314:281,1,44.0000013427735
212,260,267704,2,0,L|184:294,1,44.0000013427735
96,72,267931,1,0,0:0:0:0:
