osu file format v14

[General]
AudioFilename: audio.mp3
AudioLeadIn: 0
PreviewTime: 70157
Countdown: 0
SampleSet: Soft
StackLeniency: 0.7
Mode: 3
LetterboxInBreaks: 0
SpecialStyle: 0
WidescreenStoryboard: 0

[Editor]
DistanceSpacing: 1
BeatDivisor: 4
GridSize: 4
TimelineZoom: 1.58

[Metadata]
Title:Romeo and Cinderella
TitleUnicode:ロメオとシンデレラ
Artist:doriko
ArtistUnicode:doriko
Creator:Ryu Sei
Version:DA0000
Source:
Tags:hatsune miku 初音ミク VOCALOID#105
BeatmapID:1766408
BeatmapSetID:844412

[Difficulty]
HPDrainRate:7
CircleSize:4
OverallDifficulty:10
ApproachRate:5
SliderMultiplier:1.4
SliderTickRate:1

[Events]
//Background and Video events
0,0,"mikuwu.png",0,0
//Break Periods
//Storyboard Layer 0 (Background)
//Storyboard Layer 1 (Fail)
//Storyboard Layer 2 (Pass)
//Storyboard Layer 3 (Foreground)
//Storyboard Layer 4 (Overlay)
//Storyboard Sound Samples

[TimingPoints]
2393,352.941176470588,4,2,1,30,1,0
71569,-100,4,2,1,30,0,1
81981,-100,4,2,1,30,0,0
82863,-100,4,2,1,30,0,1
93275,-100,4,2,1,30,0,0
94157,-100,4,2,1,30,0,1
98392,-100,4,2,1,30,0,0
99804,-100,4,2,1,30,0,1
99981,-100,4,2,1,30,0,0
157687,-100,4,2,1,30,0,1
168098,-100,4,2,1,30,0,0
168981,-100,4,2,1,30,0,1
179392,-100,4,2,1,30,0,0
180275,-100,4,2,1,30,0,1
184510,-100,4,2,1,30,0,0
225451,-100,4,2,1,30,0,1
235863,-100,4,2,1,30,0,0
236745,-100,4,2,1,30,0,1
247157,-100,4,2,1,30,0,0
248040,-100,4,2,1,30,0,1
258451,-100,4,2,1,30,0,0
259334,-100,4,2,1,30,0,1
263569,-100,4,2,1,30,0,0

[HitObjects]
64,192,2393,5,0,0:0:0:0:
192,192,2569,1,0,0:0:0:0:
320,192,2745,1,0,0:0:0:0:
448,192,2922,1,0,0:0:0:0:
320,192,3098,1,0,0:0:0:0:
64,192,3804,1,0,0:0:0:0:
320,192,3981,1,0,0:0:0:0:
192,192,4157,1,0,0:0:0:0:
448,192,4334,1,0,0:0:0:0:
64,192,5216,1,0,0:0:0:0:
320,192,5392,1,0,0:0:0:0:
192,192,5569,1,0,0:0:0:0:
320,192,5745,1,0,0:0:0:0:
448,192,5922,1,0,0:0:0:0:
320,192,6628,1,0,0:0:0:0:
192,192,7157,1,0,0:0:0:0:
192,192,7510,1,0,0:0:0:0:
64,192,7687,1,0,0:0:0:0:
320,192,8040,1,0,0:0:0:0:
192,192,8216,1,0,0:0:0:0:
64,192,8392,1,0,0:0:0:0:
320,192,8569,1,0,0:0:0:0:
448,192,8745,1,0,0:0:0:0:
320,192,9451,1,0,0:0:0:0:
64,192,9628,1,0,0:0:0:0:
192,192,9804,1,0,0:0:0:0:
448,192,9981,1,0,0:0:0:0:
320,192,10863,1,0,0:0:0:0:
192,192,11040,1,0,0:0:0:0:
64,192,11216,1,0,0:0:0:0:
448,192,11392,1,0,0:0:0:0:
64,192,12275,1,0,3:0:0:0:
192,192,12275,1,0,3:0:0:0:
320,192,12275,1,0,3:0:0:0:
448,192,12275,1,0,3:0:0:0:
448,192,13687,1,0,0:0:0:0:
320,192,13687,1,0,0:0:0:0:
64,192,13863,1,0,0:0:0:0:
192,192,14040,1,0,0:0:0:0:
448,192,14040,1,0,0:0:0:0:
192,192,14392,1,0,0:0:0:0:
64,192,14392,1,0,0:0:0:0:
448,192,14569,1,0,0:0:0:0:
320,192,14745,1,0,0:0:0:0:
192,192,14745,1,0,0:0:0:0:
64,192,14922,1,0,0:0:0:0:
192,192,15098,1,0,0:0:0:0:
448,192,15275,1,0,0:0:0:0:
320,192,15451,1,0,0:0:0:0:
192,192,15451,1,0,0:0:0:0:
64,192,15628,1,0,0:0:0:0:
448,192,15804,1,0,0:0:0:0:
192,192,15804,1,0,0:0:0:0:
320,192,15981,1,0,0:0:0:0:
192,192,16157,1,0,0:0:0:0:
448,192,16157,1,0,0:0:0:0:
64,192,16334,1,0,0:0:0:0:
320,192,16510,1,0,0:0:0:0:
64,192,16687,1,0,0:0:0:0:
192,192,16863,1,0,0:0:0:0:
448,192,16863,1,0,0:0:0:0:
192,192,17040,1,0,0:0:0:0:
192,192,17216,1,0,0:0:0:0:
320,192,17216,1,0,0:0:0:0:
448,192,17392,1,0,0:0:0:0:
320,192,17569,1,0,0:0:0:0:
192,192,17569,1,0,0:0:0:0:
64,192,17745,1,0,0:0:0:0:
192,192,17922,1,0,0:0:0:0:
448,192,18098,1,0,0:0:0:0:
320,192,18275,1,0,0:0:0:0:
192,192,18275,1,0,0:0:0:0:
64,192,18451,1,0,0:0:0:0:
448,192,18628,1,0,0:0:0:0:
192,192,18628,1,0,0:0:0:0:
320,192,18804,1,0,0:0:0:0:
192,192,18981,1,0,0:0:0:0:
448,192,18981,1,0,0:0:0:0:
64,192,19157,1,0,0:0:0:0:
320,192,19334,1,0,0:0:0:0:
64,192,19510,1,0,0:0:0:0:
192,192,19687,1,0,0:0:0:0:
448,192,19687,1,0,0:0:0:0:
192,192,19863,1,0,0:0:0:0:
192,192,20040,1,0,0:0:0:0:
64,192,20040,1,0,0:0:0:0:
448,192,20216,1,0,0:0:0:0:
320,192,20392,1,0,0:0:0:0:
192,192,20392,1,0,0:0:0:0:
64,192,20569,1,0,0:0:0:0:
192,192,20745,1,0,0:0:0:0:
448,192,20922,1,0,0:0:0:0:
320,192,21098,1,0,0:0:0:0:
192,192,21098,1,0,0:0:0:0:
64,192,21275,1,0,0:0:0:0:
448,192,21451,1,0,0:0:0:0:
192,192,21451,1,0,0:0:0:0:
320,192,21628,1,0,0:0:0:0:
192,192,21804,1,0,0:0:0:0:
448,192,21804,1,0,0:0:0:0:
64,192,21981,1,0,0:0:0:0:
448,192,22157,1,0,0:0:0:0:
64,192,22334,1,0,0:0:0:0:
192,192,22510,1,0,0:0:0:0:
448,192,22510,1,0,0:0:0:0:
192,192,22687,1,0,0:0:0:0:
192,192,22863,1,0,0:0:0:0:
320,192,22863,1,0,0:0:0:0:
448,192,23040,1,0,0:0:0:0:
320,192,23216,1,0,0:0:0:0:
192,192,23216,1,0,0:0:0:0:
64,192,23392,1,0,0:0:0:0:
192,192,23569,1,0,0:0:0:0:
448,192,23745,1,0,0:0:0:0:
320,192,23922,1,0,0:0:0:0:
192,192,23922,1,0,0:0:0:0:
64,192,24098,1,0,0:0:0:0:
448,192,24275,1,0,0:0:0:0:
192,192,24275,1,0,0:0:0:0:
320,192,24540,1,0,0:0:0:0:
192,192,24540,1,0,0:0:0:0:
64,192,24804,1,0,0:0:0:0:
448,192,24804,1,0,0:0:0:0:
320,192,24981,1,0,0:0:0:0:
192,192,24981,1,0,0:0:0:0:
448,192,25334,1,0,0:0:0:0:
192,192,25334,1,0,0:0:0:0:
64,192,25334,1,0,0:0:0:0:
64,192,25687,1,0,0:0:0:0:
192,192,26040,1,0,0:0:0:0:
448,192,26040,1,0,0:0:0:0:
320,192,26040,1,0,0:0:0:0:
448,192,26392,1,0,0:0:0:0:
192,192,26392,1,0,0:0:0:0:
64,192,26392,1,0,0:0:0:0:
320,192,26745,1,0,0:0:0:0:
192,192,26922,1,0,0:0:0:0:
448,192,26922,1,0,0:0:0:0:
320,192,27098,1,0,0:0:0:0:
192,192,27451,1,0,0:0:0:0:
448,192,27451,1,0,0:0:0:0:
64,192,27451,1,0,0:0:0:0:
320,192,27804,1,0,0:0:0:0:
192,192,27804,1,0,0:0:0:0:
64,192,28157,1,0,0:0:0:0:
448,192,28157,1,0,0:0:0:0:
320,192,28157,1,0,0:0:0:0:
320,192,28510,1,0,0:0:0:0:
64,192,28863,1,0,0:0:0:0:
448,192,28863,1,0,0:0:0:0:
192,192,28863,1,0,0:0:0:0:
64,192,29216,1,0,0:0:0:0:
448,192,29216,1,0,0:0:0:0:
320,192,29216,1,0,0:0:0:0:
192,192,29569,1,0,0:0:0:0:
64,192,29745,1,0,0:0:0:0:
448,192,29745,1,0,0:0:0:0:
320,192,29922,1,0,0:0:0:0:
64,192,30275,1,0,0:0:0:0:
448,192,30275,1,0,0:0:0:0:
320,192,30275,1,0,0:0:0:0:
192,192,30628,1,0,0:0:0:0:
448,192,30628,1,0,0:0:0:0:
64,192,30981,1,0,0:0:0:0:
320,192,30981,1,0,0:0:0:0:
448,192,30981,1,0,0:0:0:0:
192,192,31334,1,0,0:0:0:0:
64,192,31687,1,0,0:0:0:0:
320,192,31687,1,0,0:0:0:0:
448,192,31687,1,0,0:0:0:0:
192,192,32040,1,0,0:0:0:0:
320,192,32040,1,0,0:0:0:0:
64,192,32392,1,0,0:0:0:0:
448,192,32392,1,0,0:0:0:0:
320,192,32392,1,0,0:0:0:0:
192,192,32745,1,0,0:0:0:0:
320,192,32922,1,0,0:0:0:0:
192,192,33098,1,0,0:0:0:0:
448,192,33098,1,0,0:0:0:0:
64,192,33451,1,0,0:0:0:0:
320,192,33451,1,0,0:0:0:0:
320,192,33804,1,0,0:0:0:0:
448,192,33804,1,0,0:0:0:0:
192,192,33804,1,0,0:0:0:0:
64,192,34157,1,0,0:0:0:0:
320,192,34334,1,0,0:0:0:0:
448,192,34334,1,0,0:0:0:0:
192,192,34510,1,0,0:0:0:0:
320,192,34687,1,0,0:0:0:0:
448,192,34687,1,0,0:0:0:0:
64,192,34687,1,0,0:0:0:0:
192,192,35040,1,0,0:0:0:0:
448,192,35216,1,0,0:0:0:0:
320,192,35216,1,0,0:0:0:0:
64,192,35392,1,0,0:0:0:0:
448,192,35569,1,0,0:0:0:0:
192,192,35569,1,0,0:0:0:0:
320,192,35745,1,0,0:0:0:0:
192,192,35922,1,0,0:0:0:0:
448,192,35922,1,0,0:0:0:0:
64,192,36098,1,0,0:0:0:0:
320,192,36275,1,0,0:0:0:0:
192,192,36275,1,0,0:0:0:0:
448,192,36628,1,0,0:0:0:0:
192,192,36628,1,0,0:0:0:0:
64,192,36628,1,0,0:0:0:0:
320,192,36981,1,0,0:0:0:0:
192,192,37334,1,0,0:0:0:0:
448,192,37334,1,0,0:0:0:0:
320,192,37334,1,0,0:0:0:0:
448,192,37687,1,0,0:0:0:0:
192,192,37687,1,0,0:0:0:0:
64,192,37687,1,0,0:0:0:0:
320,192,38040,1,0,0:0:0:0:
192,192,38216,1,0,0:0:0:0:
448,192,38216,1,0,0:0:0:0:
320,192,38392,1,0,0:0:0:0:
192,192,38745,1,0,0:0:0:0:
448,192,38745,1,0,0:0:0:0:
64,192,38745,1,0,0:0:0:0:
320,192,39098,1,0,0:0:0:0:
192,192,39098,1,0,0:0:0:0:
64,192,39451,1,0,0:0:0:0:
448,192,39451,1,0,0:0:0:0:
320,192,39451,1,0,0:0:0:0:
192,192,39804,1,0,0:0:0:0:
64,192,40157,1,0,0:0:0:0:
448,192,40157,1,0,0:0:0:0:
192,192,40157,1,0,0:0:0:0:
64,192,40510,1,0,0:0:0:0:
448,192,40510,1,0,0:0:0:0:
320,192,40510,1,0,0:0:0:0:
192,192,40863,1,0,0:0:0:0:
64,192,41040,1,0,0:0:0:0:
448,192,41040,1,0,0:0:0:0:
320,192,41216,1,0,0:0:0:0:
64,192,41569,1,0,0:0:0:0:
448,192,41569,1,0,0:0:0:0:
320,192,41569,1,0,0:0:0:0:
192,192,41922,1,0,0:0:0:0:
448,192,41922,1,0,0:0:0:0:
64,192,42275,1,0,0:0:0:0:
320,192,42275,1,0,0:0:0:0:
448,192,42275,1,0,0:0:0:0:
192,192,42628,1,0,0:0:0:0:
64,192,42981,1,0,0:0:0:0:
320,192,42981,1,0,0:0:0:0:
192,192,42981,1,0,0:0:0:0:
192,192,43334,1,0,0:0:0:0:
448,192,43334,1,0,0:0:0:0:
64,192,43687,1,0,0:0:0:0:
448,192,43687,1,0,0:0:0:0:
320,192,43687,1,0,0:0:0:0:
192,192,44040,1,0,0:0:0:0:
320,192,44216,1,0,0:0:0:0:
192,192,44392,1,0,0:0:0:0:
64,192,44392,1,0,0:0:0:0:
64,192,44745,1,0,0:0:0:0:
320,192,44745,1,0,0:0:0:0:
320,192,45098,5,0,0:0:0:0:
448,192,45098,1,0,0:0:0:0:
192,192,45098,1,0,0:0:0:0:
64,192,45451,1,0,0:0:0:0:
320,192,45628,1,0,0:0:0:0:
448,192,45628,1,0,0:0:0:0:
64,192,45804,1,0,0:0:0:0:
320,192,45981,1,0,0:0:0:0:
448,192,45981,1,0,0:0:0:0:
192,192,45981,1,0,0:0:0:0:
64,192,46157,5,0,0:0:0:0:
192,192,46334,1,0,0:0:0:0:
448,192,46510,1,0,0:0:0:0:
320,192,46510,1,0,0:0:0:0:
64,192,46687,1,0,0:0:0:0:
448,192,46863,1,0,0:0:0:0:
192,192,46863,1,0,0:0:0:0:
320,192,47040,1,0,0:0:0:0:
192,192,47216,1,0,0:0:0:0:
448,192,47216,1,0,0:0:0:0:
64,192,47392,1,0,0:0:0:0:
192,192,47569,1,0,0:0:0:0:
320,192,47569,1,0,0:0:0:0:
448,192,47657,1,0,0:0:0:0:
64,192,47745,1,0,0:0:0:0:
192,192,47834,1,0,0:0:0:0:
448,192,47922,1,0,0:0:0:0:
320,192,47922,1,0,0:0:0:0:
192,192,48010,1,0,0:0:0:0:
64,192,48098,1,0,0:0:0:0:
448,192,48098,1,0,0:0:0:0:
320,192,48275,1,0,0:0:0:0:
64,192,48451,1,0,0:0:0:0:
192,192,48451,1,0,0:0:0:0:
448,192,48628,1,0,0:0:0:0:
64,192,48981,1,0,0:0:0:0:
448,192,48981,1,0,0:0:0:0:
192,192,49069,1,0,0:0:0:0:
448,192,49157,1,0,0:0:0:0:
320,192,49245,1,0,0:0:0:0:
192,192,49334,1,0,0:0:0:0:
64,192,49334,1,0,0:0:0:0:
320,192,49422,1,0,0:0:0:0:
448,192,49510,1,0,0:0:0:0:
192,192,49510,1,0,0:0:0:0:
64,192,49687,1,0,0:0:0:0:
320,192,49863,1,0,0:0:0:0:
448,192,49863,1,0,0:0:0:0:
64,192,50040,1,0,0:0:0:0:
192,192,50392,1,0,0:0:0:0:
448,192,50392,1,0,0:0:0:0:
320,192,50745,1,0,0:0:0:0:
192,192,50745,1,0,0:0:0:0:
64,192,50922,1,0,0:0:0:0:
448,192,50922,1,0,0:0:0:0:
192,192,51098,1,0,0:0:0:0:
64,192,51275,1,0,0:0:0:0:
448,192,51275,1,0,0:0:0:0:
448,192,51451,1,0,0:0:0:0:
192,192,51628,1,0,0:0:0:0:
320,192,51628,1,0,0:0:0:0:
64,192,51804,1,0,0:0:0:0:
192,192,51981,1,0,0:0:0:0:
320,192,51981,1,0,0:0:0:0:
448,192,52157,1,0,0:0:0:0:
64,192,52334,1,0,0:0:0:0:
320,192,52510,1,0,0:0:0:0:
448,192,52510,1,0,0:0:0:0:
192,192,52510,1,0,0:0:0:0:
192,192,52863,1,0,0:0:0:0:
320,192,52863,1,0,0:0:0:0:
448,192,52863,1,0,0:0:0:0:
64,192,53216,1,0,0:0:0:0:
192,192,53216,1,0,0:0:0:0:
320,192,53216,1,0,0:0:0:0:
448,192,53569,1,0,0:0:0:0:
320,192,53922,1,0,0:0:0:0:
64,192,54098,1,0,0:0:0:0:
192,192,54275,1,0,0:0:0:0:
320,192,54275,1,0,0:0:0:0:
448,192,54451,1,0,0:0:0:0:
320,192,54628,1,0,0:0:0:0:
64,192,54628,1,0,0:0:0:0:
192,192,54981,1,0,0:0:0:0:
320,192,55334,1,0,0:0:0:0:
64,192,55510,1,0,0:0:0:0:
192,192,55687,1,0,0:0:0:0:
320,192,55687,1,0,0:0:0:0:
448,192,55863,1,0,0:0:0:0:
320,192,56040,1,0,0:0:0:0:
64,192,56040,1,0,0:0:0:0:
448,192,56392,1,0,0:0:0:0:
64,192,56392,1,0,0:0:0:0:
192,192,56569,1,0,0:0:0:0:
320,192,56745,1,0,0:0:0:0:
64,192,56922,1,0,0:0:0:0:
448,192,57098,1,0,0:0:0:0:
320,192,57275,1,0,0:0:0:0:
192,192,57275,1,0,0:0:0:0:
320,192,57628,1,0,0:0:0:0:
64,192,57804,1,0,0:0:0:0:
192,192,57804,1,0,0:0:0:0:
448,192,57981,1,0,0:0:0:0:
320,192,58157,1,0,0:0:0:0:
64,192,58157,1,0,0:0:0:0:
192,192,58334,1,0,0:0:0:0:
64,192,58510,1,0,0:0:0:0:
448,192,58510,1,0,0:0:0:0:
320,192,58687,1,0,0:0:0:0:
64,192,58863,1,0,0:0:0:0:
448,192,58863,1,0,0:0:0:0:
192,192,58951,1,0,0:0:0:0:
320,192,59040,1,0,0:0:0:0:
192,192,59128,1,0,0:0:0:0:
320,192,59216,1,0,0:0:0:0:
64,192,59216,1,0,0:0:0:0:
448,192,59304,1,0,0:0:0:0:
64,192,59392,1,0,0:0:0:0:
320,192,59392,1,0,0:0:0:0:
192,192,59569,1,0,0:0:0:0:
64,192,59745,1,0,0:0:0:0:
320,192,59745,1,0,0:0:0:0:
448,192,59922,1,0,0:0:0:0:
64,192,60275,1,0,0:0:0:0:
448,192,60275,1,0,0:0:0:0:
192,192,60363,1,0,0:0:0:0:
320,192,60451,1,0,0:0:0:0:
192,192,60540,1,0,0:0:0:0:
320,192,60628,1,0,0:0:0:0:
64,192,60628,1,0,0:0:0:0:
448,192,60716,1,0,0:0:0:0:
64,192,60804,1,0,0:0:0:0:
320,192,60804,1,0,0:0:0:0:
192,192,60981,1,0,0:0:0:0:
320,192,61157,1,0,0:0:0:0:
64,192,61157,1,0,0:0:0:0:
64,192,61334,1,0,0:0:0:0:
320,192,61334,1,0,0:0:0:0:
448,192,61334,1,0,0:0:0:0:
192,192,61687,1,0,0:0:0:0:
64,192,61687,1,0,0:0:0:0:
320,192,62040,1,0,0:0:0:0:
448,192,62040,1,0,0:0:0:0:
192,192,62040,1,0,0:0:0:0:
320,192,62392,1,0,0:0:0:0:
64,192,62569,1,0,0:0:0:0:
192,192,62569,1,0,0:0:0:0:
448,192,62745,1,0,0:0:0:0:
192,192,62922,1,0,0:0:0:0:
320,192,62922,1,0,0:0:0:0:
64,192,63098,1,0,0:0:0:0:
192,192,63275,1,0,0:0:0:0:
320,192,63275,1,0,0:0:0:0:
448,192,63451,1,0,0:0:0:0:
64,192,63628,1,0,0:0:0:0:
320,192,63804,1,0,0:0:0:0:
448,192,63804,1,0,0:0:0:0:
192,192,63804,1,0,0:0:0:0:
192,192,64157,1,0,0:0:0:0:
448,192,64157,1,0,0:0:0:0:
64,192,64510,1,0,0:0:0:0:
320,192,64510,1,0,0:0:0:0:
192,192,64863,1,0,0:0:0:0:
320,192,65216,1,0,0:0:0:0:
64,192,65216,1,0,0:0:0:0:
448,192,65569,1,0,0:0:0:0:
192,192,65745,1,0,0:0:0:0:
448,192,65922,1,0,0:0:0:0:
320,192,65922,1,0,0:0:0:0:
64,192,66275,1,0,0:0:0:0:
192,192,66628,1,0,0:0:0:0:
448,192,66981,1,0,0:0:0:0:
320,192,67334,1,0,0:0:0:0:
192,192,67334,1,0,0:0:0:0:
64,192,67687,1,0,0:0:0:0:
448,192,67687,1,0,0:0:0:0:
320,192,68040,1,0,0:0:0:0:
192,192,68216,1,0,0:0:0:0:
448,192,68392,1,0,0:0:0:0:
64,192,68392,1,0,0:0:0:0:
320,192,68569,1,0,0:0:0:0:
64,192,68745,1,0,0:0:0:0:
320,192,69098,5,0,0:0:0:0:
448,192,69098,1,0,0:0:0:0:
192,192,69275,1,0,0:0:0:0:
64,192,69451,1,0,0:0:0:0:
320,192,69628,1,0,0:0:0:0:
192,192,69716,1,0,0:0:0:0:
320,192,69804,1,0,0:0:0:0:
192,192,69892,1,0,0:0:0:0:
320,192,69981,1,0,0:0:0:0:
192,192,70069,1,0,0:0:0:0:
64,192,70157,5,0,3:0:0:0:
448,192,70157,1,0,3:0:0:0:
320,192,70157,1,0,3:0:0:0:
320,192,71040,1,0,3:0:0:0:
192,192,71128,1,0,3:0:0:0:
320,192,71216,1,0,3:0:0:0:
192,192,71304,1,0,3:0:0:0:
320,192,71392,1,0,3:0:0:0:
64,192,71569,5,0,0:0:0:0:
448,192,71569,1,0,0:0:0:0:
192,192,71569,1,0,0:0:0:0:
320,192,71922,1,0,0:0:0:0:
448,192,71922,1,0,0:0:0:0:
64,192,72098,1,0,0:0:0:0:
192,192,72275,1,0,0:0:0:0:
320,192,72275,1,0,0:0:0:0:
448,192,72451,1,0,0:0:0:0:
64,192,72628,1,0,0:0:0:0:
192,192,72628,1,0,0:0:0:0:
320,192,72804,1,0,0:0:0:0:
64,192,72981,1,0,0:0:0:0:
448,192,73157,1,0,0:0:0:0:
192,192,73334,1,0,0:0:0:0:
64,192,73334,1,0,0:0:0:0:
320,192,73510,1,0,0:0:0:0:
448,192,73687,1,0,0:0:0:0:
64,192,73863,1,0,0:0:0:0:
320,192,73863,1,0,0:0:0:0:
192,192,74040,1,0,0:0:0:0:
448,192,74040,1,0,0:0:0:0:
64,192,74040,1,0,0:0:0:0:
320,192,74216,1,0,0:0:0:0:
448,192,74392,1,0,0:0:0:0:
64,192,74392,1,0,0:0:0:0:
192,192,74745,1,0,0:0:0:0:
320,192,74745,1,0,0:0:0:0:
192,192,74922,1,0,0:0:0:0:
448,192,75098,1,0,0:0:0:0:
64,192,75275,1,0,0:0:0:0:
192,192,75451,1,0,0:0:0:0:
320,192,75451,1,0,0:0:0:0:
448,192,75628,1,0,0:0:0:0:
320,192,75804,1,0,0:0:0:0:
64,192,75804,1,0,0:0:0:0:
192,192,76157,1,0,0:0:0:0:
448,192,76157,1,0,0:0:0:0:
64,192,76334,1,0,0:0:0:0:
448,192,76510,1,0,0:0:0:0:
320,192,76687,1,0,0:0:0:0:
192,192,76687,1,0,0:0:0:0:
64,192,76863,1,0,0:0:0:0:
448,192,76863,1,0,0:0:0:0:
192,192,77040,1,0,0:0:0:0:
448,192,77216,1,0,0:0:0:0:
320,192,77216,1,0,0:0:0:0:
64,192,77216,1,0,0:0:0:0:
64,192,77569,1,0,0:0:0:0:
448,192,77569,1,0,0:0:0:0:
192,192,77745,1,0,0:0:0:0:
448,192,77922,1,0,0:0:0:0:
320,192,78098,1,0,0:0:0:0:
64,192,78187,1,0,0:0:0:0:
448,192,78275,1,0,0:0:0:0:
320,192,78275,1,0,0:0:0:0:
192,192,78451,1,0,0:0:0:0:
448,192,78628,1,0,0:0:0:0:
64,192,78628,1,0,0:0:0:0:
320,192,78804,1,0,0:0:0:0:
64,192,78981,1,0,0:0:0:0:
448,192,78981,1,0,0:0:0:0:
192,192,79157,1,0,0:0:0:0:
64,192,79334,1,0,0:0:0:0:
320,192,79510,1,0,0:0:0:0:
192,192,79510,1,0,0:0:0:0:
192,192,79687,1,0,0:0:0:0:
448,192,79687,1,0,0:0:0:0:
320,192,79687,1,0,0:0:0:0:
64,192,79863,1,0,0:0:0:0:
448,192,80040,1,0,0:0:0:0:
192,192,80040,1,0,0:0:0:0:
320,192,80216,1,0,0:0:0:0:
448,192,80392,1,0,0:0:0:0:
64,192,80569,1,0,0:0:0:0:
320,192,80745,1,0,0:0:0:0:
192,192,80922,1,0,0:0:0:0:
320,192,81010,1,0,0:0:0:0:
192,192,81098,1,0,0:0:0:0:
64,192,81098,1,0,0:0:0:0:
448,192,81275,1,0,0:0:0:0:
320,192,81451,1,0,0:0:0:0:
192,192,81451,1,0,0:0:0:0:
448,192,81628,1,0,0:0:0:0:
320,192,81716,1,0,0:0:0:0:
64,192,81804,1,0,0:0:0:0:
192,192,81804,1,0,0:0:0:0:
448,192,81981,1,0,0:0:0:0:
320,192,81981,1,0,0:0:0:0:
192,192,82334,1,0,0:0:0:0:
64,192,82334,1,0,0:0:0:0:
320,192,82510,1,0,0:0:0:0:
192,192,82598,1,0,0:0:0:0:
448,192,82687,1,0,0:0:0:0:
320,192,82775,1,0,0:0:0:0:
64,192,82863,5,0,0:0:0:0:
448,192,82863,1,0,0:0:0:0:
192,192,82863,1,0,0:0:0:0:
320,192,83216,1,0,0:0:0:0:
448,192,83216,1,0,0:0:0:0:
64,192,83392,1,0,0:0:0:0:
192,192,83569,1,0,0:0:0:0:
320,192,83569,1,0,0:0:0:0:
448,192,83745,1,0,0:0:0:0:
64,192,83922,1,0,0:0:0:0:
320,192,83922,1,0,0:0:0:0:
192,192,84098,1,0,0:0:0:0:
448,192,84275,1,0,0:0:0:0:
64,192,84275,1,0,0:0:0:0:
320,192,84451,1,0,0:0:0:0:
192,192,84628,1,0,0:0:0:0:
448,192,84628,1,0,0:0:0:0:
320,192,84804,1,0,0:0:0:0:
192,192,84981,1,0,0:0:0:0:
64,192,85157,1,0,0:0:0:0:
320,192,85157,1,0,0:0:0:0:
192,192,85334,1,0,0:0:0:0:
448,192,85334,1,0,0:0:0:0:
64,192,85334,1,0,0:0:0:0:
320,192,85510,1,0,0:0:0:0:
448,192,85687,1,0,0:0:0:0:
64,192,85687,1,0,0:0:0:0:
192,192,86040,1,0,0:0:0:0:
320,192,86040,1,0,0:0:0:0:
192,192,86216,1,0,0:0:0:0:
448,192,86392,1,0,0:0:0:0:
64,192,86569,1,0,0:0:0:0:
192,192,86745,1,0,0:0:0:0:
320,192,86745,1,0,0:0:0:0:
448,192,86922,1,0,0:0:0:0:
320,192,87098,1,0,0:0:0:0:
64,192,87098,1,0,0:0:0:0:
192,192,87451,1,0,0:0:0:0:
448,192,87451,1,0,0:0:0:0:
64,192,87628,1,0,0:0:0:0:
448,192,87804,1,0,0:0:0:0:
320,192,87981,1,0,0:0:0:0:
192,192,87981,1,0,0:0:0:0:
64,192,88157,1,0,0:0:0:0:
320,192,88157,1,0,0:0:0:0:
192,192,88334,1,0,0:0:0:0:
448,192,88510,1,0,0:0:0:0:
320,192,88510,1,0,0:0:0:0:
64,192,88510,1,0,0:0:0:0:
64,192,88863,1,0,0:0:0:0:
448,192,88863,1,0,0:0:0:0:
192,192,89040,1,0,0:0:0:0:
448,192,89216,1,0,0:0:0:0:
320,192,89392,1,0,0:0:0:0:
64,192,89481,1,0,0:0:0:0:
448,192,89569,1,0,0:0:0:0:
192,192,89569,1,0,0:0:0:0:
192,192,89745,1,0,0:0:0:0:
448,192,89922,1,0,0:0:0:0:
64,192,89922,1,0,0:0:0:0:
320,192,90098,1,0,0:0:0:0:
64,192,90275,1,0,0:0:0:0:
448,192,90275,1,0,0:0:0:0:
192,192,90451,1,0,0:0:0:0:
64,192,90628,1,0,0:0:0:0:
320,192,90804,1,0,0:0:0:0:
448,192,90804,1,0,0:0:0:0:
192,192,90981,1,0,0:0:0:0:
448,192,90981,1,0,0:0:0:0:
64,192,90981,1,0,0:0:0:0:
64,192,91157,1,0,0:0:0:0:
448,192,91334,1,0,0:0:0:0:
192,192,91334,1,0,0:0:0:0:
320,192,91510,1,0,0:0:0:0:
192,192,91687,1,0,0:0:0:0:
64,192,91863,1,0,0:0:0:0:
448,192,92040,1,0,0:0:0:0:
192,192,92216,1,0,0:0:0:0:
320,192,92304,1,0,0:0:0:0:
192,192,92392,1,0,0:0:0:0:
64,192,92392,1,0,0:0:0:0:
448,192,92569,1,0,0:0:0:0:
320,192,92745,1,0,0:0:0:0:
192,192,92745,1,0,0:0:0:0:
448,192,92922,1,0,0:0:0:0:
192,192,93010,1,0,0:0:0:0:
64,192,93098,1,0,0:0:0:0:
320,192,93098,1,0,0:0:0:0:
448,192,93275,1,0,0:0:0:0:
192,192,93275,1,0,0:0:0:0:
320,192,93451,1,0,0:0:0:0:
448,192,93540,1,0,0:0:0:0:
192,192,93628,1,0,0:0:0:0:
64,192,93628,1,0,0:0:0:0:
320,192,93804,1,0,0:0:0:0:
192,192,93892,1,0,0:0:0:0:
64,192,93981,1,0,0:0:0:0:
320,192,94069,1,0,0:0:0:0:
64,192,94157,1,0,0:0:0:0:
192,192,94157,1,0,0:0:0:0:
448,192,94157,1,0,0:0:0:0:
448,192,94510,1,0,0:0:0:0:
192,192,94510,1,0,0:0:0:0:
320,192,94687,1,0,0:0:0:0:
448,192,94863,1,0,0:0:0:0:
192,192,95040,1,0,0:0:0:0:
64,192,95216,1,0,0:0:0:0:
448,192,95216,1,0,0:0:0:0:
320,192,95392,1,0,0:0:0:0:
192,192,95569,1,0,0:0:0:0:
64,192,95569,1,0,0:0:0:0:
448,192,95922,1,0,0:0:0:0:
320,192,95922,1,0,0:0:0:0:
64,192,96275,1,0,0:0:0:0:
192,192,96275,1,0,0:0:0:0:
448,192,96628,1,0,0:0:0:0:
320,192,96628,1,0,0:0:0:0:
320,192,96981,1,0,0:0:0:0:
64,192,96981,1,0,0:0:0:0:
192,192,97334,1,0,0:0:0:0:
448,192,97687,1,0,0:0:0:0:
192,192,98040,1,0,0:0:0:0:
320,192,98040,1,0,0:0:0:0:
448,192,98128,1,0,0:0:0:0:
64,192,98216,1,0,0:0:0:0:
192,192,98304,1,0,0:0:0:0:
320,192,98392,1,0,0:0:0:0:
448,192,98392,1,0,0:0:0:0:
320,192,98657,1,0,0:0:0:0:
192,192,98657,1,0,0:0:0:0:
64,192,98922,1,0,0:0:0:0:
192,192,98922,1,0,0:0:0:0:
64,192,99098,1,0,0:0:0:0:
320,192,99098,1,0,0:0:0:0:
192,192,99363,1,0,0:0:0:0:
448,192,99363,1,0,0:0:0:0:
320,192,99628,1,0,0:0:0:0:
192,192,99628,1,0,0:0:0:0:
448,192,99804,1,0,0:0:0:0:
192,192,99804,1,0,0:0:0:0:
64,192,99981,1,0,0:0:0:0:
320,192,99981,1,0,0:0:0:0:
320,192,100157,1,0,0:0:0:0:
448,192,100157,1,0,0:0:0:0:
192,192,100334,1,0,0:0:0:0:
320,192,100510,1,0,0:0:0:0:
64,192,100510,1,0,0:0:0:0:
448,192,100687,1,0,0:0:0:0:
64,192,100687,1,0,0:0:0:0:
192,192,100863,1,0,0:0:0:0:
320,192,100863,1,0,0:0:0:0:
64,192,101040,1,0,0:0:0:0:
448,192,101040,1,0,0:0:0:0:
320,192,101216,1,0,0:0:0:0:
448,192,101392,1,0,0:0:0:0:
192,192,101392,1,0,0:0:0:0:
192,192,101569,1,0,0:0:0:0:
320,192,101569,1,0,0:0:0:0:
64,192,101745,1,0,0:0:0:0:
448,192,101745,1,0,0:0:0:0:
448,192,101922,1,0,0:0:0:0:
320,192,101922,1,0,0:0:0:0:
192,192,102098,1,0,0:0:0:0:
64,192,102098,1,0,0:0:0:0:
320,192,102098,1,0,0:0:0:0:
320,192,102275,1,0,0:0:0:0:
448,192,102275,1,0,0:0:0:0:
192,192,102275,1,0,0:0:0:0:
64,192,102451,1,0,0:0:0:0:
448,192,102451,1,0,0:0:0:0:
192,192,102628,1,0,0:0:0:0:
64,192,102804,1,0,0:0:0:0:
448,192,102804,1,0,0:0:0:0:
320,192,102981,1,0,0:0:0:0:
448,192,102981,1,0,0:0:0:0:
320,192,103157,1,0,0:0:0:0:
64,192,103157,1,0,0:0:0:0:
320,192,103334,1,0,0:0:0:0:
192,192,103334,1,0,0:0:0:0:
448,192,103510,1,0,0:0:0:0:
64,192,103510,1,0,0:0:0:0:
192,192,103687,1,0,0:0:0:0:
320,192,103687,1,0,0:0:0:0:
64,192,103863,1,0,0:0:0:0:
448,192,103863,1,0,0:0:0:0:
320,192,104040,1,0,0:0:0:0:
448,192,104216,1,0,0:0:0:0:
64,192,104216,1,0,0:0:0:0:
192,192,104392,1,0,0:0:0:0:
320,192,104392,1,0,0:0:0:0:
64,192,104569,1,0,0:0:0:0:
448,192,104569,1,0,0:0:0:0:
448,192,104745,1,0,0:0:0:0:
320,192,104745,1,0,0:0:0:0:
192,192,104922,1,0,0:0:0:0:
64,192,104922,1,0,0:0:0:0:
448,192,104922,1,0,0:0:0:0:
320,192,105098,1,0,0:0:0:0:
448,192,105098,1,0,0:0:0:0:
192,192,105098,1,0,0:0:0:0:
64,192,105275,1,0,0:0:0:0:
320,192,105275,1,0,0:0:0:0:
192,192,105451,1,0,0:0:0:0:
64,192,105628,1,0,0:0:0:0:
192,192,105628,1,0,0:0:0:0:
320,192,105804,1,0,0:0:0:0:
448,192,105804,1,0,0:0:0:0:
320,192,105981,1,0,0:0:0:0:
192,192,105981,1,0,0:0:0:0:
320,192,106157,1,0,0:0:0:0:
64,192,106157,1,0,0:0:0:0:
448,192,106334,1,0,0:0:0:0:
192,192,106334,1,0,0:0:0:0:
192,192,106510,1,0,0:0:0:0:
320,192,106510,1,0,0:0:0:0:
64,192,106687,1,0,0:0:0:0:
448,192,106687,1,0,0:0:0:0:
320,192,106863,1,0,0:0:0:0:
448,192,107040,1,0,0:0:0:0:
64,192,107040,1,0,0:0:0:0:
192,192,107216,1,0,0:0:0:0:
320,192,107216,1,0,0:0:0:0:
64,192,107392,1,0,0:0:0:0:
192,192,107392,1,0,0:0:0:0:
448,192,107569,1,0,0:0:0:0:
320,192,107569,1,0,0:0:0:0:
192,192,107745,1,0,0:0:0:0:
64,192,107745,1,0,0:0:0:0:
448,192,107745,1,0,0:0:0:0:
320,192,107922,1,0,0:0:0:0:
448,192,107922,1,0,0:0:0:0:
192,192,107922,1,0,0:0:0:0:
64,192,108098,1,0,0:0:0:0:
320,192,108098,1,0,0:0:0:0:
448,192,108275,1,0,0:0:0:0:
64,192,108451,1,0,0:0:0:0:
192,192,108451,1,0,0:0:0:0:
320,192,108628,1,0,0:0:0:0:
448,192,108628,1,0,0:0:0:0:
320,192,108804,1,0,0:0:0:0:
64,192,108804,1,0,0:0:0:0:
320,192,108981,1,0,0:0:0:0:
192,192,108981,1,0,0:0:0:0:
448,192,109157,1,0,0:0:0:0:
64,192,109157,1,0,0:0:0:0:
192,192,109334,1,0,0:0:0:0:
320,192,109334,1,0,0:0:0:0:
64,192,109510,1,0,0:0:0:0:
448,192,109510,1,0,0:0:0:0:
320,192,109687,1,0,0:0:0:0:
448,192,109863,1,0,0:0:0:0:
64,192,109863,1,0,0:0:0:0:
192,192,109951,1,0,0:0:0:0:
320,192,110040,1,0,0:0:0:0:
64,192,110040,1,0,0:0:0:0:
192,192,110128,1,0,0:0:0:0:
64,192,110216,1,0,0:0:0:0:
448,192,110216,1,0,0:0:0:0:
448,192,110392,1,0,0:0:0:0:
320,192,110392,1,0,0:0:0:0:
192,192,110657,1,0,0:0:0:0:
320,192,110657,1,0,0:0:0:0:
64,192,110922,1,0,0:0:0:0:
448,192,110922,1,0,0:0:0:0:
192,192,111010,1,0,0:0:0:0:
320,192,111098,1,0,0:0:0:0:
64,192,111098,1,0,0:0:0:0:
448,192,111098,1,0,0:0:0:0:
448,192,112334,1,0,0:0:0:0:
192,192,112422,1,0,0:0:0:0:
64,192,112510,1,0,0:0:0:0:
448,192,113392,1,0,0:0:0:0:
192,192,113569,1,0,0:0:0:0:
320,192,113745,1,0,0:0:0:0:
448,192,113922,1,0,0:0:0:0:
192,192,113922,1,0,0:0:0:0:
64,192,113922,1,0,0:0:0:0:
64,192,115157,1,0,0:0:0:0:
192,192,115245,1,0,0:0:0:0:
320,192,115334,1,0,0:0:0:0:
448,192,116040,1,0,0:0:0:0:
320,192,116216,1,0,0:0:0:0:
192,192,116216,1,0,0:0:0:0:
448,192,116392,1,0,0:0:0:0:
320,192,116481,1,0,0:0:0:0:
192,192,116569,1,0,0:0:0:0:
64,192,116657,1,0,0:0:0:0:
320,192,116745,1,0,0:0:0:0:
448,192,116745,1,0,0:0:0:0:
192,192,116922,1,0,0:0:0:0:
64,192,117098,1,0,0:0:0:0:
192,192,117098,1,0,0:0:0:0:
448,192,117098,1,0,0:0:0:0:
448,192,117275,1,0,0:0:0:0:
320,192,117451,1,0,0:0:0:0:
64,192,117628,1,0,0:0:0:0:
64,192,117804,1,0,0:0:0:0:
192,192,117804,1,0,0:0:0:0:
448,192,117804,1,0,0:0:0:0:
320,192,117981,1,0,0:0:0:0:
320,192,118157,1,0,0:0:0:0:
192,192,118157,1,0,0:0:0:0:
448,192,118334,1,0,0:0:0:0:
64,192,118510,1,0,0:0:0:0:
448,192,118510,1,0,0:0:0:0:
192,192,118510,1,0,0:0:0:0:
320,192,118687,1,0,0:0:0:0:
320,192,118863,1,0,0:0:0:0:
192,192,119040,1,0,0:0:0:0:
64,192,119040,1,0,0:0:0:0:
320,192,119216,1,0,0:0:0:0:
448,192,119216,1,0,0:0:0:0:
192,192,119392,1,0,0:0:0:0:
64,192,119569,1,0,0:0:0:0:
192,192,119569,1,0,0:0:0:0:
320,192,119745,1,0,0:0:0:0:
192,192,119922,1,0,0:0:0:0:
448,192,119922,1,0,0:0:0:0:
320,192,119922,1,0,0:0:0:0:
192,192,120098,1,0,0:0:0:0:
64,192,120275,1,0,0:0:0:0:
192,192,120451,1,0,0:0:0:0:
448,192,120451,1,0,0:0:0:0:
64,192,120451,1,0,0:0:0:0:
320,192,120628,1,0,0:0:0:0:
192,192,120804,1,0,0:0:0:0:
448,192,120804,1,0,0:0:0:0:
64,192,120804,1,0,0:0:0:0:
320,192,120804,1,0,0:0:0:0:
320,192,121157,1,0,0:0:0:0:
64,192,121157,1,0,0:0:0:0:
448,192,121334,1,0,0:0:0:0:
192,192,121334,1,0,0:0:0:0:
64,192,121510,1,0,0:0:0:0:
320,192,121510,1,0,0:0:0:0:
448,192,121687,1,0,0:0:0:0:
320,192,121687,1,0,0:0:0:0:
192,192,121863,1,0,0:0:0:0:
64,192,121863,1,0,0:0:0:0:
320,192,122040,1,0,0:0:0:0:
448,192,122040,1,0,0:0:0:0:
64,192,122216,1,0,0:0:0:0:
448,192,122216,1,0,0:0:0:0:
192,192,122392,1,0,0:0:0:0:
320,192,122392,1,0,0:0:0:0:
448,192,122569,1,0,0:0:0:0:
448,192,122745,1,0,0:0:0:0:
320,192,122745,1,0,0:0:0:0:
64,192,122745,1,0,0:0:0:0:
320,192,122922,1,0,0:0:0:0:
192,192,123098,1,0,0:0:0:0:
64,192,123275,1,0,0:0:0:0:
320,192,123451,1,0,0:0:0:0:
448,192,123451,1,0,0:0:0:0:
192,192,123451,1,0,0:0:0:0:
64,192,123628,1,0,0:0:0:0:
448,192,123804,1,0,0:0:0:0:
320,192,123804,1,0,0:0:0:0:
64,192,123804,1,0,0:0:0:0:
320,192,123981,1,0,0:0:0:0:
192,192,124157,1,0,0:0:0:0:
320,192,124334,1,0,0:0:0:0:
448,192,124334,1,0,0:0:0:0:
64,192,124334,1,0,0:0:0:0:
192,192,124510,1,0,0:0:0:0:
448,192,124687,1,0,0:0:0:0:
320,192,124863,1,0,0:0:0:0:
448,192,124863,1,0,0:0:0:0:
64,192,124863,1,0,0:0:0:0:
320,192,125040,1,0,0:0:0:0:
192,192,125216,1,0,0:0:0:0:
320,192,125216,1,0,0:0:0:0:
64,192,125392,1,0,0:0:0:0:
64,192,125569,1,0,0:0:0:0:
448,192,125569,1,0,0:0:0:0:
192,192,125569,1,0,0:0:0:0:
448,192,125745,1,0,0:0:0:0:
320,192,125922,1,0,0:0:0:0:
192,192,126098,1,0,0:0:0:0:
64,192,126275,1,0,0:0:0:0:
448,192,126275,1,0,0:0:0:0:
320,192,126275,1,0,0:0:0:0:
320,192,126451,1,0,0:0:0:0:
64,192,126628,1,0,0:0:0:0:
448,192,126628,1,0,0:0:0:0:
192,192,126628,1,0,0:0:0:0:
192,192,126804,1,0,0:0:0:0:
320,192,126981,1,0,0:0:0:0:
64,192,127157,1,0,0:0:0:0:
448,192,127157,1,0,0:0:0:0:
192,192,127157,1,0,0:0:0:0:
192,192,127334,1,0,0:0:0:0:
320,192,127510,1,0,0:0:0:0:
64,192,127687,1,0,0:0:0:0:
448,192,127687,1,0,0:0:0:0:
192,192,127687,1,0,0:0:0:0:
192,192,127863,1,0,0:0:0:0:
320,192,128040,1,0,0:0:0:0:
448,192,128040,1,0,0:0:0:0:
64,192,128216,1,0,0:0:0:0:
64,192,128392,1,0,0:0:0:0:
192,192,128392,1,0,0:0:0:0:
448,192,128392,1,0,0:0:0:0:
448,192,128569,1,0,0:0:0:0:
320,192,128745,1,0,0:0:0:0:
448,192,128922,1,0,0:0:0:0:
64,192,129098,1,0,0:0:0:0:
192,192,129098,1,0,0:0:0:0:
320,192,129098,1,0,0:0:0:0:
192,192,129275,1,0,0:0:0:0:
320,192,129451,1,0,0:0:0:0:
448,192,129451,1,0,0:0:0:0:
64,192,129628,1,0,0:0:0:0:
64,192,129804,1,0,0:0:0:0:
448,192,129804,1,0,0:0:0:0:
192,192,129804,1,0,0:0:0:0:
320,192,129981,1,0,0:0:0:0:
320,192,130157,1,0,0:0:0:0:
192,192,130334,1,0,0:0:0:0:
448,192,130334,1,0,0:0:0:0:
320,192,130510,1,0,0:0:0:0:
64,192,130510,1,0,0:0:0:0:
448,192,130687,1,0,0:0:0:0:
64,192,130863,1,0,0:0:0:0:
192,192,130863,1,0,0:0:0:0:
320,192,131040,1,0,0:0:0:0:
192,192,131216,5,0,0:0:0:0:
448,192,131216,1,0,0:0:0:0:
320,192,131216,1,0,0:0:0:0:
192,192,131392,1,0,0:0:0:0:
64,192,131569,1,0,0:0:0:0:
192,192,131745,1,0,0:0:0:0:
448,192,131745,1,0,0:0:0:0:
320,192,131745,1,0,0:0:0:0:
64,192,131922,1,0,0:0:0:0:
192,192,132098,1,0,0:0:0:0:
448,192,132098,1,0,0:0:0:0:
320,192,132098,1,0,0:0:0:0:
64,192,132098,1,0,0:0:0:0:
64,192,132275,5,0,0:0:0:0:
320,192,132451,1,0,0:0:0:0:
448,192,132451,1,0,0:0:0:0:
448,192,132628,1,0,0:0:0:0:
192,192,132628,1,0,0:0:0:0:
64,192,132804,1,0,0:0:0:0:
320,192,132804,1,0,0:0:0:0:
448,192,132981,1,0,0:0:0:0:
320,192,132981,1,0,0:0:0:0:
192,192,133157,1,0,0:0:0:0:
64,192,133157,1,0,0:0:0:0:
320,192,133334,1,0,0:0:0:0:
448,192,133334,1,0,0:0:0:0:
64,192,133510,1,0,0:0:0:0:
192,192,133510,1,0,0:0:0:0:
320,192,133687,1,0,0:0:0:0:
192,192,133687,1,0,0:0:0:0:
448,192,133775,1,0,0:0:0:0:
320,192,133863,1,0,0:0:0:0:
64,192,133951,1,0,0:0:0:0:
448,192,134040,5,0,0:0:0:0:
192,192,134040,1,0,0:0:0:0:
64,192,134216,1,0,0:0:0:0:
320,192,134216,1,0,0:0:0:0:
192,192,134392,1,0,0:0:0:0:
64,192,134569,1,0,0:0:0:0:
320,192,134569,1,0,0:0:0:0:
448,192,134745,1,0,0:0:0:0:
192,192,134922,1,0,0:0:0:0:
64,192,135098,1,0,0:0:0:0:
448,192,135098,1,0,0:0:0:0:
320,192,135187,1,0,0:0:0:0:
192,192,135275,1,0,0:0:0:0:
448,192,135363,1,0,0:0:0:0:
320,192,135451,1,0,0:0:0:0:
64,192,135451,1,0,0:0:0:0:
192,192,135628,1,0,0:0:0:0:
448,192,135628,1,0,0:0:0:0:
64,192,135804,1,0,0:0:0:0:
192,192,135981,1,0,0:0:0:0:
448,192,135981,1,0,0:0:0:0:
320,192,135981,1,0,0:0:0:0:
64,192,136157,1,0,0:0:0:0:
320,192,136157,1,0,0:0:0:0:
192,192,136334,1,0,0:0:0:0:
320,192,136510,1,0,0:0:0:0:
448,192,136510,1,0,0:0:0:0:
64,192,136687,1,0,0:0:0:0:
192,192,136863,1,0,0:0:0:0:
320,192,136863,1,0,0:0:0:0:
64,192,137040,1,0,0:0:0:0:
448,192,137040,1,0,0:0:0:0:
320,192,137216,1,0,0:0:0:0:
64,192,137392,1,0,0:0:0:0:
448,192,137392,1,0,0:0:0:0:
448,192,137569,1,0,0:0:0:0:
320,192,137745,1,0,0:0:0:0:
192,192,137745,1,0,0:0:0:0:
64,192,137922,1,0,0:0:0:0:
320,192,138098,1,0,0:0:0:0:
192,192,138098,1,0,0:0:0:0:
448,192,138275,1,0,0:0:0:0:
64,192,138451,1,0,0:0:0:0:
192,192,138628,1,0,0:0:0:0:
448,192,138628,1,0,0:0:0:0:
320,192,138628,1,0,0:0:0:0:
320,192,138804,1,0,0:0:0:0:
320,192,138981,1,0,0:0:0:0:
192,192,138981,1,0,0:0:0:0:
448,192,138981,1,0,0:0:0:0:
448,192,139157,1,0,0:0:0:0:
64,192,139334,1,0,0:0:0:0:
320,192,139334,1,0,0:0:0:0:
192,192,139334,1,0,0:0:0:0:
320,192,139510,1,0,0:0:0:0:
448,192,139687,1,0,0:0:0:0:
320,192,139863,1,0,0:0:0:0:
192,192,140040,1,0,0:0:0:0:
64,192,140216,1,0,0:0:0:0:
320,192,140392,1,0,0:0:0:0:
192,192,140392,1,0,0:0:0:0:
448,192,140569,1,0,0:0:0:0:
192,192,140745,1,0,0:0:0:0:
64,192,140745,1,0,0:0:0:0:
448,192,140922,1,0,0:0:0:0:
320,192,141098,1,0,0:0:0:0:
448,192,141275,1,0,0:0:0:0:
192,192,141451,1,0,0:0:0:0:
64,192,141628,1,0,0:0:0:0:
320,192,141804,1,0,0:0:0:0:
192,192,141804,1,0,0:0:0:0:
448,192,141981,1,0,0:0:0:0:
192,192,142157,1,0,0:0:0:0:
64,192,142157,1,0,0:0:0:0:
320,192,142334,1,0,0:0:0:0:
448,192,142510,1,0,0:0:0:0:
64,192,142510,1,0,0:0:0:0:
320,192,142687,1,0,0:0:0:0:
192,192,142863,1,0,0:0:0:0:
64,192,143040,1,0,0:0:0:0:
320,192,143128,1,0,0:0:0:0:
448,192,143216,1,0,0:0:0:0:
192,192,143392,1,0,0:0:0:0:
320,192,143392,1,0,0:0:0:0:
192,192,143745,1,0,0:0:0:0:
64,192,143922,1,0,0:0:0:0:
320,192,143922,1,0,0:0:0:0:
448,192,144098,1,0,0:0:0:0:
192,192,144275,1,0,0:0:0:0:
64,192,144275,1,0,0:0:0:0:
320,192,144451,1,0,0:0:0:0:
64,192,144628,1,0,0:0:0:0:
448,192,144628,1,0,0:0:0:0:
192,192,144804,1,0,0:0:0:0:
64,192,144981,1,0,0:0:0:0:
448,192,144981,1,0,0:0:0:0:
320,192,145069,1,0,0:0:0:0:
192,192,145157,1,0,0:0:0:0:
320,192,145245,1,0,0:0:0:0:
192,192,145334,1,0,0:0:0:0:
64,192,145334,1,0,0:0:0:0:
448,192,145422,1,0,0:0:0:0:
64,192,145510,1,0,0:0:0:0:
192,192,145510,1,0,0:0:0:0:
320,192,145687,1,0,0:0:0:0:
448,192,145775,1,0,0:0:0:0:
64,192,145863,1,0,0:0:0:0:
192,192,145863,1,0,0:0:0:0:
448,192,146040,1,0,0:0:0:0:
320,192,146040,1,0,0:0:0:0:
192,192,146216,1,0,0:0:0:0:
64,192,146392,1,0,0:0:0:0:
448,192,146392,1,0,0:0:0:0:
320,192,146481,1,0,0:0:0:0:
192,192,146569,1,0,0:0:0:0:
320,192,146657,1,0,0:0:0:0:
192,192,146745,1,0,0:0:0:0:
64,192,146745,1,0,0:0:0:0:
448,192,146834,1,0,0:0:0:0:
64,192,146922,1,0,0:0:0:0:
192,192,146922,1,0,0:0:0:0:
320,192,147098,1,0,0:0:0:0:
448,192,147187,1,0,0:0:0:0:
192,192,147275,1,0,0:0:0:0:
64,192,147275,1,0,0:0:0:0:
64,192,147451,1,0,0:0:0:0:
192,192,147451,1,0,0:0:0:0:
448,192,147451,1,0,0:0:0:0:
320,192,147451,1,0,0:0:0:0:
448,192,147628,1,0,0:0:0:0:
320,192,147804,1,0,0:0:0:0:
64,192,147804,1,0,0:0:0:0:
448,192,147981,1,0,0:0:0:0:
192,192,148157,1,0,0:0:0:0:
448,192,148157,1,0,0:0:0:0:
320,192,148157,1,0,0:0:0:0:
64,192,148334,1,0,0:0:0:0:
192,192,148510,1,0,0:0:0:0:
448,192,148598,1,0,0:0:0:0:
64,192,148687,1,0,0:0:0:0:
320,192,148687,1,0,0:0:0:0:
448,192,148863,1,0,0:0:0:0:
64,192,148863,1,0,0:0:0:0:
320,192,149040,1,0,0:0:0:0:
192,192,149040,1,0,0:0:0:0:
64,192,149216,1,0,0:0:0:0:
320,192,149392,1,0,0:0:0:0:
192,192,149392,1,0,0:0:0:0:
448,192,149569,1,0,0:0:0:0:
64,192,149745,1,0,0:0:0:0:
192,192,149922,1,0,0:0:0:0:
448,192,149922,1,0,0:0:0:0:
320,192,149922,1,0,0:0:0:0:
320,192,150275,1,0,0:0:0:0:
448,192,150275,1,0,0:0:0:0:
64,192,150628,1,0,0:0:0:0:
192,192,150628,1,0,0:0:0:0:
448,192,150804,1,0,0:0:0:0:
320,192,150981,1,0,0:0:0:0:
448,192,151157,1,0,0:0:0:0:
192,192,151334,1,0,0:0:0:0:
64,192,151334,1,0,0:0:0:0:
320,192,151510,1,0,0:0:0:0:
448,192,151687,1,0,0:0:0:0:
320,192,151863,1,0,0:0:0:0:
64,192,151863,1,0,0:0:0:0:
448,192,152040,1,0,0:0:0:0:
192,192,152040,1,0,0:0:0:0:
320,192,152216,1,0,0:0:0:0:
64,192,152392,1,0,0:0:0:0:
192,192,152569,1,0,0:0:0:0:
320,192,152745,1,0,0:0:0:0:
64,192,152922,1,0,0:0:0:0:
448,192,153098,1,0,0:0:0:0:
64,192,153275,1,0,0:0:0:0:
192,192,153451,1,0,0:0:0:0:
320,192,153451,1,0,0:0:0:0:
320,192,153628,1,0,0:0:0:0:
64,192,153804,1,0,0:0:0:0:
448,192,153804,1,0,0:0:0:0:
320,192,153981,1,0,0:0:0:0:
192,192,154157,1,0,0:0:0:0:
320,192,154334,1,0,0:0:0:0:
448,192,154510,1,0,0:0:0:0:
64,192,154510,1,0,0:0:0:0:
192,192,154687,1,0,0:0:0:0:
64,192,154863,1,0,0:0:0:0:
320,192,155040,1,0,0:0:0:0:
192,192,155216,5,0,0:0:0:0:
448,192,155216,1,0,0:0:0:0:
320,192,155392,1,0,0:0:0:0:
448,192,155569,1,0,0:0:0:0:
320,192,155657,1,0,0:0:0:0:
192,192,155745,1,0,0:0:0:0:
64,192,155834,1,0,0:0:0:0:
192,192,155922,1,0,0:0:0:0:
448,192,156010,1,0,0:0:0:0:
64,192,156098,1,0,0:0:0:0:
320,192,156187,1,0,0:0:0:0:
448,192,156275,1,0,0:0:0:0:
192,192,157157,5,0,3:0:0:0:
320,192,157245,1,0,3:0:0:0:
192,192,157334,1,0,3:0:0:0:
320,192,157422,1,0,3:0:0:0:
192,192,157510,1,0,3:0:0:0:
448,192,157687,5,0,0:0:0:0:
64,192,157687,1,0,0:0:0:0:
320,192,157687,1,0,0:0:0:0:
192,192,158040,1,0,0:0:0:0:
64,192,158040,1,0,0:0:0:0:
448,192,158216,1,0,0:0:0:0:
320,192,158392,1,0,0:0:0:0:
192,192,158392,1,0,0:0:0:0:
64,192,158569,1,0,0:0:0:0:
448,192,158745,1,0,0:0:0:0:
320,192,158745,1,0,0:0:0:0:
192,192,158922,1,0,0:0:0:0:
448,192,159098,1,0,0:0:0:0:
64,192,159275,1,0,0:0:0:0:
320,192,159451,1,0,0:0:0:0:
448,192,159451,1,0,0:0:0:0:
192,192,159628,1,0,0:0:0:0:
64,192,159804,1,0,0:0:0:0:
448,192,159981,1,0,0:0:0:0:
192,192,159981,1,0,0:0:0:0:
320,192,160157,1,0,0:0:0:0:
64,192,160157,1,0,0:0:0:0:
448,192,160157,1,0,0:0:0:0:
192,192,160334,1,0,0:0:0:0:
64,192,160510,1,0,0:0:0:0:
448,192,160510,1,0,0:0:0:0:
320,192,160863,1,0,0:0:0:0:
192,192,160863,1,0,0:0:0:0:
320,192,161040,1,0,0:0:0:0:
64,192,161216,1,0,0:0:0:0:
448,192,161392,1,0,0:0:0:0:
320,192,161569,1,0,0:0:0:0:
192,192,161569,1,0,0:0:0:0:
64,192,161745,1,0,0:0:0:0:
192,192,161922,1,0,0:0:0:0:
448,192,161922,1,0,0:0:0:0:
320,192,162275,1,0,0:0:0:0:
64,192,162275,1,0,0:0:0:0:
448,192,162451,1,0,0:0:0:0:
64,192,162628,1,0,0:0:0:0:
192,192,162804,1,0,0:0:0:0:
320,192,162804,1,0,0:0:0:0:
448,192,162981,1,0,0:0:0:0:
64,192,162981,1,0,0:0:0:0:
320,192,163157,1,0,0:0:0:0:
64,192,163334,1,0,0:0:0:0:
192,192,163334,1,0,0:0:0:0:
448,192,163334,1,0,0:0:0:0:
448,192,163687,1,0,0:0:0:0:
64,192,163687,1,0,0:0:0:0:
320,192,163863,1,0,0:0:0:0:
64,192,164040,1,0,0:0:0:0:
192,192,164216,1,0,0:0:0:0:
448,192,164304,1,0,0:0:0:0:
64,192,164392,1,0,0:0:0:0:
192,192,164392,1,0,0:0:0:0:
320,192,164569,1,0,0:0:0:0:
64,192,164745,1,0,0:0:0:0:
448,192,164745,1,0,0:0:0:0:
192,192,164922,1,0,0:0:0:0:
448,192,165098,1,0,0:0:0:0:
64,192,165098,1,0,0:0:0:0:
320,192,165275,1,0,0:0:0:0:
448,192,165451,1,0,0:0:0:0:
192,192,165628,1,0,0:0:0:0:
448,192,165628,1,0,0:0:0:0:
320,192,165804,1,0,0:0:0:0:
64,192,165804,1,0,0:0:0:0:
192,192,165804,1,0,0:0:0:0:
448,192,165981,1,0,0:0:0:0:
64,192,166157,1,0,0:0:0:0:
320,192,166157,1,0,0:0:0:0:
192,192,166334,1,0,0:0:0:0:
64,192,166510,1,0,0:0:0:0:
448,192,166687,1,0,0:0:0:0:
192,192,166863,1,0,0:0:0:0:
320,192,167040,1,0,0:0:0:0:
192,192,167128,1,0,0:0:0:0:
320,192,167216,1,0,0:0:0:0:
448,192,167216,1,0,0:0:0:0:
64,192,167392,1,0,0:0:0:0:
192,192,167569,1,0,0:0:0:0:
320,192,167569,1,0,0:0:0:0:
448,192,167745,1,0,0:0:0:0:
64,192,167834,1,0,0:0:0:0:
448,192,167922,1,0,0:0:0:0:
320,192,167922,1,0,0:0:0:0:
64,192,168098,1,0,0:0:0:0:
192,192,168098,1,0,0:0:0:0:
320,192,168451,1,0,0:0:0:0:
448,192,168451,1,0,0:0:0:0:
64,192,168628,1,0,0:0:0:0:
192,192,168716,1,0,0:0:0:0:
320,192,168804,1,0,0:0:0:0:
192,192,168892,1,0,0:0:0:0:
448,192,168981,5,0,0:0:0:0:
64,192,168981,1,0,0:0:0:0:
320,192,168981,1,0,0:0:0:0:
192,192,169334,1,0,0:0:0:0:
64,192,169334,1,0,0:0:0:0:
448,192,169510,1,0,0:0:0:0:
320,192,169687,1,0,0:0:0:0:
192,192,169687,1,0,0:0:0:0:
64,192,169863,1,0,0:0:0:0:
448,192,170040,1,0,0:0:0:0:
192,192,170040,1,0,0:0:0:0:
320,192,170216,1,0,0:0:0:0:
64,192,170392,1,0,0:0:0:0:
448,192,170392,1,0,0:0:0:0:
192,192,170569,1,0,0:0:0:0:
320,192,170745,1,0,0:0:0:0:
64,192,170745,1,0,0:0:0:0:
192,192,170922,1,0,0:0:0:0:
320,192,171098,1,0,0:0:0:0:
448,192,171275,1,0,0:0:0:0:
192,192,171275,1,0,0:0:0:0:
320,192,171451,1,0,0:0:0:0:
64,192,171451,1,0,0:0:0:0:
448,192,171451,1,0,0:0:0:0:
192,192,171628,1,0,0:0:0:0:
64,192,171804,1,0,0:0:0:0:
448,192,171804,1,0,0:0:0:0:
320,192,172157,1,0,0:0:0:0:
192,192,172157,1,0,0:0:0:0:
320,192,172334,1,0,0:0:0:0:
64,192,172510,1,0,0:0:0:0:
448,192,172687,1,0,0:0:0:0:
320,192,172863,1,0,0:0:0:0:
192,192,172863,1,0,0:0:0:0:
64,192,173040,1,0,0:0:0:0:
192,192,173216,1,0,0:0:0:0:
448,192,173216,1,0,0:0:0:0:
320,192,173569,1,0,0:0:0:0:
64,192,173569,1,0,0:0:0:0:
448,192,173745,1,0,0:0:0:0:
64,192,173922,1,0,0:0:0:0:
192,192,174098,1,0,0:0:0:0:
320,192,174098,1,0,0:0:0:0:
448,192,174275,1,0,0:0:0:0:
64,192,174275,1,0,0:0:0:0:
320,192,174451,1,0,0:0:0:0:
64,192,174628,1,0,0:0:0:0:
192,192,174628,1,0,0:0:0:0:
448,192,174628,1,0,0:0:0:0:
448,192,174981,1,0,0:0:0:0:
64,192,174981,1,0,0:0:0:0:
320,192,175157,1,0,0:0:0:0:
64,192,175334,1,0,0:0:0:0:
192,192,175510,1,0,0:0:0:0:
448,192,175598,1,0,0:0:0:0:
64,192,175687,1,0,0:0:0:0:
320,192,175687,1,0,0:0:0:0:
320,192,175863,1,0,0:0:0:0:
64,192,176040,1,0,0:0:0:0:
448,192,176040,1,0,0:0:0:0:
192,192,176216,1,0,0:0:0:0:
448,192,176392,1,0,0:0:0:0:
64,192,176392,1,0,0:0:0:0:
320,192,176569,1,0,0:0:0:0:
448,192,176745,1,0,0:0:0:0:
192,192,176922,1,0,0:0:0:0:
320,192,176922,1,0,0:0:0:0:
320,192,177098,1,0,0:0:0:0:
64,192,177098,1,0,0:0:0:0:
448,192,177098,1,0,0:0:0:0:
448,192,177275,1,0,0:0:0:0:
64,192,177451,1,0,0:0:0:0:
320,192,177451,1,0,0:0:0:0:
192,192,177628,1,0,0:0:0:0:
320,192,177804,1,0,0:0:0:0:
448,192,177981,1,0,0:0:0:0:
64,192,178157,1,0,0:0:0:0:
320,192,178334,1,0,0:0:0:0:
192,192,178422,1,0,0:0:0:0:
320,192,178510,1,0,0:0:0:0:
448,192,178510,1,0,0:0:0:0:
64,192,178687,1,0,0:0:0:0:
192,192,178863,1,0,0:0:0:0:
320,192,178863,1,0,0:0:0:0:
64,192,179040,1,0,0:0:0:0:
320,192,179128,1,0,0:0:0:0:
448,192,179216,1,0,0:0:0:0:
192,192,179216,1,0,0:0:0:0:
64,192,179392,1,0,0:0:0:0:
320,192,179392,1,0,0:0:0:0:
192,192,179569,1,0,0:0:0:0:
64,192,179657,1,0,0:0:0:0:
320,192,179745,1,0,0:0:0:0:
448,192,179745,1,0,0:0:0:0:
192,192,179922,1,0,0:0:0:0:
448,192,180010,1,0,0:0:0:0:
320,192,180098,1,0,0:0:0:0:
192,192,180187,1,0,0:0:0:0:
448,192,180275,1,0,0:0:0:0:
320,192,180275,1,0,0:0:0:0:
64,192,180275,1,0,0:0:0:0:
64,192,180628,1,0,0:0:0:0:
320,192,180628,1,0,0:0:0:0:
192,192,180804,1,0,0:0:0:0:
64,192,180981,1,0,0:0:0:0:
320,192,181157,1,0,0:0:0:0:
448,192,181334,1,0,0:0:0:0:
64,192,181334,1,0,0:0:0:0:
192,192,181510,1,0,0:0:0:0:
320,192,181687,1,0,0:0:0:0:
448,192,181687,1,0,0:0:0:0:
64,192,182040,1,0,0:0:0:0:
192,192,182040,1,0,0:0:0:0:
448,192,182392,1,0,0:0:0:0:
320,192,182392,1,0,0:0:0:0:
64,192,182745,1,0,0:0:0:0:
192,192,182745,1,0,0:0:0:0:
192,192,183098,1,0,0:0:0:0:
448,192,183098,1,0,0:0:0:0:
320,192,183451,1,0,0:0:0:0:
64,192,183804,1,0,0:0:0:0:
192,192,184157,1,0,0:0:0:0:
448,192,184157,1,0,0:0:0:0:
320,192,184245,1,0,0:0:0:0:
64,192,184334,1,0,0:0:0:0:
192,192,184422,1,0,0:0:0:0:
320,192,184510,1,0,0:0:0:0:
448,192,184510,1,0,0:0:0:0:
320,192,184775,1,0,0:0:0:0:
192,192,184775,1,0,0:0:0:0:
64,192,185040,1,0,0:0:0:0:
192,192,185040,1,0,0:0:0:0:
64,192,185216,1,0,0:0:0:0:
320,192,185216,1,0,0:0:0:0:
192,192,185481,1,0,0:0:0:0:
448,192,185481,1,0,0:0:0:0:
320,192,185745,1,0,0:0:0:0:
192,192,185745,1,0,0:0:0:0:
448,192,185922,1,0,0:0:0:0:
64,192,185922,1,0,0:0:0:0:
192,192,186098,1,0,0:0:0:0:
320,192,186275,1,0,0:0:0:0:
448,192,186451,1,0,0:0:0:0:
64,192,186628,1,0,0:0:0:0:
320,192,186804,1,0,0:0:0:0:
192,192,186981,1,0,0:0:0:0:
448,192,187157,1,0,0:0:0:0:
192,192,187510,1,0,0:0:0:0:
448,192,187687,1,0,0:0:0:0:
320,192,187863,1,0,0:0:0:0:
64,192,188040,1,0,0:0:0:0:
448,192,188216,1,0,0:0:0:0:
192,192,188392,1,0,0:0:0:0:
64,192,188569,1,0,0:0:0:0:
192,192,188745,1,0,0:0:0:0:
320,192,188922,1,0,0:0:0:0:
192,192,189275,1,0,0:0:0:0:
64,192,189363,1,0,0:0:0:0:
320,192,189451,1,0,0:0:0:0:
64,192,189981,1,0,0:0:0:0:
448,192,190157,1,0,0:0:0:0:
320,192,190334,1,0,0:0:0:0:
192,192,190510,1,0,0:0:0:0:
64,192,190687,1,0,0:0:0:0:
320,192,190863,1,0,0:0:0:0:
64,192,191569,1,0,0:0:0:0:
192,192,191745,1,0,0:0:0:0:
320,192,191922,1,0,0:0:0:0:
448,192,192098,1,0,0:0:0:0:
64,192,192275,1,0,0:0:0:0:
320,192,192451,1,0,0:0:0:0:
192,192,192628,1,0,0:0:0:0:
448,192,192804,1,0,0:0:0:0:
64,192,192981,1,0,0:0:0:0:
320,192,193157,1,0,0:0:0:0:
192,192,193334,1,0,0:0:0:0:
448,192,193510,1,0,0:0:0:0:
320,192,193687,1,0,0:0:0:0:
64,192,194392,1,0,0:0:0:0:
320,192,194569,1,0,0:0:0:0:
320,192,194745,1,0,0:0:0:0:
192,192,194922,1,0,0:0:0:0:
64,192,195628,1,0,0:0:0:0:
192,192,195716,1,0,0:0:0:0:
448,192,195804,1,0,0:0:0:0:
64,192,195981,1,0,0:0:0:0:
448,192,196157,1,0,0:0:0:0:
320,192,196245,1,0,0:0:0:0:
192,192,196334,1,0,0:0:0:0:
64,192,196422,1,0,0:0:0:0:
320,192,196510,1,0,0:0:0:0:
64,192,197216,1,0,0:0:0:0:
448,192,197216,1,0,0:0:0:0:
192,192,197216,1,0,0:0:0:0:
448,192,198628,1,0,0:0:0:0:
192,192,198628,1,0,0:0:0:0:
320,192,198628,1,0,0:0:0:0:
192,192,200040,1,0,0:0:0:0:
320,192,200040,1,0,0:0:0:0:
64,192,200040,1,0,0:0:0:0:
64,192,201451,1,0,0:0:0:0:
320,192,201451,1,0,0:0:0:0:
448,192,201451,1,0,0:0:0:0:
64,192,202863,1,0,0:0:0:0:
448,192,202863,1,0,0:0:0:0:
192,192,202863,1,0,0:0:0:0:
192,192,204275,1,0,0:0:0:0:
320,192,204275,1,0,0:0:0:0:
448,192,204275,1,0,0:0:0:0:
192,192,205687,1,0,0:0:0:0:
448,192,205687,1,0,0:0:0:0:
64,192,205687,1,0,0:0:0:0:
64,192,207098,1,0,0:0:0:0:
192,192,207098,1,0,0:0:0:0:
448,192,207098,1,0,0:0:0:0:
320,192,207275,1,0,0:0:0:0:
320,192,207451,1,0,0:0:0:0:
320,192,207628,1,0,0:0:0:0:
320,192,207981,1,0,0:0:0:0:
64,192,208510,1,0,0:0:0:0:
192,192,208510,1,0,0:0:0:0:
320,192,208510,1,0,0:0:0:0:
448,192,208687,1,0,0:0:0:0:
192,192,208863,1,0,0:0:0:0:
320,192,208863,1,0,0:0:0:0:
64,192,209040,1,0,0:0:0:0:
320,192,209216,1,0,0:0:0:0:
192,192,209392,1,0,0:0:0:0:
448,192,209569,1,0,0:0:0:0:
64,192,209569,1,0,0:0:0:0:
192,192,209745,1,0,0:0:0:0:
320,192,209922,1,0,0:0:0:0:
448,192,210098,1,0,0:0:0:0:
320,192,210275,1,0,0:0:0:0:
192,192,210275,1,0,0:0:0:0:
64,192,210451,1,0,0:0:0:0:
448,192,210628,1,0,0:0:0:0:
320,192,210804,1,0,0:0:0:0:
192,192,210981,1,0,0:0:0:0:
448,192,210981,1,0,0:0:0:0:
320,192,211157,1,0,0:0:0:0:
192,192,211334,1,0,0:0:0:0:
448,192,211510,1,0,0:0:0:0:
64,192,211687,1,0,0:0:0:0:
320,192,211687,1,0,0:0:0:0:
192,192,211863,1,0,0:0:0:0:
64,192,212040,1,0,0:0:0:0:
448,192,212216,1,0,0:0:0:0:
320,192,212392,1,0,0:0:0:0:
192,192,212392,1,0,0:0:0:0:
64,192,212569,1,0,0:0:0:0:
320,192,212745,1,0,0:0:0:0:
448,192,212922,1,0,0:0:0:0:
192,192,213098,1,0,0:0:0:0:
64,192,213098,1,0,0:0:0:0:
320,192,213275,1,0,0:0:0:0:
448,192,213451,1,0,0:0:0:0:
320,192,213628,1,0,0:0:0:0:
448,192,213804,1,0,0:0:0:0:
192,192,213804,1,0,0:0:0:0:
320,192,213981,1,0,0:0:0:0:
64,192,214157,1,0,0:0:0:0:
448,192,214157,1,0,0:0:0:0:
320,192,214334,1,0,0:0:0:0:
192,192,214510,1,0,0:0:0:0:
448,192,214510,1,0,0:0:0:0:
320,192,214687,1,0,0:0:0:0:
192,192,214863,1,0,0:0:0:0:
64,192,215040,1,0,0:0:0:0:
448,192,215216,1,0,0:0:0:0:
320,192,215216,1,0,0:0:0:0:
192,192,215392,1,0,0:0:0:0:
64,192,215569,1,0,0:0:0:0:
448,192,215745,1,0,0:0:0:0:
320,192,215922,1,0,0:0:0:0:
64,192,215922,1,0,0:0:0:0:
192,192,216098,1,0,0:0:0:0:
448,192,216275,1,0,0:0:0:0:
320,192,216451,1,0,0:0:0:0:
192,192,216628,1,0,0:0:0:0:
64,192,216628,1,0,0:0:0:0:
448,192,216804,1,0,0:0:0:0:
320,192,216981,1,0,0:0:0:0:
192,192,217157,1,0,0:0:0:0:
64,192,217334,1,0,0:0:0:0:
448,192,217334,1,0,0:0:0:0:
320,192,217510,1,0,0:0:0:0:
64,192,217687,1,0,0:0:0:0:
320,192,217863,1,0,0:0:0:0:
448,192,218040,1,0,0:0:0:0:
192,192,218040,1,0,0:0:0:0:
320,192,218216,1,0,0:0:0:0:
64,192,218392,1,0,0:0:0:0:
448,192,218569,1,0,0:0:0:0:
192,192,218745,1,0,0:0:0:0:
320,192,218745,1,0,0:0:0:0:
448,192,218922,1,0,0:0:0:0:
320,192,219098,1,0,0:0:0:0:
192,192,219275,1,0,0:0:0:0:
64,192,219451,1,0,0:0:0:0:
448,192,219451,1,0,0:0:0:0:
320,192,219628,1,0,0:0:0:0:
448,192,219804,1,0,0:0:0:0:
320,192,219804,1,0,0:0:0:0:
192,192,219804,1,0,0:0:0:0:
320,192,220157,1,0,0:0:0:0:
192,192,220157,1,0,0:0:0:0:
64,192,220157,1,0,0:0:0:0:
64,192,220510,1,0,0:0:0:0:
192,192,220510,1,0,0:0:0:0:
448,192,220510,1,0,0:0:0:0:
448,192,220863,1,0,0:0:0:0:
64,192,220863,1,0,0:0:0:0:
320,192,220863,1,0,0:0:0:0:
192,192,221216,1,0,0:0:0:0:
64,192,221216,1,0,0:0:0:0:
448,192,221216,1,0,0:0:0:0:
320,192,221569,1,0,0:0:0:0:
192,192,221569,1,0,0:0:0:0:
448,192,221569,1,0,0:0:0:0:
448,192,221922,1,0,0:0:0:0:
64,192,221922,1,0,0:0:0:0:
192,192,221922,1,0,0:0:0:0:
192,192,222275,1,0,0:0:0:0:
320,192,222275,1,0,0:0:0:0:
448,192,222275,1,0,0:0:0:0:
320,192,222628,1,0,0:0:0:0:
64,192,222628,1,0,0:0:0:0:
448,192,222628,1,0,0:0:0:0:
320,192,222981,1,0,0:0:0:0:
320,192,223334,1,0,0:0:0:0:
320,192,223687,1,0,0:0:0:0:
64,192,224040,1,0,3:0:0:0:
192,192,224040,1,0,3:0:0:0:
320,192,224040,1,0,3:0:0:0:
448,192,224040,1,0,3:0:0:0:
320,192,224922,1,0,3:0:0:0:
192,192,225010,1,0,3:0:0:0:
320,192,225098,1,0,3:0:0:0:
192,192,225187,1,0,3:0:0:0:
320,192,225275,1,0,3:0:0:0:
448,192,225451,5,0,0:0:0:0:
192,192,225451,1,0,0:0:0:0:
64,192,225451,1,0,0:0:0:0:
320,192,225628,1,0,0:0:0:0:
192,192,225804,1,0,0:0:0:0:
320,192,225804,1,0,0:0:0:0:
448,192,225981,1,0,0:0:0:0:
64,192,225981,1,0,0:0:0:0:
64,192,226157,1,0,0:0:0:0:
192,192,226157,1,0,0:0:0:0:
320,192,226334,1,0,0:0:0:0:
192,192,226334,1,0,0:0:0:0:
448,192,226510,1,0,0:0:0:0:
64,192,226510,1,0,0:0:0:0:
192,192,226687,1,0,0:0:0:0:
320,192,226687,1,0,0:0:0:0:
448,192,226863,1,0,0:0:0:0:
320,192,227040,1,0,0:0:0:0:
192,192,227040,1,0,0:0:0:0:
64,192,227216,1,0,0:0:0:0:
448,192,227216,1,0,0:0:0:0:
192,192,227392,1,0,0:0:0:0:
448,192,227392,1,0,0:0:0:0:
320,192,227569,1,0,0:0:0:0:
448,192,227745,1,0,0:0:0:0:
192,192,227745,1,0,0:0:0:0:
64,192,227745,1,0,0:0:0:0:
64,192,227922,1,0,0:0:0:0:
320,192,227922,1,0,0:0:0:0:
448,192,227922,1,0,0:0:0:0:
192,192,228098,1,0,0:0:0:0:
320,192,228275,1,0,0:0:0:0:
448,192,228275,1,0,0:0:0:0:
192,192,228451,1,0,0:0:0:0:
64,192,228628,1,0,0:0:0:0:
192,192,228628,1,0,0:0:0:0:
64,192,228804,1,0,0:0:0:0:
448,192,228804,1,0,0:0:0:0:
320,192,228981,1,0,0:0:0:0:
448,192,229157,1,0,0:0:0:0:
192,192,229157,1,0,0:0:0:0:
64,192,229334,1,0,0:0:0:0:
192,192,229334,1,0,0:0:0:0:
320,192,229510,1,0,0:0:0:0:
448,192,229510,1,0,0:0:0:0:
192,192,229687,1,0,0:0:0:0:
448,192,229687,1,0,0:0:0:0:
192,192,229863,1,0,0:0:0:0:
64,192,230040,1,0,0:0:0:0:
320,192,230040,1,0,0:0:0:0:
448,192,230216,1,0,0:0:0:0:
64,192,230216,1,0,0:0:0:0:
320,192,230392,1,0,0:0:0:0:
192,192,230569,1,0,0:0:0:0:
64,192,230569,1,0,0:0:0:0:
448,192,230569,1,0,0:0:0:0:
448,192,230745,1,0,0:0:0:0:
320,192,230745,1,0,0:0:0:0:
64,192,230922,1,0,0:0:0:0:
192,192,230922,1,0,0:0:0:0:
320,192,231098,1,0,0:0:0:0:
192,192,231098,1,0,0:0:0:0:
448,192,231098,1,0,0:0:0:0:
64,192,231275,1,0,0:0:0:0:
448,192,231451,1,0,0:0:0:0:
320,192,231451,1,0,0:0:0:0:
64,192,231628,1,0,0:0:0:0:
192,192,231628,1,0,0:0:0:0:
320,192,231804,1,0,0:0:0:0:
192,192,231981,1,0,0:0:0:0:
64,192,231981,1,0,0:0:0:0:
448,192,232069,1,0,0:0:0:0:
320,192,232157,1,0,0:0:0:0:
192,192,232157,1,0,0:0:0:0:
64,192,232334,1,0,0:0:0:0:
448,192,232334,1,0,0:0:0:0:
320,192,232510,1,0,0:0:0:0:
448,192,232510,1,0,0:0:0:0:
192,192,232687,1,0,0:0:0:0:
64,192,232687,1,0,0:0:0:0:
448,192,232863,1,0,0:0:0:0:
320,192,232863,1,0,0:0:0:0:
64,192,233040,1,0,0:0:0:0:
192,192,233040,1,0,0:0:0:0:
448,192,233216,1,0,0:0:0:0:
192,192,233392,1,0,0:0:0:0:
448,192,233392,1,0,0:0:0:0:
320,192,233392,1,0,0:0:0:0:
64,192,233569,1,0,0:0:0:0:
320,192,233569,1,0,0:0:0:0:
192,192,233569,1,0,0:0:0:0:
448,192,233745,1,0,0:0:0:0:
320,192,233745,1,0,0:0:0:0:
320,192,233922,1,0,0:0:0:0:
64,192,233922,1,0,0:0:0:0:
192,192,234098,1,0,0:0:0:0:
448,192,234098,1,0,0:0:0:0:
320,192,234275,1,0,0:0:0:0:
448,192,234451,1,0,0:0:0:0:
64,192,234451,1,0,0:0:0:0:
192,192,234628,1,0,0:0:0:0:
64,192,234804,1,0,0:0:0:0:
320,192,234804,1,0,0:0:0:0:
192,192,234892,1,0,0:0:0:0:
64,192,234981,1,0,0:0:0:0:
448,192,234981,1,0,0:0:0:0:
320,192,235157,1,0,0:0:0:0:
448,192,235157,1,0,0:0:0:0:
192,192,235334,1,0,0:0:0:0:
64,192,235334,1,0,0:0:0:0:
448,192,235510,1,0,0:0:0:0:
192,192,235598,1,0,0:0:0:0:
448,192,235687,1,0,0:0:0:0:
64,192,235687,1,0,0:0:0:0:
320,192,235863,1,0,0:0:0:0:
192,192,235863,1,0,0:0:0:0:
64,192,236216,1,0,0:0:0:0:
448,192,236216,1,0,0:0:0:0:
192,192,236392,1,0,0:0:0:0:
320,192,236481,1,0,0:0:0:0:
192,192,236569,1,0,0:0:0:0:
320,192,236657,1,0,0:0:0:0:
192,192,236745,5,0,0:0:0:0:
448,192,236745,1,0,0:0:0:0:
64,192,236745,1,0,0:0:0:0:
320,192,236922,1,0,0:0:0:0:
448,192,237098,1,0,0:0:0:0:
320,192,237098,1,0,0:0:0:0:
192,192,237275,1,0,0:0:0:0:
64,192,237275,1,0,0:0:0:0:
64,192,237451,1,0,0:0:0:0:
448,192,237451,1,0,0:0:0:0:
320,192,237628,1,0,0:0:0:0:
192,192,237628,1,0,0:0:0:0:
192,192,237804,1,0,0:0:0:0:
64,192,237804,1,0,0:0:0:0:
448,192,237981,1,0,0:0:0:0:
320,192,237981,1,0,0:0:0:0:
192,192,238157,1,0,0:0:0:0:
64,192,238157,1,0,0:0:0:0:
320,192,238334,1,0,0:0:0:0:
448,192,238334,1,0,0:0:0:0:
64,192,238510,1,0,0:0:0:0:
192,192,238510,1,0,0:0:0:0:
448,192,238687,1,0,0:0:0:0:
320,192,238687,1,0,0:0:0:0:
320,192,238863,1,0,0:0:0:0:
192,192,239040,1,0,0:0:0:0:
448,192,239040,1,0,0:0:0:0:
64,192,239040,1,0,0:0:0:0:
64,192,239216,1,0,0:0:0:0:
320,192,239216,1,0,0:0:0:0:
192,192,239216,1,0,0:0:0:0:
448,192,239392,1,0,0:0:0:0:
320,192,239392,1,0,0:0:0:0:
320,192,239569,1,0,0:0:0:0:
192,192,239569,1,0,0:0:0:0:
448,192,239745,1,0,0:0:0:0:
64,192,239922,1,0,0:0:0:0:
448,192,239922,1,0,0:0:0:0:
64,192,240098,1,0,0:0:0:0:
192,192,240098,1,0,0:0:0:0:
320,192,240275,1,0,0:0:0:0:
192,192,240451,1,0,0:0:0:0:
448,192,240451,1,0,0:0:0:0:
64,192,240628,1,0,0:0:0:0:
448,192,240628,1,0,0:0:0:0:
320,192,240804,1,0,0:0:0:0:
192,192,240804,1,0,0:0:0:0:
448,192,240981,1,0,0:0:0:0:
192,192,240981,1,0,0:0:0:0:
64,192,241157,1,0,0:0:0:0:
64,192,241334,1,0,0:0:0:0:
320,192,241334,1,0,0:0:0:0:
192,192,241510,1,0,0:0:0:0:
448,192,241510,1,0,0:0:0:0:
320,192,241687,1,0,0:0:0:0:
448,192,241863,1,0,0:0:0:0:
64,192,241863,1,0,0:0:0:0:
192,192,241863,1,0,0:0:0:0:
192,192,242040,1,0,0:0:0:0:
320,192,242040,1,0,0:0:0:0:
64,192,242216,1,0,0:0:0:0:
448,192,242216,1,0,0:0:0:0:
320,192,242392,1,0,0:0:0:0:
448,192,242392,1,0,0:0:0:0:
192,192,242392,1,0,0:0:0:0:
64,192,242569,1,0,0:0:0:0:
192,192,242745,1,0,0:0:0:0:
320,192,242745,1,0,0:0:0:0:
64,192,242922,1,0,0:0:0:0:
448,192,242922,1,0,0:0:0:0:
320,192,243098,1,0,0:0:0:0:
448,192,243275,1,0,0:0:0:0:
64,192,243275,1,0,0:0:0:0:
192,192,243363,1,0,0:0:0:0:
320,192,243451,1,0,0:0:0:0:
448,192,243451,1,0,0:0:0:0:
64,192,243628,1,0,0:0:0:0:
192,192,243628,1,0,0:0:0:0:
320,192,243804,1,0,0:0:0:0:
192,192,243804,1,0,0:0:0:0:
448,192,243981,1,0,0:0:0:0:
64,192,243981,1,0,0:0:0:0:
192,192,244157,1,0,0:0:0:0:
320,192,244157,1,0,0:0:0:0:
64,192,244334,1,0,0:0:0:0:
448,192,244334,1,0,0:0:0:0:
192,192,244510,1,0,0:0:0:0:
448,192,244687,1,0,0:0:0:0:
192,192,244687,1,0,0:0:0:0:
320,192,244687,1,0,0:0:0:0:
64,192,244863,1,0,0:0:0:0:
320,192,244863,1,0,0:0:0:0:
448,192,244863,1,0,0:0:0:0:
192,192,245040,1,0,0:0:0:0:
448,192,245040,1,0,0:0:0:0:
320,192,245216,1,0,0:0:0:0:
64,192,245216,1,0,0:0:0:0:
448,192,245392,1,0,0:0:0:0:
192,192,245392,1,0,0:0:0:0:
320,192,245569,1,0,0:0:0:0:
192,192,245745,1,0,0:0:0:0:
64,192,245745,1,0,0:0:0:0:
448,192,245922,1,0,0:0:0:0:
320,192,246098,1,0,0:0:0:0:
192,192,246098,1,0,0:0:0:0:
64,192,246275,1,0,0:0:0:0:
192,192,246275,1,0,0:0:0:0:
320,192,246451,1,0,0:0:0:0:
448,192,246451,1,0,0:0:0:0:
448,192,246628,1,0,0:0:0:0:
64,192,246628,1,0,0:0:0:0:
320,192,246804,1,0,0:0:0:0:
448,192,246892,1,0,0:0:0:0:
192,192,246981,1,0,0:0:0:0:
64,192,246981,1,0,0:0:0:0:
320,192,247157,1,0,0:0:0:0:
448,192,247157,1,0,0:0:0:0:
192,192,247334,1,0,0:0:0:0:
320,192,247422,1,0,0:0:0:0:
64,192,247510,1,0,0:0:0:0:
192,192,247510,1,0,0:0:0:0:
320,192,247687,1,0,0:0:0:0:
64,192,247775,1,0,0:0:0:0:
448,192,247863,1,0,0:0:0:0:
192,192,247951,1,0,0:0:0:0:
448,192,248040,5,0,0:0:0:0:
64,192,248040,1,0,0:0:0:0:
320,192,248040,1,0,0:0:0:0:
192,192,248216,1,0,0:0:0:0:
192,192,248392,1,0,0:0:0:0:
320,192,248392,1,0,0:0:0:0:
448,192,248569,1,0,0:0:0:0:
320,192,248569,1,0,0:0:0:0:
320,192,248745,1,0,0:0:0:0:
64,192,248745,1,0,0:0:0:0:
192,192,248922,1,0,0:0:0:0:
448,192,248922,1,0,0:0:0:0:
64,192,249098,1,0,0:0:0:0:
448,192,249098,1,0,0:0:0:0:
320,192,249275,1,0,0:0:0:0:
192,192,249275,1,0,0:0:0:0:
448,192,249451,1,0,0:0:0:0:
192,192,249628,1,0,0:0:0:0:
64,192,249628,1,0,0:0:0:0:
448,192,249804,1,0,0:0:0:0:
64,192,249804,1,0,0:0:0:0:
320,192,249981,1,0,0:0:0:0:
192,192,249981,1,0,0:0:0:0:
192,192,250157,1,0,0:0:0:0:
320,192,250334,1,0,0:0:0:0:
448,192,250334,1,0,0:0:0:0:
64,192,250334,1,0,0:0:0:0:
448,192,250510,1,0,0:0:0:0:
192,192,250510,1,0,0:0:0:0:
64,192,250510,1,0,0:0:0:0:
320,192,250687,1,0,0:0:0:0:
192,192,250687,1,0,0:0:0:0:
448,192,250863,1,0,0:0:0:0:
192,192,250863,1,0,0:0:0:0:
448,192,251040,1,0,0:0:0:0:
320,192,251216,1,0,0:0:0:0:
64,192,251216,1,0,0:0:0:0:
64,192,251392,1,0,0:0:0:0:
448,192,251392,1,0,0:0:0:0:
192,192,251569,1,0,0:0:0:0:
448,192,251745,1,0,0:0:0:0:
320,192,251745,1,0,0:0:0:0:
320,192,251922,1,0,0:0:0:0:
64,192,251922,1,0,0:0:0:0:
192,192,252098,1,0,0:0:0:0:
448,192,252098,1,0,0:0:0:0:
448,192,252275,1,0,0:0:0:0:
320,192,252275,1,0,0:0:0:0:
64,192,252451,1,0,0:0:0:0:
192,192,252628,1,0,0:0:0:0:
64,192,252628,1,0,0:0:0:0:
448,192,252804,1,0,0:0:0:0:
320,192,252804,1,0,0:0:0:0:
192,192,252981,1,0,0:0:0:0:
64,192,253157,1,0,0:0:0:0:
320,192,253157,1,0,0:0:0:0:
448,192,253157,1,0,0:0:0:0:
192,192,253334,1,0,0:0:0:0:
448,192,253334,1,0,0:0:0:0:
64,192,253510,1,0,0:0:0:0:
320,192,253510,1,0,0:0:0:0:
448,192,253687,1,0,0:0:0:0:
320,192,253687,1,0,0:0:0:0:
192,192,253687,1,0,0:0:0:0:
64,192,253863,1,0,0:0:0:0:
192,192,254040,1,0,0:0:0:0:
448,192,254040,1,0,0:0:0:0:
64,192,254216,1,0,0:0:0:0:
320,192,254216,1,0,0:0:0:0:
192,192,254392,1,0,0:0:0:0:
320,192,254569,1,0,0:0:0:0:
64,192,254569,1,0,0:0:0:0:
448,192,254657,1,0,0:0:0:0:
320,192,254745,1,0,0:0:0:0:
192,192,254745,1,0,0:0:0:0:
64,192,254922,1,0,0:0:0:0:
192,192,254922,1,0,0:0:0:0:
448,192,255098,1,0,0:0:0:0:
192,192,255098,1,0,0:0:0:0:
320,192,255275,1,0,0:0:0:0:
448,192,255275,1,0,0:0:0:0:
192,192,255451,1,0,0:0:0:0:
448,192,255451,1,0,0:0:0:0:
64,192,255628,1,0,0:0:0:0:
320,192,255628,1,0,0:0:0:0:
448,192,255804,1,0,0:0:0:0:
448,192,255981,1,0,0:0:0:0:
320,192,255981,1,0,0:0:0:0:
192,192,255981,1,0,0:0:0:0:
320,192,256157,1,0,0:0:0:0:
192,192,256157,1,0,0:0:0:0:
64,192,256157,1,0,0:0:0:0:
448,192,256334,1,0,0:0:0:0:
320,192,256334,1,0,0:0:0:0:
64,192,256510,1,0,0:0:0:0:
192,192,256510,1,0,0:0:0:0:
320,192,256687,1,0,0:0:0:0:
448,192,256687,1,0,0:0:0:0:
192,192,256863,1,0,0:0:0:0:
448,192,257040,1,0,0:0:0:0:
64,192,257040,1,0,0:0:0:0:
320,192,257216,1,0,0:0:0:0:
64,192,257392,1,0,0:0:0:0:
192,192,257392,1,0,0:0:0:0:
320,192,257481,1,0,0:0:0:0:
448,192,257569,1,0,0:0:0:0:
64,192,257569,1,0,0:0:0:0:
192,192,257745,1,0,0:0:0:0:
320,192,257745,1,0,0:0:0:0:
64,192,257922,1,0,0:0:0:0:
320,192,257922,1,0,0:0:0:0:
448,192,258098,1,0,0:0:0:0:
192,192,258187,1,0,0:0:0:0:
64,192,258275,1,0,0:0:0:0:
448,192,258275,1,0,0:0:0:0:
320,192,258451,1,0,0:0:0:0:
192,192,258451,1,0,0:0:0:0:
64,192,258628,1,0,0:0:0:0:
320,192,258716,1,0,0:0:0:0:
448,192,258804,1,0,0:0:0:0:
64,192,258804,1,0,0:0:0:0:
320,192,258981,1,0,0:0:0:0:
192,192,259069,1,0,0:0:0:0:
320,192,259157,1,0,0:0:0:0:
192,192,259245,1,0,0:0:0:0:
448,192,259334,1,0,0:0:0:0:
320,192,259334,1,0,0:0:0:0:
64,192,259334,1,0,0:0:0:0:
192,192,259510,1,0,0:0:0:0:
64,192,259687,1,0,0:0:0:0:
320,192,259687,1,0,0:0:0:0:
192,192,259863,1,0,0:0:0:0:
448,192,259863,1,0,0:0:0:0:
64,192,260040,1,0,0:0:0:0:
320,192,260216,1,0,0:0:0:0:
192,192,260216,1,0,0:0:0:0:
448,192,260392,1,0,0:0:0:0:
64,192,260392,1,0,0:0:0:0:
192,192,260569,1,0,0:0:0:0:
320,192,260569,1,0,0:0:0:0:
320,192,260745,1,0,0:0:0:0:
448,192,260745,1,0,0:0:0:0:
192,192,260922,1,0,0:0:0:0:
64,192,261098,1,0,0:0:0:0:
192,192,261098,1,0,0:0:0:0:
320,192,261275,1,0,0:0:0:0:
448,192,261451,1,0,0:0:0:0:
320,192,261451,1,0,0:0:0:0:
64,192,261628,1,0,0:0:0:0:
64,192,261804,1,0,0:0:0:0:
192,192,261804,1,0,0:0:0:0:
448,192,261981,1,0,0:0:0:0:
192,192,262157,1,0,0:0:0:0:
448,192,262157,1,0,0:0:0:0:
64,192,262334,1,0,0:0:0:0:
320,192,262510,1,0,0:0:0:0:
448,192,262687,1,0,0:0:0:0:
64,192,262863,1,0,0:0:0:0:
448,192,263040,1,0,0:0:0:0:
192,192,263216,1,0,0:0:0:0:
320,192,263216,1,0,0:0:0:0:
448,192,263304,1,0,0:0:0:0:
192,192,263392,1,0,0:0:0:0:
64,192,263481,1,0,0:0:0:0:
320,192,263569,1,0,0:0:0:0:
448,192,263569,1,0,0:0:0:0:
320,192,263834,5,0,0:0:0:0:
192,192,263834,1,0,0:0:0:0:
64,192,264098,1,0,0:0:0:0:
192,192,264098,1,0,0:0:0:0:
64,192,264275,1,0,0:0:0:0:
320,192,264275,1,0,0:0:0:0:
192,192,264540,1,0,0:0:0:0:
448,192,264540,1,0,0:0:0:0:
320,192,264804,1,0,0:0:0:0:
192,192,264804,1,0,0:0:0:0:
64,192,264981,5,0,0:0:0:0:
448,192,264981,1,0,0:0:0:0:
192,192,264981,1,0,0:0:0:0:
192,192,265157,1,0,0:0:0:0:
320,192,265157,1,0,0:0:0:0:
64,192,265334,1,0,0:0:0:0:
448,192,265334,1,0,0:0:0:0:
320,192,265334,1,0,0:0:0:0:
192,192,265510,1,0,0:0:0:0:
320,192,265510,1,0,0:0:0:0:
64,192,265687,1,0,0:0:0:0:
448,192,265687,1,0,0:0:0:0:
192,192,265687,1,0,0:0:0:0:
192,192,265863,1,0,0:0:0:0:
448,192,265863,1,0,0:0:0:0:
64,192,266040,1,0,0:0:0:0:
320,192,266040,1,0,0:0:0:0:
448,192,266040,1,0,0:0:0:0:
192,192,266216,1,0,0:0:0:0:
320,192,266216,1,0,0:0:0:0:
64,192,266392,1,0,0:0:0:0:
448,192,266569,1,0,0:0:0:0:
320,192,266569,1,0,0:0:0:0:
320,192,266745,1,0,0:0:0:0:
192,192,266745,1,0,0:0:0:0:
448,192,266745,1,0,0:0:0:0:
64,192,266922,1,0,0:0:0:0:
192,192,266922,1,0,0:0:0:0:
320,192,267098,1,0,0:0:0:0:
448,192,267098,1,0,0:0:0:0:
64,192,267098,1,0,0:0:0:0:
320,192,267275,1,0,0:0:0:0:
192,192,267275,1,0,0:0:0:0:
64,192,267275,1,0,0:0:0:0:
64,192,267451,1,0,0:0:0:0:
320,192,267451,1,0,0:0:0:0:
448,192,267451,1,0,0:0:0:0:
192,192,267451,1,0,0:0:0:0:
64,192,267628,1,0,0:0:0:0:
192,192,267628,1,0,0:0:0:0:
448,192,267804,1,0,0:0:0:0:
320,192,267981,1,0,0:0:0:0:
192,192,267981,1,0,0:0:0:0:
448,192,268157,1,0,0:0:0:0:
64,192,268157,1,0,0:0:0:0:
192,192,268157,1,0,0:0:0:0:
320,192,268334,1,0,0:0:0:0:
192,192,268334,1,0,0:0:0:0:
448,192,268510,1,0,0:0:0:0:
64,192,268510,1,0,0:0:0:0:
192,192,268510,1,0,0:0:0:0:
320,192,268687,1,0,0:0:0:0:
64,192,268687,1,0,0:0:0:0:
448,192,268863,1,0,0:0:0:0:
192,192,268863,1,0,0:0:0:0:
320,192,268863,1,0,0:0:0:0:
320,192,269040,1,0,0:0:0:0:
192,192,269040,1,0,0:0:0:0:
64,192,269216,1,0,0:0:0:0:
448,192,269392,1,0,0:0:0:0:
320,192,269392,1,0,0:0:0:0:
320,192,269569,1,0,0:0:0:0:
192,192,269569,1,0,0:0:0:0:
448,192,269569,1,0,0:0:0:0:
64,192,269745,1,0,0:0:0:0:
192,192,269745,1,0,0:0:0:0:
320,192,269922,1,0,0:0:0:0:
448,192,269922,1,0,0:0:0:0:
64,192,269922,1,0,0:0:0:0:
320,192,270098,1,0,0:0:0:0:
192,192,270098,1,0,0:0:0:0:
448,192,270098,1,0,0:0:0:0:
64,192,270275,1,0,0:0:0:0:
448,192,270275,1,0,0:0:0:0:
320,192,270275,1,0,0:0:0:0:
192,192,270275,1,0,0:0:0:0:
320,192,270451,1,0,0:0:0:0:
192,192,270451,1,0,0:0:0:0:
448,192,270628,1,0,0:0:0:0:
64,192,270628,1,0,0:0:0:0:
192,192,270628,1,0,0:0:0:0:
320,192,270804,1,0,0:0:0:0:
192,192,270804,1,0,0:0:0:0:
64,192,270981,1,0,0:0:0:0:
448,192,270981,1,0,0:0:0:0:
320,192,270981,1,0,0:0:0:0:
320,192,271157,1,0,0:0:0:0:
192,192,271157,1,0,0:0:0:0:
64,192,271334,1,0,0:0:0:0:
448,192,271334,1,0,0:0:0:0:
192,192,271334,1,0,0:0:0:0:
320,192,271510,1,0,0:0:0:0:
448,192,271510,1,0,0:0:0:0:
64,192,271687,1,0,0:0:0:0:
192,192,271687,1,0,0:0:0:0:
448,192,271687,1,0,0:0:0:0:
320,192,271863,1,0,0:0:0:0:
192,192,271863,1,0,0:0:0:0:
64,192,272040,1,0,0:0:0:0:
448,192,272216,1,0,0:0:0:0:
192,192,272216,1,0,0:0:0:0:
192,192,272392,1,0,0:0:0:0:
320,192,272392,1,0,0:0:0:0:
448,192,272392,1,0,0:0:0:0:
64,192,272569,1,0,0:0:0:0:
320,192,272569,1,0,0:0:0:0:
192,192,272745,1,0,0:0:0:0:
448,192,272745,1,0,0:0:0:0:
64,192,272745,1,0,0:0:0:0:
192,192,272922,1,0,0:0:0:0:
320,192,272922,1,0,0:0:0:0:
448,192,272922,1,0,0:0:0:0:
64,192,273098,1,0,0:0:0:0:
192,192,273098,1,0,0:0:0:0:
448,192,273098,1,0,0:0:0:0:
320,192,273098,1,0,0:0:0:0:
64,192,273275,1,0,0:0:0:0:
320,192,273275,1,0,0:0:0:0:
64,192,273451,1,0,0:0:0:0:
192,192,273628,1,0,0:0:0:0:
320,192,273628,1,0,0:0:0:0:
448,192,273804,1,0,0:0:0:0:
64,192,273804,1,0,0:0:0:0:
320,192,273804,1,0,0:0:0:0:
192,192,273981,1,0,0:0:0:0:
320,192,273981,1,0,0:0:0:0:
448,192,274157,1,0,0:0:0:0:
64,192,274157,1,0,0:0:0:0:
320,192,274157,1,0,0:0:0:0:
192,192,274334,5,0,0:0:0:0:
64,192,274334,1,0,0:0:0:0:
448,192,274510,1,0,0:0:0:0:
320,192,274510,1,0,0:0:0:0:
64,192,274510,1,0,0:0:0:0:
192,192,274687,1,0,0:0:0:0:
320,192,274687,1,0,0:0:0:0:
448,192,274863,1,0,0:0:0:0:
448,192,275040,1,0,0:0:0:0:
192,192,275040,1,0,0:0:0:0:
192,192,275216,1,0,0:0:0:0:
320,192,275216,1,0,0:0:0:0:
64,192,275392,1,0,0:0:0:0:
320,192,275392,1,0,0:0:0:0:
192,192,275392,1,0,0:0:0:0:
448,192,275392,1,0,0:0:0:0:
