osu file format v14

[General]
AudioFilename: audio.mp3
AudioLeadIn: 0
PreviewTime: 70154
Countdown: 0
SampleSet: Soft
StackLeniency: 0.7
Mode: 0
LetterboxInBreaks: 0
EpilepsyWarning: 1
WidescreenStoryboard: 1

[Editor]
DistanceSpacing: 1.4
BeatDivisor: 4
GridSize: 32
TimelineZoom: 1

[Metadata]
Title:Romeo and Cinderella
TitleUnicode:ロミオとシンデレラ
Artist:doriko
ArtistUnicode:doriko
Creator:Chewin
Version:Insane
Source:
Tags:VOCALOID 初音ミク Hatsune Miku きりたんP kiritan-P apple niconico GhostFY
BeatmapID:1427613
BeatmapSetID:674753

[Difficulty]
HPDrainRate:6
CircleSize:4
OverallDifficulty:8
ApproachRate:8.5
SliderMultiplier:1.6
SliderTickRate:1

[Events]
//Background and Video events
0,0,"BG.jpg",0,0
//Break Periods
2,100001,109009
//Storyboard Layer 0 (Background)
//Storyboard Layer 1 (Fail)
//Storyboard Layer 2 (Pass)
//Storyboard Layer 3 (Foreground)
//Storyboard Sound Samples

[TimingPoints]
1684,352.941176470588,4,2,0,100,1,0
1684,-133.333333333333,4,2,0,100,0,0
2390,352.941176470588,4,2,0,100,1,0
2390,-133.333333333333,4,2,0,100,0,0
14037,-100,4,2,0,100,0,0
70154,-200,4,2,0,100,0,0
71566,-100,4,2,0,100,0,1
82507,-100,4,2,0,100,0,0
82860,-100,4,2,0,100,0,1
99801,-100,4,2,0,100,0,0
156271,-200,4,2,0,100,0,0
157683,-100,4,2,0,100,0,1
168625,-100,4,2,0,100,0,0
168978,-100,4,2,0,100,0,1
185919,-100,4,2,0,100,0,0
197213,-133.333333333333,4,2,0,100,0,0
225448,-100,4,2,0,100,0,1
236389,-100,4,2,0,100,0,0
236742,-100,4,2,0,100,0,1
247684,-100,4,2,0,100,0,0
248037,-100,4,2,0,100,0,1
264978,-100,4,2,0,100,0,0

[Colours]
Combo1 : 62,158,255
Combo2 : 39,151,171
Combo3 : 225,225,225

[HitObjects]
60,192,1684,6,0,L|128:188,1,60.0000022888184
184,276,2036,2,0,L|120:280,1,60.0000022888184
232,196,2390,6,0,P|296:196|368:216,1,120.000004577637
468,344,3095,2,0,P|402:360|336:360,1,120.000004577637
228,192,3801,2,0,P|292:192|364:212,1,120.000004577637
316,360,4507,6,0,L|248:364,1,60.0000022888184
192,276,4859,2,0,L|256:272,1,60.0000022888184
452,192,5213,5,0,0:0:0:0:
316,360,5566,1,0,0:0:0:0:
251,272,5742,2,0,P|248:200|256:128,1,120.000004577637
448,28,6448,1,0,0:0:0:0:
472,124,6625,6,0,P|476:172|472:208,1,60.0000022888184
340,260,6978,2,0,P|344:212|352:180,1,60.0000022888184
464,304,7331,2,0,P|468:356|464:388,1,60.0000022888184
340,260,7684,2,0,P|344:212|352:176,1,60.0000022888184
472,124,8037,5,0,0:0:0:0:
256,328,8389,1,0,0:0:0:0:
256,328,8566,2,0,P|192:328|112:340,1,120.000004577637
40,364,9095,5,0,0:0:0:0:
320,272,9448,1,0,0:0:0:0:
8,280,9801,5,0,0:0:0:0:
384,328,10154,1,0,0:0:0:0:
92,256,10507,5,0,0:0:0:0:
316,380,10860,1,0,0:0:0:0:
256,316,11037,6,0,P|252:252|256:180,1,120.000004577637
376,160,11566,2,0,P|380:227|376:292,1,120.000004577637
316,380,12095,1,0,0:0:0:0:
316,380,12272,5,0,0:0:0:0:
256,48,13684,1,0,0:0:0:0:
320,128,13860,5,0,0:0:0:0:
320,128,13948,1,0,0:0:0:0:
320,128,14037,2,0,P|328:208|324:308,1,160
256,364,14566,1,0,0:0:0:0:
200,284,14742,1,0,0:0:0:0:
200,284,14919,2,0,P|132:284|36:304,1,160
104,160,15448,6,0,L|100:64,1,80
206,204,15801,2,0,L|200:284,1,80
256,88,16154,1,0,0:0:0:0:
308,180,16331,2,0,P|360:180|476:156,1,160
465,159,16772,1,0,0:0:0:0:
465,159,16860,6,0,P|476:240|476:336,1,160
392,380,17389,1,0,0:0:0:0:
372,280,17566,1,0,0:0:0:0:
372,280,17742,2,0,P|288:284|200:304,1,160
256,188,18272,6,0,L|248:80,1,80
213,299,18625,2,0,L|204:384,1,80
156,212,18978,1,0,0:0:0:0:
104,304,19154,1,0,0:0:0:0:
104,304,19242,1,0,0:0:0:0:
104,304,19331,2,0,L|16:300,1,80
24,300,19595,1,0,0:0:0:0:
24,300,19684,6,0,P|40:220|48:132,1,160
96,28,20213,1,0,0:0:0:0:
164,112,20389,1,0,0:0:0:0:
164,112,20566,2,0,P|152:196|152:288,1,160
256,360,21095,6,0,L|336:356,1,80
384,260,21448,2,0,L|304:264,1,80
336,356,21801,1,0,0:0:0:0:
456,336,21978,2,0,P|472:284|440:164,1,160
452,182,22419,1,0,0:0:0:0:
452,182,22507,6,0,L|284:188,1,160
224,104,23037,1,0,0:0:0:0:
168,192,23213,1,0,0:0:0:0:
168,192,23389,2,0,P|164:240|168:292,1,80
256,340,23742,5,0,0:0:0:0:
279,336,23830,1,0,0:0:0:0:
303,335,23918,1,0,0:0:0:0:
327,336,24006,1,0,0:0:0:0:
351,340,24094,1,0,0:0:0:0:
374,346,24183,1,0,0:0:0:0:
397,353,24271,5,0,0:0:0:0:
328,80,24537,1,0,0:0:0:0:
132,284,24801,1,0,0:0:0:0:
132,284,24889,1,0,0:0:0:0:
132,284,24978,1,0,0:0:0:0:
76,364,25154,5,0,0:0:0:0:
40,276,25331,2,0,P|44:212|52:176,1,80
144,108,25684,2,0,P|152:156|152:216,1,80
132,284,26037,1,0,0:0:0:0:
132,284,26213,1,0,0:0:0:0:
36,360,26389,6,0,P|28:272|48:176,1,160
208,64,26919,2,0,P|216:152|196:248,1,160
140,356,27448,1,0,0:0:0:0:
96,256,27625,2,0,P|96:200|112:148,1,80
204,222,27978,1,0,0:0:0:0:
276,296,28154,6,0,P|276:340|268:376,1,80
204,222,28507,2,0,P|195:182|196:142,1,80
352,192,28860,1,0,0:0:0:0:
352,192,29037,1,0,0:0:0:0:
268,375,29213,6,0,P|252:295|264:199,1,160
444,112,29742,2,0,P|450:191|435:269,1,160
352,192,30272,1,0,0:0:0:0:
288,116,30448,2,0,P|288:64|296:24,1,80
352,192,30801,1,0,0:0:0:0:
256,304,30978,5,0,0:0:0:0:
220,224,31154,1,0,0:0:0:0:
168,344,31331,2,0,P|112:344|12:304,2,160
256,264,32213,1,0,0:0:0:0:
180,192,32389,2,0,P|132:192|96:200,1,80
16,306,32742,2,0,P|64:304|112:288,1,80
97,118,33095,2,0,P|96:158|100:198,1,80
220,360,33448,6,0,P|224:284|212:168,1,160
148,44,33978,1,0,0:0:0:0:
76,200,34154,2,0,P|69:279|73:359,1,160
220,360,34684,6,0,P|224:284|212:168,1,160
256,32,35213,1,0,0:0:0:0:
217,200,35389,1,0,0:0:0:0:
217,200,35478,1,0,0:0:0:0:
217,200,35566,1,0,0:0:0:0:
112,88,35742,5,0,0:0:0:0:
112,88,35831,1,0,0:0:0:0:
112,88,35919,1,0,0:0:0:0:
256,32,36095,1,0,0:0:0:0:
217,200,36272,2,0,P|216:248|224:312,1,80
424,364,36625,6,0,P|428:320|424:264,1,80
332,148,36978,2,0,P|332:187|336:227,1,80
436,176,37331,1,0,0:0:0:0:
436,176,37507,1,0,0:0:0:0:
396,48,37684,6,0,P|344:44|224:72,1,160
96,244,38213,2,0,P|168:256|272:244,1,160
436,176,38742,1,0,0:0:0:0:
336,152,38919,2,0,P|332:200|340:252,1,80
368,368,39272,1,0,0:0:0:0:
488,280,39448,6,0,P|440:280|392:288,1,80
204,356,39801,2,0,P|256:356|312:348,1,80
332,192,40154,1,0,0:0:0:0:
332,192,40331,1,0,0:0:0:0:
192,48,40507,6,0,P|176:112|180:224,1,160
424,364,41037,2,0,P|432:304|424:188,1,160
284,96,41566,1,0,0:0:0:0:
252,196,41742,2,0,P|248:244|260:304,1,80
284,96,42095,1,0,0:0:0:0:
148,120,42272,5,0,0:0:0:0:
96,40,42448,1,0,0:0:0:0:
56,160,42625,2,0,P|48:216|56:324,2,160
148,120,43507,1,0,0:0:0:0:
196,212,43684,2,0,P|248:208|292:192,1,80
397,72,44037,2,0,P|359:62|320:56,1,80
401,214,44389,2,0,P|440:225|480:228,1,80
292,156,44742,6,0,P|276:208|268:328,1,160
376,372,45272,1,0,0:0:0:0:
456,280,45448,2,0,P|456:212|436:112,1,160
276,8,45978,6,0,P|256:68|248:176,1,160
252,352,46507,2,0,P|248:308|236:256,1,80
240,272,46772,1,0,0:0:0:0:
240,272,46860,1,0,0:0:0:0:
240,272,46948,1,0,0:0:0:0:
240,272,47037,1,0,0:0:0:0:
240,272,47125,1,0,0:0:0:0:
240,272,47213,1,0,0:0:0:0:
240,272,47301,1,0,0:0:0:0:
240,272,47389,1,0,0:0:0:0:
240,272,47478,1,0,0:0:0:0:
240,272,47566,6,0,P|312:272|408:252,1,160
452,68,48095,2,0,P|400:72|272:108,1,160
168,192,48625,1,0,0:0:0:0:
256,348,48801,1,0,0:0:0:0:
408,284,48978,6,0,P|416:220|412:100,1,160
192,24,49507,2,0,P|176:84|172:204,1,160
256,360,50037,1,0,0:0:0:0:
420,276,50213,1,0,0:0:0:0:
300,72,50389,6,0,P|288:144|292:256,1,160
464,352,50919,2,0,P|472:292|464:176,1,160
256,40,51448,1,0,0:0:0:0:
128,192,51625,1,0,0:0:0:0:
256,324,51801,6,0,P|272:280|280:232,1,80
160,48,52154,1,0,0:0:0:0:
32,188,52331,1,0,0:0:0:0:
32,188,52419,1,0,0:0:0:0:
32,188,52507,1,0,0:0:0:0:
136,348,52684,2,0,P|148:304|156:248,1,80
228,56,53037,1,0,0:0:0:0:
436,192,53213,5,0,0:0:0:0:
400,288,53389,1,0,0:0:0:0:
340,208,53566,1,0,0:0:0:0:
340,208,53742,2,0,P|292:208|168:232,1,160
120,348,54272,1,0,0:0:0:0:
120,348,54448,1,0,0:0:0:0:
36,256,54625,6,0,P|36:196|44:160,1,80
88,64,54978,1,0,0:0:0:0:
148,152,55154,2,0,P|204:156|320:136,1,160
384,48,55684,1,0,0:0:0:0:
384,48,55860,1,0,0:0:0:0:
464,148,56037,6,0,P|468:212|468:320,1,160
312,368,56566,2,0,P|311:288|316:208,1,160
316,208,57007,1,0,0:0:0:0:
316,208,57095,1,0,0:0:0:0:
464,148,57272,6,0,P|468:212|468:320,1,160
312,368,57801,1,0,0:0:0:0:
312,368,57978,1,0,0:0:0:0:
256,256,58154,2,0,P|256:200|264:152,1,80
259,176,58419,1,0,0:0:0:0:
259,176,58507,1,0,0:0:0:0:
259,176,58595,1,0,0:0:0:0:
259,176,58684,1,0,0:0:0:0:
259,176,58772,1,0,0:0:0:0:
259,176,58860,6,0,P|320:176|436:160,1,160
144,56,59389,2,0,P|128:100|116:232,1,160
256,368,59919,1,0,0:0:0:0:
344,192,60095,1,0,0:0:0:0:
208,52,60272,6,0,P|196:112|200:224,1,160
448,364,60801,2,0,P|460:304|456:188,1,160
348,24,61331,1,0,0:0:0:0:
256,192,61507,1,0,0:0:0:0:
100,80,61684,6,0,P|80:128|68:256,1,160
256,368,62213,2,0,P|264:312|244:176,1,160
128,36,62742,1,0,0:0:0:0:
48,192,62919,1,0,0:0:0:0:
152,356,63095,6,0,P|156:300|152:256,1,80
128,36,63448,1,0,0:0:0:0:
48,192,63625,1,0,0:0:0:0:
48,192,63713,1,0,0:0:0:0:
48,192,63801,1,0,0:0:0:0:
152,356,63978,2,0,P|156:300|152:256,1,80
256,68,64331,1,0,0:0:0:0:
392,188,64507,5,0,0:0:0:0:
360,276,64684,1,0,0:0:0:0:
304,204,64860,1,0,0:0:0:0:
452,256,65037,2,0,P|456:312|448:368,1,80
344,372,65389,1,0,0:0:0:0:
256,296,65566,2,0,P|256:244|260:200,1,80
258,216,65831,1,0,0:0:0:0:
258,216,65919,6,0,P|332:216|424:192,1,160
256,48,66448,2,0,P|196:48|80:84,1,160
32,192,66978,1,0,0:0:0:0:
56,316,67154,2,0,P|120:320|248:292,1,160
214,304,67595,1,0,0:0:0:0:
214,304,67684,6,0,P|216:240|220:200,1,80
328,132,68037,2,0,P|332:176|332:224,1,80
256,60,68389,1,0,0:0:0:0:
214,304,68566,6,0,P|208:232|224:116,1,160
456,16,69095,2,0,P|464:80|460:188,1,160
328,368,69625,1,0,0:0:0:0:
325,348,69713,1,0,0:0:0:0:
324,328,69801,1,0,0:0:0:0:
323,308,69889,1,0,0:0:0:0:
324,288,69977,1,0,0:0:0:0:
326,268,70066,1,0,0:0:0:0:
328,248,70154,6,0,B|336:212|364:172|356:136|292:136|284:168|296:208|312:208,1,160
256,328,71037,1,0,0:0:0:0:
236,327,71125,1,0,0:0:0:0:
216,327,71213,1,0,0:0:0:0:
196,328,71301,1,0,0:0:0:0:
176,331,71389,1,0,0:0:0:0:
156,334,71478,1,0,0:0:0:0:
136,340,71566,6,0,P|128:280|128:224,1,80
256,128,71919,2,0,P|256:192|248:236,1,80
172,60,72272,1,0,0:0:0:0:
172,60,72448,1,0,0:0:0:0:
127,260,72625,1,0,0:0:0:0:
52,148,72801,6,0,P|112:144|232:196,1,160
256,356,73331,1,0,0:0:0:0:
480,236,73507,2,0,P|432:236|312:264,1,160
256,56,74037,1,0,0:0:0:0:
256,56,74213,1,0,0:0:0:0:
56,192,74389,6,0,P|44:256|48:364,1,160
256,280,74919,2,0,P|260:220|252:104,1,160
56,192,75448,1,0,0:0:0:0:
56,192,75625,1,0,0:0:0:0:
256,364,75801,6,0,P|344:364|436:336,1,160
312,112,76331,2,0,P|256:112|144:144,1,160
68,356,76860,1,0,0:0:0:0:
196,304,77037,1,0,0:0:0:0:
196,304,77125,1,0,0:0:0:0:
196,304,77213,6,0,P|196:256|188:200,1,80
96,12,77566,1,0,0:0:0:0:
24,184,77742,2,0,P|16:236|24:352,1,160
22,342,78184,1,0,0:0:0:0:
22,342,78272,1,0,0:0:0:0:
128,104,78448,1,0,0:0:0:0:
256,280,78625,6,0,P|212:284|148:280,1,80
256,136,78978,1,0,0:0:0:0:
256,136,79154,2,0,P|312:136|424:164,1,160
480,320,79684,1,0,0:0:0:0:
480,320,79860,1,0,0:0:0:0:
316,364,80037,6,0,P|320:296|328:260,1,80
256,44,80389,1,0,0:0:0:0:
160,184,80566,2,0,P|172:244|176:356,1,160
176,342,81007,1,0,0:0:0:0:
176,342,81095,1,0,0:0:0:0:
24,272,81272,1,0,0:0:0:0:
76,148,81448,6,0,P|80:104|88:52,1,80
85,68,81713,1,0,0:0:0:0:
85,68,81801,1,0,0:0:0:0:
256,196,81978,2,0,P|264:248|272:376,1,160
104,288,82507,1,0,0:0:0:0:
104,288,82595,1,0,0:0:0:0:
104,288,82684,1,0,0:0:0:0:
104,288,82772,1,0,0:0:0:0:
104,288,82860,6,0,P|108:208|124:116,1,160
256,16,83389,1,0,0:0:0:0:
328,192,83566,2,0,P|332:248|332:288,1,80
212,376,83919,1,0,0:0:0:0:
212,376,84095,1,0,0:0:0:0:
108,256,84272,2,0,P|108:192|120:148,1,80
256,36,84625,1,0,0:0:0:0:
400,176,84801,6,0,P|408:232|404:348,1,160
256,132,85331,1,0,0:0:0:0:
256,132,85507,1,0,0:0:0:0:
106,335,85684,6,0,P|102:255|112:176,1,160
348,40,86213,2,0,P|356:96|352:212,1,160
252,368,86742,1,0,0:0:0:0:
252,368,86919,1,0,0:0:0:0:
40,192,87095,6,0,P|120:192|208:220,1,160
407,338,87625,2,0,P|331:363|252:368,1,160
40,192,88154,1,0,0:0:0:0:
256,44,88331,1,0,0:0:0:0:
256,44,88419,1,0,0:0:0:0:
256,44,88507,6,0,P|264:92|264:140,1,80
200,348,88860,1,0,0:0:0:0:
40,248,89037,2,0,P|40:176|56:80,1,160
53,89,89478,1,0,0:0:0:0:
53,89,89566,1,0,0:0:0:0:
108,336,89742,1,0,0:0:0:0:
280,192,89919,6,0,P|236:192|188:200,1,80
256,352,90272,1,0,0:0:0:0:
256,352,90448,2,0,P|324:356|424:336,1,160
472,192,90978,1,0,0:0:0:0:
472,192,91154,1,0,0:0:0:0:
320,40,91331,6,0,P|312:80|312:136,1,80
252,364,91684,1,0,0:0:0:0:
212,244,91860,2,0,P|204:172|172:68,1,160
180,87,92301,1,0,0:0:0:0:
180,87,92389,1,0,0:0:0:0:
36,192,92566,1,0,0:0:0:0:
124,364,92742,6,0,P|176:360|224:348,1,80
203,354,93007,1,0,0:0:0:0:
203,354,93095,1,0,0:0:0:0:
404,256,93272,2,0,P|356:252|312:240,1,80
325,244,93537,1,0,0:0:0:0:
325,244,93625,1,0,0:0:0:0:
92,188,93801,1,0,0:0:0:0:
92,188,93889,1,0,0:0:0:0:
92,188,93978,1,0,0:0:0:0:
92,188,94066,1,0,0:0:0:0:
92,188,94154,6,0,P|168:184|264:148,1,160
364,20,94684,1,0,0:0:0:0:
448,192,94860,1,0,0:0:0:0:
448,192,94948,1,0,0:0:0:0:
448,192,95037,1,0,0:0:0:0:
364,364,95213,1,0,0:0:0:0:
364,364,95389,1,0,0:0:0:0:
256,228,95566,6,0,P|260:152|272:56,2,160
256,228,96360,1,0,0:0:0:0:
256,228,96448,1,0,0:0:0:0:
128,376,96625,2,0,P|128:320|124:260,1,80
48,36,96978,6,0,P|40:92|44:224,1,160
252,368,97507,2,0,P|256:284|248:180,1,160
168,40,98037,1,0,0:0:0:0:
168,40,98125,1,0,0:0:0:0:
168,40,98213,1,0,0:0:0:0:
168,40,98301,1,0,0:0:0:0:
168,40,98389,5,0,0:0:0:0:
352,168,98654,1,0,0:0:0:0:
256,368,98919,1,0,0:0:0:0:
204,228,99095,5,0,0:0:0:0:
416,320,99360,1,0,0:0:0:0:
348,88,99625,1,0,0:0:0:0:
350,128,99713,1,0,0:0:0:0:
352,168,99801,5,0,0:0:0:0:
172,192,109684,6,0,L|168:108,1,80
168,112,109948,1,0,0:0:0:0:
168,112,110037,1,0,0:0:0:0:
64,192,110213,1,0,0:0:0:0:
160,360,110389,5,0,0:0:0:0:
360,232,110654,1,0,0:0:0:0:
256,28,110919,1,0,0:0:0:0:
256,28,111007,1,0,0:0:0:0:
256,28,111095,1,0,0:0:0:0:
232,120,111272,5,0,0:0:0:0:
152,192,111448,2,0,P|136:140|136:92,1,80
256,220,111801,2,0,P|256:268|244:316,1,80
160,368,112154,1,0,0:0:0:0:
44,244,112331,5,0,0:0:0:0:
44,244,112419,1,0,0:0:0:0:
44,244,112507,2,0,P|40:172|48:76,1,160
236,176,113037,2,0,P|240:256|232:360,1,160
144,252,113566,1,0,0:0:0:0:
136,136,113742,2,0,P|136:80|144:48,1,80
236,176,114095,1,0,0:0:0:0:
144,252,114272,6,0,P|88:252|56:256,1,80
152,360,114625,2,0,P|196:360|240:348,1,80
288,192,114978,1,0,0:0:0:0:
484,304,115154,5,0,0:0:0:0:
484,304,115242,1,0,0:0:0:0:
484,304,115331,2,0,P|416:300|324:320,1,160
44,360,115860,2,0,P|112:368|220:348,1,160
253,164,116389,1,0,0:0:0:0:
253,164,116478,1,0,0:0:0:0:
253,164,116566,1,0,0:0:0:0:
253,164,116654,1,0,0:0:0:0:
253,164,116742,6,0,P|257:204|256:244,1,80
201,354,117095,1,0,0:0:0:0:
168,260,117272,1,0,0:0:0:0:
292,328,117448,2,0,P|344:328|456:296,2,160
168,260,118331,1,0,0:0:0:0:
280,112,118507,6,0,P|288:164|284:220,1,80
168,260,118860,2,0,P|168:200|176:144,1,80
380,188,119213,2,0,P|384:256|376:352,2,160
256,48,120095,1,0,0:0:0:0:
169,180,120272,2,0,P|167:220|168:260,1,80
252,368,120625,1,0,0:0:0:0:
476,240,120801,6,0,P|432:240|308:272,1,160
388,152,121331,2,0,L|380:56,1,80
381,72,121595,1,0,0:0:0:0:
381,72,121684,1,0,0:0:0:0:
319,266,121860,1,0,0:0:0:0:
319,266,121948,1,0,0:0:0:0:
319,266,122037,1,0,0:0:0:0:
256,152,122213,1,0,0:0:0:0:
256,348,122389,5,0,0:0:0:0:
188,280,122566,1,0,0:0:0:0:
188,280,122742,2,0,P|164:320|148:372,1,80
60,284,123095,2,0,P|56:232|48:180,1,80
124,88,123448,1,0,0:0:0:0:
124,88,123625,1,0,0:0:0:0:
168,196,123801,6,0,P|216:196|348:172,1,160
416,36,124331,2,0,P|436:80|456:200,1,160
380,346,124860,1,0,0:0:0:0:
324,258,125037,2,0,P|324:202|328:158,1,80
380,346,125389,1,0,0:0:0:0:
256,328,125566,6,0,P|208:328|168:332,1,80
24,268,125919,2,0,P|72:264|112:256,1,80
188,164,126272,1,0,0:0:0:0:
188,164,126448,1,0,0:0:0:0:
396,240,126625,6,0,P|320:240|232:252,1,160
32,348,127154,2,0,P|88:352|208:328,1,160
256,156,127684,1,0,0:0:0:0:
332,220,127860,2,0,P|336:280|332:336,1,80
256,380,128213,1,0,0:0:0:0:
133,285,128389,6,0,P|172:275|212:276,1,80
411,353,128742,2,0,P|335:377|256:380,1,160
164,192,129272,1,0,0:0:0:0:
256,116,129448,2,0,P|264:164|264:208,1,80
76,292,129801,6,0,P|72:236|80:196,1,80
153,32,130154,2,0,P|163:112|164:192,1,160
132,364,130684,1,0,0:0:0:0:
28,236,130860,6,0,P|28:152|44:56,1,160
148,16,131389,1,0,0:0:0:0:
208,116,131566,2,0,P|208:176|200:216,1,80
204,195,131831,1,0,0:0:0:0:
204,195,131919,1,0,0:0:0:0:
104,308,132095,6,0,P|152:308|276:344,1,160
472,288,132625,2,0,P|424:304|388:328,1,80
399,319,132889,1,0,0:0:0:0:
399,319,132978,1,0,0:0:0:0:
399,319,133066,1,0,0:0:0:0:
399,319,133154,1,0,0:0:0:0:
399,319,133242,1,0,0:0:0:0:
399,319,133331,1,0,0:0:0:0:
399,319,133419,1,0,0:0:0:0:
399,319,133507,1,0,0:0:0:0:
399,319,133595,1,0,0:0:0:0:
399,319,133684,6,0,P|416:236|420:144,1,160
204,24,134213,2,0,P|200:112|220:216,1,160
256,364,134742,1,0,0:0:0:0:
376,192,134919,1,0,0:0:0:0:
413,351,135095,6,0,P|334:348|256:364,1,160
32,264,135625,2,0,P|116:272|208:244,1,160
252,64,136154,1,0,0:0:0:0:
384,192,136331,1,0,0:0:0:0:
256,356,136507,6,0,P|252:280|264:184,1,160
452,28,137037,2,0,P|460:116|456:224,1,160
364,368,137566,1,0,0:0:0:0:
261,196,137742,1,0,0:0:0:0:
76,304,137919,6,0,P|120:296|168:280,1,80
261,196,138272,1,0,0:0:0:0:
256,368,138448,1,0,0:0:0:0:
256,368,138537,1,0,0:0:0:0:
256,368,138625,1,0,0:0:0:0:
153,285,138801,2,0,P|144:228|156:112,1,160
320,20,139331,6,0,P|324:68|320:112,1,80
261,196,139684,1,0,0:0:0:0:
152,126,139860,2,0,P|143:205|153:285,1,160
252,372,140389,1,0,0:0:0:0:
252,372,140566,1,0,0:0:0:0:
412,248,140742,6,0,P|368:248|320:256,1,80
252,372,141095,1,0,0:0:0:0:
40,264,141272,2,0,P|92:264|212:296,1,160
244,180,141801,2,0,L|240:88,1,80
116,28,142154,6,0,P|96:96|96:208,1,160
336,364,142684,2,0,P|340:308|324:184,1,160
329,204,143125,1,0,0:0:0:0:
329,204,143213,1,0,0:0:0:0:
116,28,143389,6,0,P|96:96|96:208,1,160
256,360,143919,2,0,P|252:300|240:248,1,80
197,112,144272,2,0,P|195:152|200:192,1,80
199,191,144537,1,0,0:0:0:0:
199,191,144625,1,0,0:0:0:0:
199,191,144713,1,0,0:0:0:0:
199,191,144801,1,0,0:0:0:0:
199,191,144889,1,0,0:0:0:0:
199,191,144978,6,0,P|304:184|380:200,1,160
480,352,145507,2,0,P|400:362|321:353,1,160
199,191,146037,1,0,0:0:0:0:
128,372,146213,1,0,0:0:0:0:
48,228,146389,6,0,P|40:144|56:48,1,160
308,192,146919,2,0,P|316:264|308:360,1,160
164,192,147448,1,0,0:0:0:0:
256,36,147625,1,0,0:0:0:0:
408,192,147801,6,0,P|416:252|408:368,1,160
172,240,148331,2,0,P|172:164|192:64,1,160
312,192,148860,1,0,0:0:0:0:
256,372,149037,1,0,0:0:0:0:
172,240,149213,6,0,P|172:168|180:128,1,80
256,32,149566,1,0,0:0:0:0:
312,192,149742,1,0,0:0:0:0:
312,192,149831,1,0,0:0:0:0:
312,192,149919,1,0,0:0:0:0:
440,104,150095,2,0,P|456:176|440:288,1,160
320,352,150625,6,0,P|264:352|228:360,1,80
56,264,150978,1,0,0:0:0:0:
56,264,151154,2,0,P|144:264|224:248,1,160
256,64,151684,1,0,0:0:0:0:
396,144,151860,1,0,0:0:0:0:
396,144,151948,1,0,0:0:0:0:
396,144,152037,6,0,P|400:208|392:260,1,80
304,360,152389,1,0,0:0:0:0:
160,288,152566,2,0,P|156:200|168:108,1,160
256,24,153095,1,0,0:0:0:0:
348,128,153272,6,0,P|356:208|352:288,1,160
352,287,153713,1,0,0:0:0:0:
352,287,153801,2,0,P|304:280|256:284,1,80
112,353,154154,2,0,P|152:355|192:348,1,80
256,192,154507,1,0,0:0:0:0:
152,88,154684,6,0,P|144:152|148:268,1,160
420,364,155213,2,0,P|428:292|420:184,1,160
256,40,155742,1,0,0:0:0:0:
253,60,155830,1,0,0:0:0:0:
252,80,155918,1,0,0:0:0:0:
251,100,156006,1,0,0:0:0:0:
252,120,156094,1,0,0:0:0:0:
254,140,156183,1,0,0:0:0:0:
256,160,156271,6,0,B|264:196|292:236|284:272|220:272|212:240|224:200|240:200,1,160
256,44,157154,1,0,0:0:0:0:
275,47,157242,1,0,0:0:0:0:
295,48,157330,1,0,0:0:0:0:
315,48,157418,1,0,0:0:0:0:
335,46,157506,1,0,0:0:0:0:
355,41,157595,1,0,0:0:0:0:
376,36,157684,6,0,P|384:72|384:120,1,80
294,271,158037,2,0,P|296:231|304:192,1,80
416,252,158389,1,0,0:0:0:0:
416,252,158566,1,0,0:0:0:0:
364,368,158742,1,0,0:0:0:0:
294,271,158919,6,0,P|236:260|128:272,1,160
28,192,159448,1,0,0:0:0:0:
16,368,159625,2,0,P|92:372|200:344,1,160
256,188,160154,1,0,0:0:0:0:
256,188,160331,1,0,0:0:0:0:
480,312,160507,6,0,P|424:308|320:276,1,160
256,56,161037,2,0,P|160:64|68:96,1,160
24,264,161566,1,0,0:0:0:0:
24,264,161742,1,0,0:0:0:0:
208,172,161919,6,0,P|228:252|232:352,1,160
36,368,162448,2,0,P|44:260|64:200,1,160
176,32,162978,1,0,0:0:0:0:
208,172,163154,1,0,0:0:0:0:
320,84,163331,6,0,P|340:168|348:264,1,160
92,364,163860,2,0,P|100:268|116:196,1,160
113,205,164301,1,0,0:0:0:0:
113,205,164389,1,0,0:0:0:0:
256,352,164566,1,0,0:0:0:0:
384,188,164742,6,0,P|388:240|384:288,1,80
256,352,165095,1,0,0:0:0:0:
192,232,165272,2,0,P|192:140|208:64,1,160
348,0,165801,1,0,0:0:0:0:
348,0,165978,1,0,0:0:0:0:
448,128,166154,6,0,P|456:192|456:244,1,80
392,344,166507,1,0,0:0:0:0:
256,328,166684,2,0,P|256:244|276:148,1,160
269,169,167125,1,0,0:0:0:0:
269,169,167213,1,0,0:0:0:0:
376,24,167389,1,0,0:0:0:0:
448,128,167566,6,0,P|456:192|456:244,1,80
456,207,167831,1,0,0:0:0:0:
456,207,167919,1,0,0:0:0:0:
392,328,168095,2,0,P|312:328|224:348,1,160
60,264,168625,1,0,0:0:0:0:
60,264,168713,1,0,0:0:0:0:
60,264,168801,1,0,0:0:0:0:
60,264,168889,1,0,0:0:0:0:
60,264,168978,6,0,P|68:196|76:160,1,80
176,112,169331,2,0,P|184:151|185:190,1,80
108,32,169684,1,0,0:0:0:0:
108,32,169860,1,0,0:0:0:0:
70,184,170037,1,0,0:0:0:0:
144,336,170213,6,0,P|216:336|320:356,1,160
472,192,170742,1,0,0:0:0:0:
320,48,170919,2,0,P|312:136|328:236,1,160
400,368,171448,1,0,0:0:0:0:
400,368,171625,1,0,0:0:0:0:
472,192,171801,6,0,P|476:112|460:32,1,160
184,192,172331,2,0,P|176:272|184:368,1,160
336,272,172860,1,0,0:0:0:0:
336,272,173037,1,0,0:0:0:0:
256,72,173213,6,0,P|192:68|88:96,1,160
36,280,173742,2,0,P|104:280|212:248,1,160
396,108,174272,1,0,0:0:0:0:
436,296,174448,1,0,0:0:0:0:
436,296,174537,1,0,0:0:0:0:
436,296,174625,6,0,P|388:296|320:308,1,80
256,172,174978,1,0,0:0:0:0:
44,332,175154,2,0,P|108:340|220:304,1,160
199,316,175595,1,0,0:0:0:0:
199,316,175684,1,0,0:0:0:0:
256,88,175860,1,0,0:0:0:0:
116,136,176037,6,0,P|112:184|116:240,1,80
252,376,176389,1,0,0:0:0:0:
404,300,176566,2,0,P|416:224|400:116,1,160
256,32,177095,1,0,0:0:0:0:
256,32,177272,1,0,0:0:0:0:
168,192,177448,6,0,P|164:248|168:300,1,80
252,372,177801,1,0,0:0:0:0:
448,256,177978,2,0,P|376:256|288:276,1,160
290,275,178419,1,0,0:0:0:0:
290,275,178507,1,0,0:0:0:0:
256,120,178684,1,0,0:0:0:0:
120,200,178860,6,0,P|116:256|124:300,1,80
119,279,179125,1,0,0:0:0:0:
119,279,179213,1,0,0:0:0:0:
287,354,179389,2,0,P|291:298|287:246,1,80
290,274,179654,1,0,0:0:0:0:
290,274,179742,1,0,0:0:0:0:
208,64,179919,1,0,0:0:0:0:
208,64,180007,1,0,0:0:0:0:
208,64,180095,1,0,0:0:0:0:
208,64,180184,1,0,0:0:0:0:
208,64,180272,6,0,P|196:136|208:244,1,160
316,368,180801,1,0,0:0:0:0:
432,244,180978,1,0,0:0:0:0:
432,244,181066,1,0,0:0:0:0:
432,244,181154,1,0,0:0:0:0:
356,84,181331,1,0,0:0:0:0:
356,84,181507,1,0,0:0:0:0:
256,196,181684,6,0,P|248:264|256:380,2,160
256,196,182478,1,0,0:0:0:0:
256,196,182566,1,0,0:0:0:0:
168,24,182742,2,0,P|176:80|176:124,1,80
56,344,183095,6,0,P|52:264|76:168,1,160
250,36,183625,2,0,P|259:116|255:196,1,160
152,352,184154,1,0,0:0:0:0:
152,352,184242,1,0,0:0:0:0:
152,352,184331,1,0,0:0:0:0:
152,352,184419,1,0,0:0:0:0:
152,352,184507,5,0,0:0:0:0:
176,128,184772,1,0,0:0:0:0:
392,192,185037,1,0,0:0:0:0:
316,308,185213,5,0,0:0:0:0:
332,84,185478,1,0,0:0:0:0:
512,204,185742,1,0,0:0:0:0:
392,192,185919,5,0,0:0:0:0:
392,192,186095,1,0,0:0:0:0:
392,192,186272,2,0,P|344:192|304:184,1,80
256,72,186625,1,0,0:0:0:0:
152,128,186801,2,0,P|156:172|156:232,1,80
64,312,187154,6,0,P|116:312|228:352,1,160
376,264,187684,2,0,P|368:308|360:368,1,80
256,240,188037,1,0,0:0:0:0:
256,240,188125,1,0,0:0:0:0:
256,240,188213,2,0,P|256:184|252:136,1,80
208,28,188566,1,0,0:0:0:0:
124,116,188742,6,0,P|124:164|128:212,1,80
256,348,189095,2,0,P|252:304|236:248,1,80
243,269,189360,1,0,0:0:0:0:
243,269,189448,2,0,P|240:200|260:96,1,160
348,12,189978,1,0,0:0:0:0:
432,108,190154,5,0,0:0:0:0:
436,127,190242,1,0,0:0:0:0:
440,147,190330,1,0,0:0:0:0:
443,166,190418,1,0,0:0:0:0:
445,186,190506,1,0,0:0:0:0:
446,206,190595,1,0,0:0:0:0:
446,226,190683,1,0,0:0:0:0:
445,246,190771,1,0,0:0:0:0:
444,268,190860,6,0,P|380:272|276:212,1,160
256,68,191389,1,0,0:0:0:0:
124,132,191566,5,0,0:0:0:0:
124,132,191654,1,0,0:0:0:0:
124,132,191742,1,0,0:0:0:0:
124,132,191831,1,0,0:0:0:0:
124,132,191919,2,0,P|136:180|144:224,1,80
252,372,192272,5,0,0:0:0:0:
252,372,192360,1,0,0:0:0:0:
252,372,192448,1,0,0:0:0:0:
252,372,192537,1,0,0:0:0:0:
252,372,192625,2,0,P|256:316|264:276,1,80
372,76,192978,5,0,0:0:0:0:
372,76,193066,1,0,0:0:0:0:
372,76,193154,1,0,0:0:0:0:
372,76,193242,1,0,0:0:0:0:
372,76,193331,1,0,0:0:0:0:
372,76,193419,1,0,0:0:0:0:
372,76,193507,1,0,0:0:0:0:
372,76,193595,1,0,0:0:0:0:
372,76,193684,2,0,P|384:144|384:244,1,160
252,364,194213,1,0,0:0:0:0:
160,256,194389,6,0,P|160:212|172:156,1,80
288,96,194742,1,0,0:0:0:0:
288,96,194831,1,0,0:0:0:0:
288,96,194919,2,0,P|296:156|284:260,1,160
164,368,195448,1,0,0:0:0:0:
80,260,195625,5,0,0:0:0:0:
80,260,195713,1,0,0:0:0:0:
80,260,195801,1,0,0:0:0:0:
80,260,195889,1,0,0:0:0:0:
80,260,195978,1,0,0:0:0:0:
80,260,196066,1,0,0:0:0:0:
80,260,196154,1,0,0:0:0:0:
80,260,196242,1,0,0:0:0:0:
80,260,196331,1,0,0:0:0:0:
80,260,196419,1,0,0:0:0:0:
80,260,196507,6,0,P|72:176|88:88,1,160
196,20,197037,1,0,0:0:0:0:
376,192,197213,5,0,0:0:0:0:
256,360,197566,1,0,0:0:0:0:
208,276,197742,2,0,P|164:276|84:292,1,120.000004577637
256,360,198448,1,0,0:0:0:0:
332,280,198625,6,0,P|336:216|328:144,1,120.000004577637
228,80,199154,2,0,P|219:139|221:199,1,120.000004577637
256,360,199860,1,0,0:0:0:0:
332,280,200037,6,0,P|392:280|472:296,1,120.000004577637
392,180,200566,2,0,P|388:116|392:48,1,120.000004577637
488,204,201272,1,0,0:0:0:0:
451,289,201448,6,0,P|391:279|332:280,1,120.000004577637
256,360,201978,2,0,P|188:368|112:352,1,120.000004577637
44,192,202684,1,0,0:0:0:0:
128,232,202860,5,0,0:0:0:0:
256,24,203213,1,0,0:0:0:0:
304,108,203389,2,0,P|348:108|428:92,1,120.000004577637
256,24,204095,1,0,0:0:0:0:
256,24,204184,1,0,0:0:0:0:
256,24,204272,6,0,P|200:24|116:40,1,120.000004577637
48,128,204801,2,0,P|96:132|192:160,1,120.000004577637
256,256,205331,1,0,0:0:0:0:
256,256,205507,1,0,0:0:0:0:
324,360,205684,6,0,P|372:360|456:340,1,120.000004577637
456,192,206213,2,0,P|412:192|324:216,1,120.000004577637
208,336,206919,1,0,0:0:0:0:
208,336,207007,1,0,0:0:0:0:
208,336,207095,6,0,P|176:332|136:328,1,60.0000022888184
40,216,207448,1,0,0:0:0:0:
40,216,207625,2,0,P|104:216|168:204,1,120.000004577637
256,96,208154,1,0,0:0:0:0:
256,96,208242,1,0,0:0:0:0:
256,96,208331,1,0,0:0:0:0:
256,96,208419,1,0,0:0:0:0:
256,96,208507,6,0,P|292:96|336:104,1,60.0000022888184
444,192,208860,1,0,0:0:0:0:
444,192,209037,2,0,P|388:192|304:208,1,120.000004577637
256,312,209566,1,0,0:0:0:0:
256,312,209742,1,0,0:0:0:0:
168,232,209919,6,0,P|168:188|180:100,1,120.000004577637
292,56,210448,2,0,P|300:116|296:192,1,120.000004577637
256,312,210978,1,0,0:0:0:0:
256,312,211154,1,0,0:0:0:0:
168,232,211331,6,0,P|168:188|180:100,1,120.000004577637
56,192,211860,2,0,P|60:248|60:336,1,120.000004577637
80,96,212389,1,0,0:0:0:0:
80,96,212566,1,0,0:0:0:0:
168,232,212742,6,0,P|228:232|304:220,1,120.000004577637
412,324,213272,2,0,P|376:328|340:340,1,60.0000022888184
353,334,213537,1,0,0:0:0:0:
353,334,213625,1,0,0:0:0:0:
384,220,213801,1,0,0:0:0:0:
384,220,213978,1,0,0:0:0:0:
384,220,214154,6,0,P|384:176|388:136,1,60.0000022888184
280,88,214507,1,0,0:0:0:0:
280,88,214684,2,0,P|284:140|288:220,1,120.000004577637
256,336,215213,1,0,0:0:0:0:
256,336,215389,1,0,0:0:0:0:
164,240,215566,6,0,P|164:184|176:100,1,120.000004577637
304,28,216095,2,0,P|312:80|316:168,1,120.000004577637
256,272,216625,1,0,0:0:0:0:
256,272,216801,1,0,0:0:0:0:
204,160,216978,6,0,P|156:160|72:180,1,120.000004577637
12,288,217507,2,0,P|84:292|152:316,1,120.000004577637
256,272,218037,1,0,0:0:0:0:
256,272,218213,1,0,0:0:0:0:
340,368,218389,6,0,P|396:364|424:360,1,60.0000022888184
468,240,218742,1,0,0:0:0:0:
468,240,218919,2,0,P|416:240|332:264,1,120.000004577637
252,332,219448,1,0,0:0:0:0:
252,332,219537,1,0,0:0:0:0:
252,332,219625,1,0,0:0:0:0:
252,332,219713,1,0,0:0:0:0:
252,332,219801,6,0,P|184:332|128:316,1,120.000004577637
72,128,220507,2,0,P|144:120|216:132,1,120.000004577637
369,345,221213,6,0,P|310:346|252:332,1,120.000004577637
204,52,221919,2,0,P|276:44|348:56,1,120.000004577637
448,288,222625,6,0,P|408:280|380:264,1,60.0000022888184
312,140,222978,2,0,P|316:170|316:200,1,60.0000022888184
256,336,223331,1,0,0:0:0:0:
256,336,223419,1,0,0:0:0:0:
256,336,223507,1,0,0:0:0:0:
256,336,223595,1,0,0:0:0:0:
256,336,223684,1,0,0:0:0:0:
256,336,223772,1,0,0:0:0:0:
256,336,223860,1,0,0:0:0:0:
256,336,223948,1,0,0:0:0:0:
256,336,224037,5,0,0:0:0:0:
160,36,224742,1,0,0:0:0:0:
84,96,224919,1,0,0:0:0:0:
88,113,225007,1,0,0:0:0:0:
92,130,225095,1,0,0:0:0:0:
96,148,225183,1,0,0:0:0:0:
98,166,225271,1,0,0:0:0:0:
100,184,225360,1,0,0:0:0:0:
100,204,225448,6,0,P|92:248|88:312,1,80
200,368,225801,2,0,P|196:312|188:268,1,80
188,88,226154,1,0,0:0:0:0:
188,88,226331,1,0,0:0:0:0:
192,288,226507,1,0,0:0:0:0:
436,168,226684,6,0,P|364:168|268:188,1,160
68,192,227213,1,0,0:0:0:0:
256,356,227389,2,0,P|336:360|424:328,1,160
476,192,227919,1,0,0:0:0:0:
476,192,228095,1,0,0:0:0:0:
320,36,228272,6,0,P|308:92|308:216,1,160
208,348,228801,2,0,P|212:288|200:172,1,160
124,20,229331,1,0,0:0:0:0:
124,20,229507,1,0,0:0:0:0:
45,192,229684,6,0,P|124:201|203:188,1,160
413,328,230213,2,0,P|341:332|241:356,1,160
256,48,230742,1,0,0:0:0:0:
392,144,230919,1,0,0:0:0:0:
392,144,231007,1,0,0:0:0:0:
392,144,231095,6,0,P|396:200|392:240,1,80
255,351,231448,1,0,0:0:0:0:
116,272,231625,2,0,P|112:188|124:96,1,160
120,112,232066,1,0,0:0:0:0:
120,112,232154,1,0,0:0:0:0:
256,28,232331,1,0,0:0:0:0:
332,136,232507,6,0,P|336:184|336:232,1,80
256,368,232860,1,0,0:0:0:0:
60,232,233037,2,0,P|120:232|224:252,1,160
448,192,233566,1,0,0:0:0:0:
448,192,233742,1,0,0:0:0:0:
416,328,233919,6,0,P|376:328|332:336,1,80
256,224,234272,1,0,0:0:0:0:
48,300,234448,2,0,P|124:304|220:336,1,160
203,328,234889,1,0,0:0:0:0:
203,328,234978,1,0,0:0:0:0:
404,192,235154,1,0,0:0:0:0:
248,144,235331,6,0,L|256:223,1,80
256,223,235595,1,0,0:0:0:0:
256,223,235684,1,0,0:0:0:0:
409,348,235860,2,0,P|420:269|404:192,1,160
256,32,236389,1,0,0:0:0:0:
256,32,236478,1,0,0:0:0:0:
256,32,236566,1,0,0:0:0:0:
256,32,236654,1,0,0:0:0:0:
256,32,236742,6,0,P|256:96|264:136,1,80
339,275,237095,2,0,P|335:235|328:196,1,80
180,192,237448,1,0,0:0:0:0:
180,192,237625,1,0,0:0:0:0:
328,196,237801,1,0,0:0:0:0:
256,304,237978,1,0,0:0:0:0:
256,88,238154,5,0,0:0:0:0:
256,88,238331,1,0,0:0:0:0:
452,192,238507,1,0,0:0:0:0:
256,304,238684,2,0,P|180:308|92:328,1,160
28,192,239213,1,0,0:0:0:0:
28,192,239389,1,0,0:0:0:0:
172,16,239566,6,0,P|184:88|188:188,1,160
288,368,240095,2,0,P|288:296|304:192,1,160
404,12,240625,1,0,0:0:0:0:
404,12,240801,1,0,0:0:0:0:
472,192,240978,6,0,P|480:248|472:360,1,160
200,252,241507,2,0,P|204:168|224:72,1,160
404,12,242037,1,0,0:0:0:0:
404,12,242213,1,0,0:0:0:0:
400,192,242389,6,0,P|404:236|400:288,1,80
256,368,242742,1,0,0:0:0:0:
60,228,242919,2,0,P|116:228|224:256,1,160
216,252,243360,1,0,0:0:0:0:
216,252,243448,1,0,0:0:0:0:
256,56,243625,1,0,0:0:0:0:
432,192,243801,6,0,P|436:240|432:280,1,80
308,376,244154,1,0,0:0:0:0:
256,236,244331,2,0,P|260:176|272:136,1,80
264,156,244595,1,0,0:0:0:0:
264,156,244684,1,0,0:0:0:0:
152,20,244860,1,0,0:0:0:0:
152,20,245037,1,0,0:0:0:0:
56,128,245213,6,0,P|60:176|60:216,1,80
60,207,245478,1,0,0:0:0:0:
60,207,245566,1,0,0:0:0:0:
172,368,245742,2,0,P|168:292|184:184,1,160
256,28,246272,1,0,0:0:0:0:
256,28,246448,1,0,0:0:0:0:
392,136,246625,6,0,P|392:184|384:232,1,80
387,215,246889,1,0,0:0:0:0:
387,215,246978,1,0,0:0:0:0:
252,360,247154,2,0,P|256:300|260:260,1,80
257,280,247419,1,0,0:0:0:0:
257,280,247507,1,0,0:0:0:0:
200,48,247684,1,0,0:0:0:0:
200,48,247772,1,0,0:0:0:0:
200,48,247860,1,0,0:0:0:0:
200,48,247948,1,0,0:0:0:0:
200,48,248037,6,0,P|212:112|212:156,1,80
112,280,248389,2,0,P|116:228|128:176,1,80
257,280,248742,1,0,0:0:0:0:
257,280,248919,1,0,0:0:0:0:
212,126,249095,1,0,0:0:0:0:
118,359,249272,6,0,P|112:279|121:200,1,160
256,32,249801,1,0,0:0:0:0:
396,144,249978,2,0,P|408:208|404:324,1,160
252,372,250507,1,0,0:0:0:0:
252,372,250684,1,0,0:0:0:0:
48,188,250860,6,0,P|128:188|232:216,1,160
409,352,251389,2,0,P|331:372|252:372,1,160
180,96,251919,1,0,0:0:0:0:
180,96,252095,1,0,0:0:0:0:
380,32,252272,6,0,P|396:104|392:208,1,160
112,368,252801,2,0,P|112:284|128:184,1,160
256,28,253331,1,0,0:0:0:0:
256,28,253507,1,0,0:0:0:0:
320,192,253684,6,0,P|324:236|324:284,1,80
196,368,254037,1,0,0:0:0:0:
52,280,254213,2,0,P|44:192|64:100,1,160
56,121,254654,1,0,0:0:0:0:
56,121,254742,1,0,0:0:0:0:
204,16,254919,1,0,0:0:0:0:
256,156,255095,6,0,P|304:152|344:144,1,80
472,192,255448,1,0,0:0:0:0:
412,304,255625,2,0,P|336:304|244:328,1,160
56,268,256154,1,0,0:0:0:0:
56,268,256331,1,0,0:0:0:0:
160,80,256507,6,0,P|168:132|172:176,1,80
170,159,256772,1,0,0:0:0:0:
170,159,256860,1,0,0:0:0:0:
252,368,257037,2,0,P|256:296|264:208,1,160
263,208,257478,1,0,0:0:0:0:
263,208,257566,1,0,0:0:0:0:
372,20,257742,1,0,0:0:0:0:
448,188,257919,6,0,P|452:248|448:296,1,80
451,267,258184,1,0,0:0:0:0:
451,267,258272,1,0,0:0:0:0:
256,368,258448,2,0,P|260:320|268:276,1,80
265,288,258713,1,0,0:0:0:0:
265,288,258801,1,0,0:0:0:0:
344,44,258978,1,0,0:0:0:0:
344,44,259066,1,0,0:0:0:0:
344,44,259154,1,0,0:0:0:0:
344,44,259242,1,0,0:0:0:0:
344,44,259331,6,0,P|352:104|352:208,1,160
256,368,259860,1,0,0:0:0:0:
196,192,260037,1,0,0:0:0:0:
196,192,260125,1,0,0:0:0:0:
196,192,260213,1,0,0:0:0:0:
96,320,260389,1,0,0:0:0:0:
96,320,260566,1,0,0:0:0:0:
24,192,260742,6,0,P|28:112|48:28,2,160
24,192,261537,1,0,0:0:0:0:
24,192,261625,1,0,0:0:0:0:
96,320,261801,1,0,0:0:0:0:
196,192,261978,1,0,0:0:0:0:
196,192,262066,1,0,0:0:0:0:
196,192,262154,6,0,P|304:192|364:184,1,160
468,308,262684,2,0,P|380:308|304:328,1,160
112,280,263213,1,0,0:0:0:0:
112,280,263301,1,0,0:0:0:0:
112,280,263389,1,0,0:0:0:0:
112,280,263478,1,0,0:0:0:0:
112,280,263566,5,0,0:0:0:0:
310,325,263831,1,0,0:0:0:0:
256,128,264095,1,0,0:0:0:0:
232,236,264272,5,0,0:0:0:0:
424,156,264537,1,0,0:0:0:0:
248,44,264801,1,0,0:0:0:0:
252,88,264889,1,0,0:0:0:0:
256,128,264978,5,0,0:0:0:0:
