osu file format v14

[General]
AudioFilename: audio.mp3
AudioLeadIn: 0
PreviewTime: 99863
Countdown: 0
SampleSet: Soft
StackLeniency: 0.3
Mode: 0
LetterboxInBreaks: 0
WidescreenStoryboard: 1

[Editor]
DistanceSpacing: 1
BeatDivisor: 8
GridSize: 4
TimelineZoom: 2.599999

[Metadata]
Title:Doradura
TitleUnicode:Дорадура
Artist:dora
ArtistUnicode:дора
Creator:Shmiklak
Version:Testo's <3
Source:
Tags:marvollo m_a_r_v_o_l_l_o dura дура mental affection старшая сестра russian cute rock pop русский кьют рок поп testo imakuri fcl wajinshu marianna
BeatmapID:2442439
BeatmapSetID:1135418

[Difficulty]
HPDrainRate:6
CircleSize:4.5
OverallDifficulty:9
ApproachRate:9.3
SliderMultiplier:2
SliderTickRate:1

[Events]
//Background and Video events
0,0,"doradura.jpg",0,0
Video,0,"dora.avi"
//Break Periods
//Storyboard Layer 0 (Background)
//Storyboard Layer 1 (Fail)
//Storyboard Layer 2 (Pass)
//Storyboard Layer 3 (Foreground)
//Storyboard Layer 4 (Overlay)
//Storyboard Sound Samples

[TimingPoints]
10,499.833388870377,4,2,0,100,1,0
10,-100,4,2,0,100,0,0
8007,-142.857142857143,4,2,1,70,0,0
8069,-142.857142857143,4,2,1,40,0,0
8507,-142.857142857143,4,2,1,70,0,0
8569,-142.857142857143,4,2,1,40,0,0
9256,-142.857142857143,4,2,1,70,0,0
9319,-142.857142857143,4,2,1,40,0,0
10006,-142.857142857143,4,2,1,70,0,0
10069,-142.857142857143,4,2,1,40,0,0
12006,-142.857142857143,4,2,1,60,0,0
12068,-142.857142857143,4,2,1,40,0,0
12505,-142.857142857143,4,2,1,70,0,0
12568,-142.857142857143,4,2,1,40,0,0
13255,-142.857142857143,4,2,1,70,0,0
13318,-142.857142857143,4,2,1,40,0,0
14005,-142.857142857143,4,2,1,70,0,0
14067,-142.857142857143,4,2,1,40,0,0
16004,-100,4,2,1,50,0,0
16504,-100,4,2,1,70,0,0
16566,-100,4,2,1,50,0,0
18503,-100,4,2,1,70,0,0
18566,-100,4,2,1,50,0,0
18753,-100,4,2,1,70,0,0
18816,-100,4,2,1,45,0,0
19253,-100,4,2,1,70,0,0
19316,-100,4,2,1,50,0,0
20003,-100,4,2,1,70,0,0
20065,-100,4,2,1,50,0,0
20503,-100,4,2,1,70,0,0
20565,-100,4,2,1,50,0,0
21502,-100,4,2,1,70,0,0
21565,-100,4,2,1,50,0,0
22002,-100,4,2,1,70,0,0
22065,-100,4,2,1,50,0,0
24002,-66.6666666666667,4,2,1,66,0,1
24189,-66.6666666666667,4,2,1,5,0,1
24251,-66.6666666666667,4,2,1,66,0,1
25688,-66.6666666666667,4,2,1,5,0,1
25751,-66.6666666666667,4,2,1,66,0,1
26188,-66.6666666666667,4,2,1,5,0,1
26251,-66.6666666666667,4,2,1,66,0,1
27688,-66.6666666666667,4,2,1,5,0,1
27750,-66.6666666666667,4,2,1,66,0,1
28188,-66.6666666666667,4,2,1,5,0,1
28250,-66.6666666666667,4,2,1,66,0,1
29687,-66.6666666666667,4,2,1,5,0,1
29750,-66.6666666666667,4,2,1,66,0,1
30000,-66.6666666666667,4,2,1,66,0,0
31499,-66.6666666666667,4,2,2,40,0,0
31811,-66.6666666666667,4,2,2,45,0,0
31999,-66.6666666666667,4,2,1,66,0,1
32186,-66.6666666666667,4,2,1,5,0,1
32249,-66.6666666666667,4,2,1,66,0,1
33686,-66.6666666666667,4,2,1,5,0,1
33748,-66.6666666666667,4,2,1,66,0,1
34186,-66.6666666666667,4,2,1,5,0,1
34248,-66.6666666666667,4,2,1,66,0,1
35685,-66.6666666666667,4,2,1,5,0,1
35748,-66.6666666666667,4,2,1,66,0,1
36185,-66.6666666666667,4,2,1,5,0,1
36247,-66.6666666666667,4,2,1,66,0,1
37684,-66.6666666666667,4,2,1,5,0,1
37747,-133.333333333333,4,2,1,40,0,0
39496,529.614264277518,4,2,1,40,1,0
39496,-100,4,2,0,100,0,0
40026,462.249614791988,4,2,1,60,1,0
40026,-142.857142857143,4,2,1,60,0,0
40083,-142.857142857143,4,2,1,40,0,0
40488,499.833388870377,4,2,1,70,1,0
40488,-142.857142857143,4,2,1,70,0,0
40550,-142.857142857143,4,2,1,40,0,0
41237,-142.857142857143,4,2,1,70,0,0
41300,-142.857142857143,4,2,1,40,0,0
42003,499.833388870377,4,2,1,70,1,0
42003,-142.857142857143,4,2,1,70,0,0
44002,-142.857142857143,4,2,1,60,0,0
44064,-142.857142857143,4,2,1,40,0,0
44502,-142.857142857143,4,2,1,70,0,0
44564,-142.857142857143,4,2,1,40,0,0
45251,-142.857142857143,4,2,1,70,0,0
45314,-142.857142857143,4,2,1,40,0,0
46001,-142.857142857143,4,2,1,70,0,0
46064,-142.857142857143,4,2,1,40,0,0
48001,-100,4,2,1,50,0,0
48500,-100,4,2,1,70,0,0
48563,-100,4,2,1,50,0,0
50500,-100,4,2,1,70,0,0
50562,-100,4,2,1,50,0,0
50750,-100,4,2,1,70,0,0
50812,-100,4,2,1,45,0,0
51249,-100,4,2,1,70,0,0
51312,-100,4,2,1,50,0,0
51999,-100,4,2,1,70,0,0
52062,-100,4,2,1,50,0,0
52499,-100,4,2,1,70,0,0
52561,-100,4,2,1,50,0,0
53499,-100,4,2,1,70,0,0
53561,-100,4,2,1,50,0,0
53999,-100,4,2,1,70,0,0
55998,-66.6666666666667,4,2,1,66,0,1
56185,-66.6666666666667,4,2,1,5,0,1
56248,-66.6666666666667,4,2,1,66,0,1
57685,-66.6666666666667,4,2,1,5,0,1
57747,-66.6666666666667,4,2,1,66,0,1
58185,-66.6666666666667,4,2,1,5,0,1
58247,-66.6666666666667,4,2,1,66,0,1
59684,-66.6666666666667,4,2,1,5,0,1
59747,-66.6666666666667,4,2,1,66,0,1
60184,-66.6666666666667,4,2,1,5,0,1
60246,-66.6666666666667,4,2,1,66,0,1
61683,-66.6666666666667,4,2,1,5,0,1
61746,-66.6666666666667,4,2,1,66,0,1
61996,-66.6666666666667,4,2,1,66,0,0
63495,-66.6666666666667,4,2,2,40,0,0
63808,-66.6666666666667,4,2,2,45,0,0
63995,-66.6666666666667,4,2,1,66,0,1
64183,-66.6666666666667,4,2,1,5,0,1
64245,-66.6666666666667,4,2,1,66,0,1
65682,-66.6666666666667,4,2,1,5,0,1
65745,-66.6666666666667,4,2,1,66,0,1
66182,-66.6666666666667,4,2,1,5,0,1
66244,-66.6666666666667,4,2,1,66,0,1
67681,-66.6666666666667,4,2,1,5,0,1
67744,-66.6666666666667,4,2,1,66,0,1
68181,-66.6666666666667,4,2,1,5,0,1
68244,-66.6666666666667,4,2,1,66,0,1
69681,-66.6666666666667,4,2,1,5,0,1
69743,-66.6666666666667,4,2,1,66,0,1
69993,-66.6666666666667,4,2,1,66,0,0
71993,-142.857142857143,4,2,1,60,0,0
72055,-142.857142857143,4,2,1,40,0,0
72492,-142.857142857143,4,2,1,70,0,0
72555,-142.857142857143,4,2,1,40,0,0
73242,-142.857142857143,4,2,1,70,0,0
73305,-142.857142857143,4,2,1,40,0,0
73992,-142.857142857143,4,2,1,70,0,0
74054,-142.857142857143,4,2,1,40,0,0
75991,-142.857142857143,4,2,1,60,0,0
76054,-142.857142857143,4,2,1,40,0,0
76491,-142.857142857143,4,2,1,70,0,0
76553,-142.857142857143,4,2,1,40,0,0
77241,-142.857142857143,4,2,1,70,0,0
77303,-142.857142857143,4,2,1,40,0,0
77991,-142.857142857143,4,2,1,70,0,0
78053,-142.857142857143,4,2,1,40,0,0
79990,-142.857142857143,4,2,1,60,0,0
80052,-142.857142857143,4,2,1,40,0,0
80490,-142.857142857143,4,2,1,70,0,0
80552,-142.857142857143,4,2,1,40,0,0
81239,-142.857142857143,4,2,1,70,0,0
81302,-142.857142857143,4,2,1,40,0,0
81989,-142.857142857143,4,2,1,70,0,0
82052,-142.857142857143,4,2,1,40,0,0
83989,508.474576271186,4,2,1,40,1,0
83989,-100,4,2,1,70,0,0
84052,-100,4,2,1,50,0,0
84497,-100,4,2,1,70,0,0
84561,-100,4,2,1,50,0,0
85220,535.714285714286,4,2,1,50,1,0
85220,-100,4,2,1,50,0,0
85487,-100,4,2,1,70,0,0
85554,-100,4,2,1,50,0,0
85755,467.836257309942,4,2,1,50,1,0
85755,-100,4,2,1,50,0,0
85988,512.820512820513,4,2,1,50,1,0
85988,-100,4,2,1,50,0,0
86500,-100,4,2,1,70,0,0
86564,-100,4,2,1,50,0,0
86757,-100,4,2,1,70,0,0
86821,-100,4,2,1,50,0,0
87270,498.338870431894,4,2,1,50,1,0
87270,-100,4,2,1,50,0,0
88017,498.338870431894,4,2,1,50,1,0
88017,-100,4,2,1,50,0,0
88515,-100,4,2,1,70,0,0
88577,-100,4,2,1,50,0,0
89636,-100,4,2,1,70,0,0
89698,-100,4,2,1,50,0,0
90010,-100,4,2,1,70,0,0
90072,-100,4,2,1,50,0,0
90986,499.833388870377,4,2,1,50,1,0
90986,-100,4,2,1,50,0,0
91985,499.833388870377,4,2,1,50,1,0
91985,-66.6666666666667,4,2,1,66,0,1
92172,-66.6666666666667,4,2,1,5,0,1
92234,-66.6666666666667,4,2,1,66,0,1
93671,-66.6666666666667,4,2,1,5,0,1
93734,-66.6666666666667,4,2,1,66,0,1
94171,-66.6666666666667,4,2,1,5,0,1
94234,-66.6666666666667,4,2,1,66,0,1
95671,-66.6666666666667,4,2,1,5,0,1
95733,-66.6666666666667,4,2,1,66,0,1
96171,-66.6666666666667,4,2,1,5,0,1
96233,-66.6666666666667,4,2,1,66,0,1
97670,-66.6666666666667,4,2,1,5,0,1
97733,-66.6666666666667,4,2,1,66,0,1
97983,-66.6666666666667,4,2,1,66,0,0
99482,-66.6666666666667,4,2,2,40,0,0
99794,-66.6666666666667,4,2,2,45,0,0
99982,-66.6666666666667,4,2,1,66,0,1
100169,-66.6666666666667,4,2,1,5,0,1
100232,-66.6666666666667,4,2,1,66,0,1
101669,-66.6666666666667,4,2,1,5,0,1
101731,-66.6666666666667,4,2,1,66,0,1
102169,-66.6666666666667,4,2,1,5,0,1
102231,-66.6666666666667,4,2,1,66,0,1
103668,-66.6666666666667,4,2,1,5,0,1
103731,-66.6666666666667,4,2,1,66,0,1
104168,-66.6666666666667,4,2,1,5,0,1
104230,-66.6666666666667,4,2,1,66,0,1
105667,-66.6666666666667,4,2,1,5,0,1
105730,-66.6666666666667,4,2,1,66,0,1
105980,-66.6666666666667,4,2,1,66,0,0
107979,-66.6666666666667,4,2,1,70,0,0
108666,-66.6666666666667,4,2,1,5,0,0
108729,-66.6666666666667,4,2,1,70,0,0
110416,-66.6666666666667,4,2,1,5,0,0
110478,-66.6666666666667,4,2,1,70,0,0
112665,-66.6666666666667,4,2,1,5,0,0
112728,-66.6666666666667,4,2,1,70,0,0
115477,-66.6666666666667,4,2,2,40,0,0
115789,-66.6666666666667,4,2,2,45,0,0
115977,-66.6666666666667,4,2,1,70,0,0
116664,-66.6666666666667,4,2,1,5,0,0
116726,-66.6666666666667,4,2,1,70,0,0
118413,-66.6666666666667,4,2,1,5,0,0
118476,-66.6666666666667,4,2,1,70,0,0
120662,-66.6666666666667,4,2,1,5,0,0
120725,-66.6666666666667,4,2,1,70,0,0
123474,-66.6666666666667,4,2,1,5,0,0
123724,-312.5,4,2,1,35,0,0
126067,-312.5,4,2,1,25,0,0
128066,-312.5,4,2,1,15,0,0
130066,-312.5,4,2,1,10,0,0
131065,-312.5,4,2,1,5,0,0
132065,-312.5,4,2,1,5,0,0

[Colours]
Combo1 : 129,224,112
Combo2 : 255,102,0
Combo3 : 255,94,255
Combo4 : 45,203,255
SliderTrackOverride : 255,120,120
SliderBorder : 255,255,255

[HitObjects]
122,65,8007,6,0,P|177:84|196:168,1,139.999995727539,2|2,0:0|0:0,0:0:0:0:
128,142,8757,1,0,0:0:0:0:
242,48,9007,1,0,0:0:0:0:
310,67,9256,2,0,L|322:168,1,69.9999978637696,2|0,0:0|0:0,0:0:0:0:
310,67,10006,5,2,0:0:0:0:
121,320,12006,6,0,P|176:301|192:219,1,139.999995727539,2|2,0:0|0:0,0:0:0:0:
119,247,12755,1,0,0:0:0:0:
242,336,13005,1,0,0:0:0:0:
310,317,13255,2,0,L|322:216,1,69.9999978637696,2|0,0:0|0:0,0:0:0:0:
310,317,14005,5,2,0:0:0:0:
73,104,16004,6,0,L|236:79,1,150,2|0,0:0|0:0,0:0:0:0:
229,81,16504,2,0,L|283:92,1,50,2|0,0:0|0:0,0:0:0:0:
348,106,16754,1,0,0:0:0:0:
249,228,16879,1,0,0:0:0:0:
300,172,17004,1,2,0:0:0:0:
322,244,17129,1,2,0:0:0:0:
230,155,17254,6,0,L|111:180,1,100,2|2,0:0|0:0,0:0:0:0:
62,192,17629,1,2,0:0:0:0:
102,297,17754,2,0,L|110:245,1,50,2|0,0:0|0:0,0:0:0:0:
17,77,18004,6,0,P|51:110|104:102,1,100,2|0,0:0|0:0,0:0:0:0:
351,95,18503,2,0,P|334:131|333:150,1,50,2|0,0:0|0:0,0:0:0:0:
275,207,18753,2,0,P|269:182|256:161,1,50,2|2,0:0|0:0,0:0:0:0:
158,291,19003,1,2,0:0:0:0:
229,271,19128,1,2,0:0:0:0:
105,236,19253,6,0,L|-3:222,1,100,2|2,0:0|0:0,0:0:0:0:
137,170,19628,1,2,0:0:0:0:
158,291,19753,1,2,0:0:0:0:
136,158,19878,1,2,0:0:0:0:
162,304,20003,6,0,L|261:291,1,100,2|0,0:0|0:0,0:0:0:0:
287,144,20503,2,0,P|276:164|274:205,1,50,2|0,0:0|0:0,0:0:0:0:
338,292,20753,2,0,P|334:267|322:245,1,50,2|0,0:0|0:0,0:0:0:0:
96,135,21003,1,2,0:0:0:0:
168,167,21127,1,2,0:0:0:0:
96,135,21252,6,0,L|-9:124,1,100,2|2,0:0|0:0,0:0:0:0:
157,92,21627,1,2,0:0:0:0:
106,210,21752,1,2,0:0:0:0:
161,79,21877,1,2,0:0:0:0:
246,192,22002,5,2,0:0:0:0:
390,85,23127,5,0,3:0:0:0:
390,85,23189,1,0,3:0:0:0:
390,85,23252,1,0,3:0:0:0:
354,160,23377,1,0,3:0:0:0:
297,88,23502,1,0,3:0:0:0:
250,183,23627,1,0,3:0:0:0:
187,86,23752,1,0,3:0:0:0:
125,216,23877,1,0,3:0:0:0:
7,49,24002,6,0,B|69:46|58:96|131:88,1,112.500004291535,8|0,3:0|0:0,0:0:0:0:
115,86,24251,2,0,P|82:88|62:134,1,75.0000028610231
258,257,24501,6,0,L|249:176,1,75.0000028610231,8|0,1:0|0:0,0:0:0:0:
50,192,24751,2,0,L|41:266,1,75.0000028610231,2|8,0:0|1:0,0:0:0:0:
239,107,25001,5,0,0:0:0:0:
139,184,25126,1,8,1:0:0:0:
250,93,25251,2,0,L|339:80,1,75.0000028610231,8|0,3:0|0:0,0:0:0:0:
42,117,25501,6,0,L|23:6,1,112.500004291535,8|0,1:0|0:0,0:0:0:0:
30,6,25751,6,0,L|44:85,1,75.0000028610231,0|0,3:0|3:0,0:0:0:0:
23,278,26001,6,0,P|81:263|104:330,1,112.500004291535,8|0,3:0|0:0,0:0:0:0:
110,307,26251,2,0,P|157:317|187:306,1,75.0000028610231,0|0,3:0|0:0,0:0:0:0:
301,179,26501,6,0,P|264:170|229:181,1,75.0000028610231,8|0,1:0|0:0,0:0:0:0:
367,318,26751,1,0,3:0:0:0:
390,204,26876,1,8,1:0:0:0:
361,334,27001,1,0,0:0:0:0:
394,188,27125,1,8,1:0:0:0:
354,351,27250,2,0,L|276:359,1,75.0000028610231,8|0,3:0|0:0,0:0:0:0:
62,154,27500,6,0,P|107:159|121:235,1,112.500004291535,8|0,1:0|0:0,0:0:0:0:
122,221,27750,6,0,P|125:200|86:161,1,75.0000028610231,0|0,3:0|3:0,0:0:0:0:
13,337,28000,6,0,B|66:326|66:326|84:335|84:335|131:323,1,112.500004291535,8|0,3:0|0:0,0:0:0:0:
124,317,28250,2,0,L|29:309,1,75.0000028610231,0|0,3:0|0:0,0:0:0:0:
269,382,28500,2,0,L|364:374,1,75.0000028610231,8|0,1:0|0:0,0:0:0:0:
233,198,28750,5,0,0:0:0:0:
209,323,28875,1,8,1:0:0:0:
303,239,29000,5,0,0:0:0:0:
174,252,29125,1,8,1:0:0:0:
291,319,29250,5,8,3:0:0:0:
304,160,29500,6,0,L|427:141,1,112.500004291535,8|0,1:0|0:0,0:0:0:0:
416,151,29750,6,0,L|334:163,1,75.0000028610231,0|0,3:0|3:0,0:0:0:0:
291,319,30000,5,8,3:0:0:0:
121,112,31499,5,8,0:0:0:0:
234,81,31624,5,8,0:0:0:0:
173,256,31749,5,8,3:0:0:0:
173,256,31999,6,0,P|209:241|191:156,1,112.500004291535,8|0,3:0|0:0,0:0:0:0:
209,170,32249,2,0,L|289:181,1,75.0000028610231
377,67,32499,6,0,P|342:96|336:128,1,75.0000028610231,8|0,1:0|0:0,0:0:0:0:
398,259,32749,2,0,P|386:223|356:202,1,75.0000028610231,2|8,0:0|1:0,0:0:0:0:
190,98,32999,5,0,0:0:0:0:
237,255,33123,1,8,1:0:0:0:
186,85,33248,2,0,L|110:78,1,75.0000028610231,8|0,3:0|0:0,0:0:0:0:
6,249,33498,6,0,B|73:254|43:291|112:297,1,112.500004291535,8|0,1:0|0:0,0:0:0:0:
108,306,33748,6,0,P|80:300|44:269,1,75.0000028610231,0|0,3:0|3:0,0:0:0:0:
217,175,33998,6,0,B|156:180|185:216|118:222,1,112.500004291535,8|0,3:0|0:0,0:0:0:0:
114,219,34248,2,0,P|101:183|112:139,1,75.0000028610231,0|0,3:0|0:0,0:0:0:0:
295,151,34498,2,0,P|301:187|288:222,1,75.0000028610231,8|0,1:0|0:0,0:0:0:0:
130,6,34748,5,0,3:0:0:0:
285,34,34873,1,8,1:0:0:0:
112,91,34998,1,0,0:0:0:0:
281,20,35123,1,8,1:0:0:0:
110,105,35248,2,0,L|22:97,1,75.0000028610231,8|0,3:0|0:0,0:0:0:0:
184,283,35498,6,0,B|219:271|219:271|296:298,1,112.500004291535,8|0,1:0|0:0,0:0:0:0:
294,304,35748,6,0,L|222:278,1,75.0000028610231,0|0,3:0|3:0,0:0:0:0:
4,172,35998,6,0,P|60:152|53:80,1,112.500004291535,8|0,3:0|0:0,0:0:0:0:
62,102,36247,2,0,P|45:147|52:193,1,75.0000028610231,0|0,3:0|0:0,0:0:0:0:
255,93,36497,2,0,P|254:55|239:21,1,75.0000028610231,8|0,1:0|0:0,0:0:0:0:
160,160,36747,5,0,0:0:0:0:
129,317,36872,1,8,1:0:0:0:
254,213,36997,5,0,0:0:0:0:
86,232,37122,1,8,1:0:0:0:
232,312,37247,5,8,3:0:0:0:
255,93,37497,6,0,L|378:74,1,112.500004291535,8|0,1:0|0:0,0:0:0:0:
367,84,37747,6,0,L|285:96,1,75.0000028610231,0|0,3:0|0:0,0:0:0:0:
32,68,40026,6,0,B|111:59|86:114|171:107,1,139.999995727539,2|2,0:0|0:0,0:0:0:0:
49,138,40737,1,0,0:0:0:0:
154,38,40987,1,0,0:0:0:0:
222,57,41237,2,0,P|239:89|231:134,1,69.9999978637696,2|0,0:0|0:0,0:0:0:0:
32,68,42003,5,4,0:0:0:0:
478,354,44002,6,0,B|399:363|424:308|339:315,1,139.999995727539,2|2,0:0|0:0,0:0:0:0:
461,284,44752,1,0,0:0:0:0:
356,384,45002,1,0,0:0:0:0:
288,365,45251,2,0,P|271:333|279:288,1,69.9999978637696,2|0,0:0|0:0,0:0:0:0:
478,354,46001,5,2,0:0:0:0:
16,316,48001,6,0,P|95:318|151:268,1,150,2|0,0:0|0:0,0:0:0:0:
151,270,48500,2,0,L|208:275,1,50,2|0,0:0|0:0,0:0:0:0:
276,281,48750,1,0,0:0:0:0:
174,360,48875,1,0,0:0:0:0:
251,354,49000,1,2,0:0:0:0:
276,281,49125,1,2,0:0:0:0:
349,263,49250,6,0,L|448:258,1,100,2|2,0:0|0:0,0:0:0:0:
249,206,49625,1,2,0:0:0:0:
131,295,49750,2,0,L|78:287,1,50,2|0,0:0|0:0,0:0:0:0:
146,81,50000,6,0,P|182:98|188:168,1,100,2|0,0:0|0:0,0:0:0:0:
80,56,50500,2,0,L|88:6,1,50,2|0,0:0|0:0,0:0:0:0:
249,206,50750,2,0,L|257:255,1,50,2|2,0:0|0:0,0:0:0:0:
178,344,51000,1,2,0:0:0:0:
252,334,51124,1,2,0:0:0:0:
129,287,51249,6,0,L|21:273,1,100,2|2,0:0|0:0,0:0:0:0:
238,109,51624,5,2,0:0:0:0:
174,206,51749,1,2,0:0:0:0:
298,169,51874,1,2,0:0:0:0:
165,132,51999,6,0,L|57:118,1,100,2|0,0:0|0:0,0:0:0:0:
298,169,52499,2,0,P|286:199|287:232,1,50,2|0,0:0|0:0,0:0:0:0:
237,317,52749,2,0,P|234:292|223:269,1,50,2|0,0:0|0:0,0:0:0:0:
92,156,52999,1,2,0:0:0:0:
173,165,53124,1,2,0:0:0:0:
92,156,53249,6,0,P|83:185|86:217,1,50,2|0,0:0|0:0,0:0:0:0:
224,107,53499,2,0,P|223:82|215:58,1,50,2|2,0:0|0:0,0:0:0:0:
95,283,53749,1,2,0:0:0:0:
248,178,53874,1,2,0:0:0:0:
146,92,53999,5,2,0:0:0:0:
8,356,55123,5,0,3:0:0:0:
8,356,55186,1,0,3:0:0:0:
8,356,55248,1,0,3:0:0:0:
42,272,55373,1,0,3:0:0:0:
121,349,55498,1,0,3:0:0:0:
193,230,55623,1,0,3:0:0:0:
278,368,55748,1,0,3:0:0:0:
366,189,55873,1,0,3:0:0:0:
46,70,55998,6,0,P|90:107|155:93,1,112.500004291535,8|0,3:0|0:0,0:0:0:0:
144,96,56248,2,0,L|136:175,1,75.0000028610231
317,46,56498,6,0,P|280:28|237:34,1,75.0000028610231,8|0,1:0|0:0,0:0:0:0:
193,230,56748,2,0,P|230:231|262:214,1,75.0000028610231,2|8,0:0|1:0,0:0:0:0:
391,86,56998,5,0,0:0:0:0:
430,239,57122,1,8,1:0:0:0:
313,160,57247,2,0,P|350:158|382:175,1,75.0000028610231,8|0,3:0|0:0,0:0:0:0:
123,311,57497,6,0,L|104:200,1,112.500004291535,8|0,1:0|0:0,0:0:0:0:
111,200,57747,6,0,L|125:279,1,75.0000028610231,0|0,3:0|3:0,0:0:0:0:
374,78,57997,6,0,L|250:56,1,112.500004291535,8|0,3:0|0:0,0:0:0:0:
252,72,58247,2,0,L|163:83,1,75.0000028610231,0|0,3:0|0:0,0:0:0:0:
111,200,58497,2,0,L|185:209,1,75.0000028610231,8|0,1:0|0:0,0:0:0:0:
30,272,58747,5,0,3:0:0:0:
104,87,58872,1,8,1:0:0:0:
194,297,58997,1,0,0:0:0:0:
258,124,59122,1,8,1:0:0:0:
336,325,59247,2,0,P|300:340|258:333,1,75.0000028610231,8|0,3:0|0:0,0:0:0:0:
62,179,59497,6,0,P|107:184|121:260,1,112.500004291535,8|0,1:0|0:0,0:0:0:0:
122,246,59747,6,0,P|125:225|86:186,1,75.0000028610231,0|0,3:0|3:0,0:0:0:0:
364,43,59997,6,0,L|347:160,1,112.500004291535,8|0,3:0|0:0,0:0:0:0:
347,161,60246,2,0,P|307:167|271:145,1,75.0000028610231,0|0,3:0|0:0,0:0:0:0:
222,30,60496,2,0,P|255:14|291:20,1,75.0000028610231,8|0,1:0|0:0,0:0:0:0:
148,132,60746,5,0,0:0:0:0:
209,323,60871,1,8,1:0:0:0:
249,257,60996,5,0,0:0:0:0:
79,344,61121,1,8,1:0:0:0:
283,328,61246,5,8,3:0:0:0:
148,132,61496,6,0,L|271:113,1,112.500004291535,8|0,1:0|0:0,0:0:0:0:
260,123,61746,6,0,L|178:135,1,75.0000028610231,0|0,3:0|3:0,0:0:0:0:
174,255,61996,5,8,3:0:0:0:
86,64,63495,5,8,0:0:0:0:
188,185,63620,5,8,0:0:0:0:
16,82,63745,5,8,3:0:0:0:
16,82,63995,6,0,P|70:88|82:153,1,112.500004291535,8|0,3:0|0:0,0:0:0:0:
84,146,64245,2,0,L|-5:160,1,75.0000028610231
104,287,64495,6,0,P|102:247|120:213,1,75.0000028610231,8|0,1:0|0:0,0:0:0:0:
259,136,64745,2,0,P|274:169|272:206,1,75.0000028610231,2|8,0:0|1:0,0:0:0:0:
122,361,64995,5,0,0:0:0:0:
285,338,65120,1,8,1:0:0:0:
108,364,65245,2,0,L|25:352,1,75.0000028610231,8|0,3:0|0:0,0:0:0:0:
23,92,65495,6,0,P|71:99|83:174,1,112.500004291535,8|0,1:0|0:0,0:0:0:0:
84,157,65745,6,0,P|74:113|40:97,1,75.0000028610231,0|0,3:0|3:0,0:0:0:0:
4,282,65995,6,0,L|117:268,1,112.500004291535,8|0,3:0|0:0,0:0:0:0:
118,258,66244,2,0,L|209:270,1,75.0000028610231,0|0,3:0|0:0,0:0:0:0:
310,373,66494,2,0,L|235:382,1,75.0000028610231,8|0,1:0|0:0,0:0:0:0:
399,175,66744,5,0,3:0:0:0:
380,336,66869,1,8,1:0:0:0:
320,145,66994,1,0,0:0:0:0:
399,348,67119,1,8,1:0:0:0:
266,202,67244,2,0,L|177:192,1,75.0000028610231,8|0,3:0|0:0,0:0:0:0:
75,342,67494,6,0,B|80:275|117:305|123:236,1,112.500004291535,8|0,1:0|0:0,0:0:0:0:
132,240,67744,6,0,P|126:268|95:304,1,75.0000028610231,0|0,3:0|3:0,0:0:0:0:
10,156,67994,6,0,P|44:172|44:241,1,112.500004291535,8|0,3:0|0:0,0:0:0:0:
38,242,68244,2,0,P|41:205|73:173,1,75.0000028610231,0|0,3:0|0:0,0:0:0:0:
188,78,68494,2,0,P|211:106|214:142,1,75.0000028610231,8|0,1:0|0:0,0:0:0:0:
31,74,68744,5,0,0:0:0:0:
215,222,68869,1,8,1:0:0:0:
153,182,68994,5,0,0:0:0:0:
386,155,69118,1,8,1:0:0:0:
150,255,69243,5,8,3:0:0:0:
274,18,69493,6,0,P|266:59|272:152,1,112.500004291535,8|0,1:0|0:0,0:0:0:0:
275,132,69743,6,0,P|271:99|276:43,1,75.0000028610231,0|0,3:0|3:0,0:0:0:0:
358,223,69993,5,8,3:0:0:0:
35,84,71993,6,0,L|189:77,1,139.999995727539,2|2,0:0|0:0,0:0:0:0:
14,156,72742,1,0,0:0:0:0:
247,76,72992,1,0,0:0:0:0:
322,75,73242,2,0,L|325:153,1,69.9999978637696,2|0,0:0|0:0,0:0:0:0:
35,84,73992,5,2,0:0:0:0:
477,300,75991,6,0,L|323:307,1,139.999995727539,2|2,0:0|0:0,0:0:0:0:
498,228,76741,1,0,0:0:0:0:
265,308,76991,1,0,0:0:0:0:
190,309,77241,2,0,L|186:230,1,69.9999978637696,2|0,0:0|0:0,0:0:0:0:
477,300,77991,5,2,0:0:0:0:
2,170,79990,6,0,B|81:157|61:215|144:198,1,139.999995727539,2|2,0:0|0:0,0:0:0:0:
24,242,80740,1,0,0:0:0:0:
117,130,80990,1,0,0:0:0:0:
165,71,81239,2,0,L|246:62,1,69.9999978637696,2|0,0:0|0:0,0:0:0:0:
2,170,81989,5,2,0:0:0:0:
492,52,83989,6,0,P|436:54|405:139,1,150,2|0,0:0|0:0,0:0:0:0:
361,194,84497,2,0,L|311:189,1,50,2|0,0:0|0:0,0:0:0:0:
240,185,84751,1,0,0:0:0:0:
371,273,84878,1,0,0:0:0:0:
301,263,85005,1,2,0:0:0:0:
230,256,85133,1,2,0:0:0:0:
158,250,85220,2,0,L|50:240,1,100,2|2,0:0|0:0,0:0:0:0:
220,329,85621,1,2,0:0:0:0:
23,355,85755,2,0,L|31:302,1,50,2|2,0:0|0:0,0:0:0:0:
63,108,85988,6,0,B|126:113|103:145|173:153,1,100,2|0,0:0|0:0,0:0:0:0:
361,112,86500,2,0,L|369:62,1,50,2|0,0:0|0:0,0:0:0:0:
221,181,86757,2,0,L|229:230,1,50,2|0,0:0|0:0,0:0:0:0:
353,306,87013,1,2,0:0:0:0:
376,236,87141,1,2,0:0:0:0:
285,337,87270,6,0,P|230:340|184:314,1,100,2|0,0:0|0:0,0:0:0:0:
94,211,87643,5,2,0:0:0:0:
224,250,87768,1,2,0:0:0:0:
114,293,87892,1,2,0:0:0:0:
192,174,88017,2,0,P|193:128|241:30,1,150,2|0,0:0|0:0,0:0:0:0:
287,108,88515,2,0,P|275:138|276:171,1,50,2|0,0:0|0:0,0:0:0:0:
315,280,88764,2,0,P|312:255|301:232,1,50,2|0,0:0|0:0,0:0:0:0:
126,207,89013,1,2,0:0:0:0:
189,271,89138,1,2,0:0:0:0:
115,295,89262,6,0,L|57:287,1,50,2|0,0:0|0:0,0:0:0:0:
205,195,89512,2,0,L|263:187,1,50,0|2,0:0|0:0,0:0:0:0:
19,351,89761,1,2,0:0:0:0:
189,271,89885,1,2,0:0:0:0:
93,373,90010,5,2,0:0:0:0:
91,93,91110,5,0,3:0:0:0:
91,93,91173,1,0,3:0:0:0:
91,93,91235,1,0,3:0:0:0:
187,242,91360,1,0,3:0:0:0:
167,33,91485,1,0,3:0:0:0:
69,220,91610,1,0,3:0:0:0:
92,8,91735,1,0,3:0:0:0:
193,260,91860,1,0,3:0:0:0:
499,91,91985,6,0,B|437:88|448:138|375:130,1,112.500004291535,8|0,3:0|0:0,0:0:0:0:
391,128,92234,2,0,P|373:165|380:217,1,75.0000028610231
507,251,92484,6,0,L|426:242,1,75.0000028610231,8|0,1:0|0:0,0:0:0:0:
325,318,92734,2,0,L|399:309,1,75.0000028610231,2|8,0:0|1:0,0:0:0:0:
209,158,92984,5,0,0:0:0:0:
178,301,93109,1,8,1:0:0:0:
211,142,93234,2,0,L|197:64,1,75.0000028610231,8|0,3:0|0:0,0:0:0:0:
432,242,93484,6,0,L|405:351,1,112.500004291535,8|0,1:0|0:0,0:0:0:0:
412,351,93734,6,0,L|431:273,1,75.0000028610231,0|0,3:0|3:0,0:0:0:0:
9,200,93984,6,0,B|47:181|47:181|127:214,1,112.500004291535,8|0,3:0|0:0,0:0:0:0:
119,215,94234,2,0,L|194:207,1,75.0000028610231,0|0,3:0|0:0,0:0:0:0:
272,76,94484,2,0,L|197:68,1,75.0000028610231,8|0,1:0|0:0,0:0:0:0:
413,322,94734,1,0,3:0:0:0:
370,172,94859,1,8,1:0:0:0:
353,358,94984,1,0,0:0:0:0:
449,179,95108,1,8,1:0:0:0:
350,368,95233,2,0,L|267:376,1,75.0000028610231,8|0,3:0|0:0,0:0:0:0:
70,272,95483,6,0,P|115:277|129:353,1,112.500004291535,8|0,1:0|0:0,0:0:0:0:
130,339,95733,6,0,P|133:318|94:279,1,75.0000028610231,0|0,3:0|3:0,0:0:0:0:
34,76,95983,6,0,P|79:81|93:157,1,112.500004291535,8|0,3:0|0:0,0:0:0:0:
101,147,96233,2,0,P|127:133|193:132,1,75.0000028610231,0|0,3:0|0:0,0:0:0:0:
336,292,96483,2,0,P|298:288|265:272,1,75.0000028610231,8|0,1:0|0:0,0:0:0:0:
331,111,96733,5,0,0:0:0:0:
223,344,96858,1,8,1:0:0:0:
408,245,96983,5,0,0:0:0:0:
135,279,97108,1,8,1:0:0:0:
358,379,97233,5,8,3:0:0:0:
70,111,97483,6,0,L|89:234,1,112.500004291535,8|0,1:0|0:0,0:0:0:0:
79,223,97733,6,0,L|67:141,1,75.0000028610231,0|0,3:0|3:0,0:0:0:0:
98,40,97983,5,8,3:0:0:0:
130,323,99482,5,8,0:0:0:0:
353,224,99607,5,8,0:0:0:0:
91,165,99732,5,8,3:0:0:0:
395,157,99982,6,0,B|342:146|342:146|324:155|324:155|277:143,1,112.500004291535,8|0,3:0|0:0,0:0:0:0:
284,137,100232,2,0,L|379:129,1,75.0000028610231
162,292,100482,6,0,P|149:265|152:218,1,75.0000028610231,8|0,1:0|0:0,0:0:0:0:
353,224,100732,2,0,P|356:260|341:295,1,75.0000028610231,2|8,0:0|1:0,0:0:0:0:
122,361,100982,5,0,0:0:0:0:
278,335,101106,1,8,1:0:0:0:
108,364,101231,2,0,L|25:352,1,75.0000028610231,8|0,3:0|0:0,0:0:0:0:
189,154,101481,6,0,L|301:137,1,112.500004291535,8|0,1:0|0:0,0:0:0:0:
302,147,101731,6,0,L|219:159,1,75.0000028610231,0|0,3:0|3:0,0:0:0:0:
14,59,101981,6,0,P|49:90|49:164,1,112.500004291535,8|0,3:0|0:0,0:0:0:0:
47,155,102231,2,0,P|33:193|38:250,1,75.0000028610231,0|0,3:0|0:0,0:0:0:0:
234,308,102481,2,0,P|232:270|219:235,1,75.0000028610231,8|0,1:0|0:0,0:0:0:0:
71,326,102731,5,0,3:0:0:0:
303,350,102856,1,8,1:0:0:0:
91,241,102981,1,0,0:0:0:0:
322,358,103106,1,8,1:0:0:0:
170,164,103231,2,0,P|163:214|172:257,1,75.0000028610231,8|0,3:0|0:0,0:0:0:0:
399,53,103481,6,0,P|350:28|266:43,1,112.500004291535,8|0,1:0|0:0,0:0:0:0:
295,38,103731,6,0,P|343:34|375:47,1,75.0000028610231,0|0,3:0|3:0,0:0:0:0:
67,295,103981,6,0,L|59:172,1,112.500004291535,8|0,3:0|0:0,0:0:0:0:
53,175,104230,2,0,L|132:167,1,75.0000028610231,0|0,3:0|0:0,0:0:0:0:
199,357,104480,2,0,L|124:349,1,75.0000028610231,8|0,1:0|0:0,0:0:0:0:
403,183,104730,5,0,0:0:0:0:
158,267,104855,1,8,1:0:0:0:
207,207,104980,5,0,0:0:0:0:
431,255,105105,1,8,1:0:0:0:
131,195,105230,5,8,3:0:0:0:
393,95,105480,6,0,B|326:100|356:137|287:143,1,112.500004291535,8|0,1:0|0:0,0:0:0:0:
291,152,105730,6,0,P|319:146|355:115,1,75.0000028610231,0|0,3:0|3:0,0:0:0:0:
481,193,105980,5,8,3:0:0:0:
31,91,107979,6,0,B|146:70|123:168|262:129,1,225.000008583069,8|0,3:0|0:0,0:0:0:0:
429,30,108479,6,0,B|465:75|465:75|443:129,1,112.500004291535,8|0,1:0|0:0,0:0:0:0:
439,132,108729,2,0,L|444:179,1,37.5000014305115,2|0,0:0|0:0,0:0:0:0:
417,237,108854,2,0,L|336:226,1,75.0000028610231,8|2,0:0|0:0,0:0:0:0:
493,224,109104,1,8,0:0:0:0:
289,278,109229,2,0,L|208:267,1,75.0000028610231,8|0,3:0|0:0,0:0:0:0:
122,148,109479,5,8,1:0:0:0:
169,206,109604,1,2,0:0:0:0:
95,220,109729,1,2,0:0:0:0:
119,136,109854,5,2,0:0:0:0:
86,230,109979,2,0,L|-11:246,1,75.0000028610231,8|0,3:0|0:0,0:0:0:0:
202,132,110228,6,0,L|322:152,1,112.500004291535,2|0,0:2|0:0,0:0:0:0:
316,157,110478,2,0,L|390:144,1,75.0000028610231,8|0,1:0|0:0,0:0:0:0:
157,354,110728,6,0,P|158:319|134:266,1,75.0000028610231,2|2,0:0|0:0,0:0:0:0:
234,345,110978,6,0,P|235:310|217:249,1,75.0000028610231,2|0,0:0|1:0,0:0:0:0:
310,370,111228,5,8,3:0:0:0:
310,370,111291,1,0,0:0:0:0:
310,370,111353,1,0,0:0:0:0:
106,188,111478,6,0,P|158:205|230:131,1,150.000005722046,8|2,1:0|3:2,0:0:0:0:
151,124,111853,1,0,3:0:0:0:
389,340,111978,6,0,L|400:108,1,225.000008583069,8|0,3:0|0:0,0:0:0:0:
92,70,112478,6,0,P|147:43|207:67,1,112.500004291535,8|0,1:0|0:0,0:0:0:0:
199,61,112728,2,0,L|243:55,1,37.5000014305115,2|0,0:0|0:0,0:0:0:0:
349,114,112853,2,0,P|335:159|338:195,1,75.0000028610231,8|2,0:0|0:0,0:0:0:0:
309,48,113102,1,8,0:0:0:0:
262,201,113227,2,0,P|276:246|273:282,1,75.0000028610231,8|0,3:0|0:0,0:0:0:0:
123,213,113477,5,8,1:0:0:0:
181,166,113602,1,0,0:0:0:0:
195,240,113727,1,2,0:2:0:0:
111,216,113852,5,2,0:0:0:0:
183,153,113977,5,8,3:0:0:0:
342,47,115477,5,8,0:0:0:0:
271,149,115602,5,8,0:0:0:0:
357,60,115727,5,8,3:0:0:0:
11,44,115977,6,0,P|69:56|101:212,1,225.000008583069,8|0,3:0|0:0,0:0:0:0:
37,328,116476,6,0,B|82:364|82:364|136:342,1,112.500004291535,8|0,1:0|0:0,0:0:0:0:
139,338,116726,2,0,L|186:343,1,37.5000014305115,2|0,0:0|0:0,0:0:0:0:
296,284,116851,2,0,L|384:274,1,75.0000028610231,8|2,0:0|0:0,0:0:0:0:
230,296,117101,1,8,0:0:0:0:
396,208,117226,2,0,L|484:218,1,75.0000028610231,8|0,3:0|0:0,0:0:0:0:
294,107,117476,5,8,1:0:0:0:
281,180,117601,1,2,0:0:0:0:
206,171,117726,1,2,0:0:0:0:
297,95,117851,5,2,0:0:0:0:
194,180,117976,2,0,L|119:171,1,75.0000028610231,8|0,3:0|0:0,0:0:0:0:
4,12,118226,6,0,P|39:30|39:106,1,112.500004291535,2|0,0:2|0:0,0:0:0:0:
40,104,118476,2,0,L|114:95,1,75.0000028610231,8|0,1:0|0:0,0:0:0:0:
441,16,118726,6,0,P|440:51|464:104,1,75.0000028610231,2|2,0:0|0:0,0:0:0:0:
364,25,118976,6,0,P|363:60|381:121,1,75.0000028610231,2|0,0:0|1:0,0:0:0:0:
288,12,119225,5,8,3:0:0:0:
288,12,119288,1,0,0:0:0:0:
288,12,119350,1,0,0:0:0:0:
495,173,119475,6,0,P|443:156|350:225,1,150.000005722046,8|2,1:0|3:2,0:0:0:0:
309,331,119850,1,0,3:0:0:0:
460,371,119975,6,0,P|522:261|476:152,1,225.000008583069,8|0,3:0|0:0,0:0:0:0:
63,142,120475,6,0,B|114:110|114:110|178:139,1,112.500004291535,8|0,1:0|0:0,0:0:0:0:
166,137,120725,2,0,L|210:131,1,37.5000014305115,2|0,0:0|0:0,0:0:0:0:
330,197,120850,2,0,L|246:187,1,75.0000028610231,8|2,0:0|0:0,0:0:0:0:
384,141,121100,1,8,0:0:0:0:
208,244,121225,2,0,L|124:254,1,75.0000028610231,8|0,3:0|0:0,0:0:0:0:
396,261,121475,5,8,1:0:0:0:
324,288,121600,1,0,0:0:0:0:
382,335,121725,1,2,0:2:0:0:
405,253,121850,5,2,0:0:0:0:
312,287,121975,5,8,3:0:0:0:
256,192,122037,12,0,123474,0:0:0:0:
139,315,123724,6,0,B|194:243|11:216|75:80|97:31|155:33|216:30|244:94|244:94|334:43|414:109|414:236|346:294|210:249|226:328|226:328|303:289|378:293|422:344,1,1056
