osu file format v14

[General]
AudioFilename: audio.mp3
AudioLeadIn: 0
PreviewTime:99863
Countdown: 0
SampleSet: Soft
StackLeniency: 0.7
Mode: 0
LetterboxInBreaks: 0
WidescreenStoryboard: 0

[Editor]
DistanceSpacing: 1.2
BeatDivisor: 4
GridSize: 4
TimelineZoom: 1.999999

[Metadata]
Title:Doradura
TitleUnicode:Дорадура
Artist:dora
ArtistUnicode:дора
Creator:Shmiklak
Version:Marianna's Advanced
Source:
Tags:marvollo m_a_r_v_o_l_l_o dura дура mental affection старшая сестра russian cute rock pop русский кьют рок поп testo imakuri fcl wajinshu marianna
BeatmapID:2387022
BeatmapSetID:1135418

[Difficulty]
HPDrainRate:5
CircleSize:3.5
OverallDifficulty:5
ApproachRate:6
SliderMultiplier:1.4
SliderTickRate:1

[Events]
//Background and Video events
0,0,"doradura.jpg",0,0
Video,0,"dora.avi"
//Break Periods
2,37697,38976
//Storyboard Layer 0 (Background)
//Storyboard Layer 1 (Fail)
//Storyboard Layer 2 (Pass)
//Storyboard Layer 3 (Foreground)
//Storyboard Layer 4 (Overlay)
//Storyboard Sound Samples

[TimingPoints]
10,499.833388870377,4,2,1,100,1,0
10,-100,4,2,1,100,0,0
8007,-100,4,2,1,70,0,0
8069,-100,4,2,1,40,0,0
8507,-100,4,2,1,70,0,0
8569,-100,4,2,1,40,0,0
9256,-100,4,2,1,70,0,0
9319,-100,4,2,1,40,0,0
10006,-100,4,2,1,70,0,0
10069,-100,4,2,1,40,0,0
12006,-100,4,2,1,60,0,0
12068,-100,4,2,1,40,0,0
12505,-100,4,2,1,70,0,0
12568,-100,4,2,1,40,0,0
13255,-100,4,2,1,70,0,0
13318,-100,4,2,1,40,0,0
14005,-100,4,2,1,70,0,0
14067,-100,4,2,1,40,0,0
16004,-100,4,2,1,50,0,0
16504,-100,4,2,1,70,0,0
16566,-100,4,2,1,50,0,0
18503,-100,4,2,1,70,0,0
18566,-100,4,2,1,50,0,0
18753,-100,4,2,1,70,0,0
18816,-100,4,2,1,45,0,0
19253,-100,4,2,1,70,0,0
19316,-100,4,2,1,50,0,0
20003,-100,4,2,1,70,0,0
20065,-100,4,2,1,50,0,0
20503,-100,4,2,1,70,0,0
20565,-100,4,2,1,50,0,0
21502,-100,4,2,1,70,0,0
21565,-100,4,2,1,50,0,0
22002,-100,4,2,1,70,0,0
22065,-100,4,2,1,50,0,0
24002,-100,4,2,1,66,0,1
30000,-100,4,2,1,66,0,0
31499,-100,4,2,2,40,0,0
31811,-100,4,2,2,45,0,0
31999,-100,4,2,1,66,0,1
37747,-100,4,2,1,40,0,0
39496,529.614264277518,4,2,1,40,1,0
39496,-100,4,2,1,100,0,0
40026,462.249614791988,4,2,1,100,1,0
40026,-100,4,2,1,60,0,0
40083,-100,4,2,1,40,0,0
40488,499.833388870377,4,2,1,40,1,0
40488,-100,4,2,1,70,0,0
40550,-100,4,2,1,40,0,0
41237,-100,4,2,1,70,0,0
41300,-100,4,2,1,40,0,0
42003,499.833388870377,4,2,1,40,1,0
42003,-100,4,2,1,70,0,0
44002,-100,4,2,1,60,0,0
44064,-100,4,2,1,40,0,0
44502,-100,4,2,1,70,0,0
44564,-100,4,2,1,40,0,0
45251,-100,4,2,1,70,0,0
45314,-100,4,2,1,40,0,0
46001,-100,4,2,1,70,0,0
46064,-100,4,2,1,40,0,0
48001,-100,4,2,1,50,0,0
48500,-100,4,2,1,70,0,0
48563,-100,4,2,1,50,0,0
50500,-100,4,2,1,70,0,0
50562,-100,4,2,1,50,0,0
50750,-100,4,2,1,70,0,0
50812,-100,4,2,1,45,0,0
51249,-100,4,2,1,70,0,0
51312,-100,4,2,1,50,0,0
51999,-100,4,2,1,70,0,0
52062,-100,4,2,1,50,0,0
52499,-100,4,2,1,70,0,0
52561,-100,4,2,1,50,0,0
53499,-100,4,2,1,70,0,0
53561,-100,4,2,1,50,0,0
53999,-100,4,2,1,70,0,0
55998,-100,4,2,1,66,0,1
61996,-100,4,2,1,66,0,0
63495,-100,4,2,2,40,0,0
63808,-100,4,2,2,45,0,0
63995,-100,4,2,1,66,0,1
69993,-100,4,2,1,66,0,0
71993,-100,4,2,1,60,0,0
72055,-100,4,2,1,40,0,0
72492,-100,4,2,1,70,0,0
72555,-100,4,2,1,40,0,0
73242,-100,4,2,1,70,0,0
73305,-100,4,2,1,40,0,0
73992,-100,4,2,1,70,0,0
74054,-100,4,2,1,40,0,0
75991,-100,4,2,1,60,0,0
76054,-100,4,2,1,40,0,0
76491,-100,4,2,1,70,0,0
76553,-100,4,2,1,40,0,0
77241,-100,4,2,1,70,0,0
77303,-100,4,2,1,40,0,0
77991,-100,4,2,1,70,0,0
78053,-100,4,2,1,40,0,0
79990,-100,4,2,1,60,0,0
80052,-100,4,2,1,40,0,0
80490,-100,4,2,1,70,0,0
80552,-100,4,2,1,40,0,0
81239,-100,4,2,1,70,0,0
81302,-100,4,2,1,40,0,0
81989,-100,4,2,1,70,0,0
82052,-100,4,2,1,40,0,0
83989,508.474576271186,4,2,1,40,1,0
83989,-100,4,2,1,70,0,0
84052,-100,4,2,1,50,0,0
84497,-100,4,2,1,70,0,0
84561,-100,4,2,1,50,0,0
85220,535.714285714286,4,2,1,50,1,0
85220,-100,4,2,1,50,0,0
85487,-100,4,2,1,70,0,0
85554,-100,4,2,1,50,0,0
85755,467.836257309942,4,2,1,50,1,0
85755,-100,4,2,1,50,0,0
85988,512.820512820513,4,2,1,50,1,0
85988,-100,4,2,1,50,0,0
86500,-100,4,2,1,70,0,0
86564,-100,4,2,1,50,0,0
86757,-100,4,2,1,70,0,0
86821,-100,4,2,1,50,0,0
87270,498.338870431894,4,2,1,50,1,0
87270,-100,4,2,1,50,0,0
88017,498.338870431894,4,2,1,50,1,0
88017,-100,4,2,1,50,0,0
88515,-100,4,2,1,70,0,0
88577,-100,4,2,1,50,0,0
89636,-100,4,2,1,70,0,0
89698,-100,4,2,1,50,0,0
90010,-100,4,2,1,70,0,0
90072,-100,4,2,1,50,0,0
90986,499.833388870377,4,2,1,50,1,0
90986,-100,4,2,1,50,0,0
91985,499.833388870377,4,2,1,50,1,0
91985,-100,4,2,1,66,0,1
97983,-100,4,2,1,66,0,0
99482,-100,4,2,2,40,0,0
99794,-100,4,2,2,45,0,0
99982,-100,4,2,1,66,0,1
105980,-100,4,2,1,66,0,0
107979,-100,4,2,1,70,0,0
115477,-100,4,2,2,40,0,0
115789,-100,4,2,2,45,0,0
115977,-100,4,2,1,70,0,0
123474,-100,4,2,1,5,0,0
123724,-100,4,2,1,35,0,0
126067,-100,4,2,1,25,0,0
128066,-100,4,2,1,15,0,0
130066,-100,4,2,1,10,0,0
131065,-100,4,2,1,5,0,0
132065,-100,4,2,1,5,0,0

[Colours]
Combo1 : 129,224,112
Combo2 : 255,102,0
Combo3 : 255,94,255
Combo4 : 45,203,255
SliderTrackOverride : 255,120,120
SliderBorder : 255,255,255

[HitObjects]
54,117,8007,6,0,P|87:126|120:116,1,70,2|0,0:0|0:0,0:0:0:0:
180,56,8507,2,0,P|213:46|246:56,1,70,2|0,0:0|0:0,0:0:0:0:
309,119,9007,1,0,0:0:0:0:
309,119,9256,2,0,L|309:259,1,140,2|0,0:0|0:0,0:0:0:0:
309,343,10006,1,2,0:0:0:0:
309,343,12006,6,0,L|240:328,1,70,2|0,0:0|0:0,0:0:0:0:
181,269,12505,2,0,L|112:283,1,70,2|0,0:0|0:0,0:0:0:0:
52,223,13005,1,0,0:0:0:0:
52,223,13255,2,0,P|30:158|60:96,1,140,2|0,0:0|0:0,0:0:0:0:
119,37,14005,1,2,0:0:0:0:
119,37,16004,6,0,L|259:37,1,140,2|2,0:0|0:0,0:0:0:0:
318,96,16754,2,0,P|321:113|318:130,1,35
288,160,17004,2,0,P|280:194|288:227,1,70,2|2,0:0|0:0,0:0:0:0:
348,287,17504,1,2,0:0:0:0:
288,346,17754,1,2,0:0:0:0:
228,286,18004,6,0,P|165:259|104:290,1,140,2|2,0:0|0:0,0:0:0:0:
45,231,18753,2,0,L|45:196,1,35,2|2,0:0|0:0,0:0:0:0:
74,166,19003,2,0,B|81:132|81:132|67:99,1,70,2|2,0:0|0:0,0:0:0:0:
7,39,19503,1,2,0:0:0:0:
7,39,19753,1,2,0:0:0:0:
90,25,20003,6,0,B|146:19|146:19|165:33|165:33|224:28,1,140,2|2,0:0|0:0,0:0:0:0:
309,28,20753,2,0,L|302:62,1,35,2|0,0:0|0:0,0:0:0:0:
272,92,21003,2,0,L|280:161,1,70,2|2,0:0|0:0,0:0:0:0:
296,243,21502,1,2,0:0:0:0:
310,325,21752,1,2,0:0:0:0:
376,273,22002,5,2,0:0:0:0:
376,273,23252,1,0,3:0:0:0:
292,262,23502,1,0,3:0:0:0:
209,248,23752,1,0,3:0:0:0:
260,182,24002,6,0,P|266:147|258:113,1,70,8|0,3:0|0:0,0:0:0:0:
292,36,24501,2,0,P|257:30|223:38,1,70,8|2,1:0|0:0,0:0:0:0:
186,57,24876,1,8,1:0:0:0:
186,57,25001,2,0,L|92:67,1,70,0|8,0:0|1:0,0:0:0:0:
32,74,25501,1,0,0:0:0:0:
169,175,26001,6,0,L|163:244,1,70,8|0,3:0|3:0,0:0:0:0:
126,320,26501,2,0,L|195:325,1,70,8|0,1:0|3:0,0:0:0:0:
235,306,26876,1,8,1:0:0:0:
235,306,27001,2,0,L|316:312,1,70,0|8,0:0|1:0,0:0:0:0:
386,328,27500,1,0,0:0:0:0:
469,182,28000,6,0,B|477:148|477:148|465:114,1,70,8|0,3:0|3:0,0:0:0:0:
401,61,28500,2,0,B|367:53|367:53|333:65,1,70,8|0,1:0|0:0,0:0:0:0:
295,83,28875,1,8,1:0:0:0:
295,83,29000,2,0,P|246:84|209:66,1,70,0|8,0:0|1:0,0:0:0:0:
150,40,29500,1,0,0:0:0:0:
33,158,30000,5,8,3:0:0:0:
33,158,31499,1,8,0:0:0:0:
116,145,31749,1,8,3:0:0:0:
198,129,31999,6,0,L|190:198,1,70,8|0,3:0|0:0,0:0:0:0:
171,280,32499,2,0,L|240:272,1,70,8|2,1:0|0:0,0:0:0:0:
267,241,32874,1,8,1:0:0:0:
267,241,32999,2,0,L|340:250,1,70,0|8,0:0|1:0,0:0:0:0:
419,260,33498,1,0,0:0:0:0:
498,112,33998,6,0,P|506:78|495:45,1,70,8|0,3:0|3:0,0:0:0:0:
420,82,34498,2,0,L|350:75,1,70,8|0,1:0|3:0,0:0:0:0:
315,50,34873,1,8,1:0:0:0:
315,50,34998,2,0,P|270:45|218:45,1,70,0|8,0:0|1:0,0:0:0:0:
161,52,35498,1,0,0:0:0:0:
58,184,35998,6,0,L|43:252,1,70,8|0,3:0|3:0,0:0:0:0:
93,318,36497,2,0,P|127:328|160:321,1,70,8|0,1:0|0:0,0:0:0:0:
190,291,36872,1,8,1:0:0:0:
190,291,36997,2,0,L|265:295,1,70,0|8,0:0|1:0,0:0:0:0:
343,301,37497,1,0,0:0:0:0:
433,145,40026,6,0,L|434:75,1,70,2|0,0:0|0:0,0:0:0:0:
377,21,40488,2,0,P|343:14|310:23,1,70,2|0,0:0|0:0,0:0:0:0:
244,67,40987,1,0,0:0:0:0:
244,67,41237,2,0,P|181:92|117:67,1,140,2|0,0:0|0:0,0:0:0:0:
43,13,42003,1,4,0:0:0:0:
43,15,44002,6,0,L|43:85,1,70,2|0,0:0|0:0,0:0:0:0:
102,144,44502,2,0,L|102:214,1,70,2|0,0:0|0:0,0:0:0:0:
102,298,45002,1,0,0:0:0:0:
102,298,45251,2,0,P|165:272|229:297,1,140,2|0,0:0|0:0,0:0:0:0:
299,344,46001,1,2,0:0:0:0:
299,344,48001,6,0,B|276:278|276:278|306:214,1,140,2|2,0:0|0:0,0:0:0:0:
365,155,48750,2,0,L|366:120,1,35
365,77,49000,2,0,P|331:85|297:75,1,70,2|2,0:0|0:0,0:0:0:0:
221,39,49500,1,2,0:0:0:0:
144,74,49750,1,2,0:0:0:0:
67,38,50000,6,0,L|66:177,1,140,2|2,0:0|0:0,0:0:0:0:
125,237,50750,2,0,P|142:239|159:236,1,35,2|2,0:0|0:0,0:0:0:0:
189,206,51000,2,0,P|222:197|256:207,1,70,2|2,0:0|0:0,0:0:0:0:
329,248,51499,1,2,0:0:0:0:
329,248,51749,1,2,0:0:0:0:
388,188,51999,6,0,B|420:157|420:157|411:61,1,140,2|2,0:0|0:0,0:0:0:0:
339,18,52749,2,0,L|304:18,1,35,2|0,0:0|0:0,0:0:0:0:
274,47,52999,2,0,L|204:47,1,70,2|2,0:0|0:0,0:0:0:0:
119,50,53499,1,2,0:0:0:0:
59,109,53749,1,2,0:0:0:0:
79,190,53999,5,2,0:0:0:0:
79,190,55248,1,0,3:0:0:0:
138,130,55498,1,0,3:0:0:0:
197,70,55748,1,0,3:0:0:0:
256,129,55998,6,0,L|325:121,1,70,8|0,3:0|0:0,0:0:0:0:
385,62,56498,2,0,L|426:118,1,70,8|2,1:0|0:0,0:0:0:0:
471,130,56873,1,8,1:0:0:0:
471,130,56998,2,0,L|446:222,1,70,0|8,0:0|1:0,0:0:0:0:
426,277,57497,1,0,0:0:0:0:
272,208,57997,6,0,P|239:199|206:207,1,70,8|0,3:0|3:0,0:0:0:0:
132,251,58497,2,0,P|98:260|65:252,1,70,8|0,1:0|3:0,0:0:0:0:
39,226,58872,1,8,1:0:0:0:
39,226,58997,2,0,L|40:143,1,70,0|8,0:0|1:0,0:0:0:0:
39,71,59497,1,0,0:0:0:0:
172,173,59997,6,0,B|207:182|207:182|239:173,1,70,8|0,3:0|3:0,0:0:0:0:
299,114,60496,2,0,B|334:105|334:105|366:113,1,70,8|0,1:0|0:0,0:0:0:0:
407,123,60871,1,8,1:0:0:0:
407,123,60996,2,0,L|406:212,1,70,0|8,0:0|1:0,0:0:0:0:
405,277,61496,1,0,0:0:0:0:
254,348,61996,5,8,3:0:0:0:
254,348,63495,1,8,0:0:0:0:
170,336,63745,1,8,3:0:0:0:
86,325,63995,6,0,L|90:255,1,70,8|0,3:0|0:0,0:0:0:0:
90,170,64495,2,0,L|159:165,1,70,8|2,1:0|0:0,0:0:0:0:
189,135,64870,1,8,1:0:0:0:
189,135,64995,2,0,L|283:136,1,70,0|8,0:0|1:0,0:0:0:0:
343,138,65495,1,0,0:0:0:0:
386,303,65995,6,0,P|351:310|318:302,1,70,8|0,3:0|3:0,0:0:0:0:
254,250,66494,2,0,P|219:242|186:250,1,70,8|0,1:0|3:0,0:0:0:0:
146,266,66869,1,8,1:0:0:0:
146,266,66994,2,0,L|141:187,1,70,0|8,0:0|1:0,0:0:0:0:
140,111,67494,1,0,0:0:0:0:
294,44,67994,6,0,L|363:36,1,70,8|0,3:0|3:0,0:0:0:0:
446,18,68494,2,0,L|438:87,1,70,8|0,1:0|0:0,0:0:0:0:
409,113,68869,1,8,1:0:0:0:
409,113,68994,2,0,L|418:201,1,70,0|8,0:0|1:0,0:0:0:0:
427,265,69493,1,0,0:0:0:0:
280,345,69993,5,8,3:0:0:0:
279,345,71993,6,0,L|209:340,1,70,2|0,0:0|0:0,0:0:0:0:
149,280,72492,2,0,L|79:284,1,70,2|0,0:0|0:0,0:0:0:0:
19,225,72992,1,0,0:0:0:0:
19,225,73242,2,0,P|2:159|27:95,1,140,2|0,0:0|0:0,0:0:0:0:
85,34,73992,1,2,0:0:0:0:
85,34,75991,6,0,L|155:34,1,70,2|0,0:0|0:0,0:0:0:0:
214,93,76491,2,0,L|284:93,1,70,2|0,0:0|0:0,0:0:0:0:
343,33,76991,1,0,0:0:0:0:
342,33,77241,2,0,P|317:95|347:156,1,140,2|0,0:0|0:0,0:0:0:0:
407,216,77991,1,2,0:0:0:0:
406,215,79990,6,0,P|415:249|406:283,1,70,2|0,0:0|0:0,0:0:0:0:
347,343,80490,2,0,P|313:351|279:342,1,70,2|0,0:0|0:0,0:0:0:0:
219,283,80990,1,0,0:0:0:0:
219,283,81239,2,0,P|156:258|93:282,1,140,2|0,0:0|0:0,0:0:0:0:
27,227,81989,1,2,0:0:0:0:
27,227,83989,6,0,L|28:87,1,140,2|2,0:0|0:0,0:0:0:0:
99,40,84751,2,0,B|125:38|125:38|176:55,1,70,0|2,0:0|0:0,0:0:0:0:
245,83,85220,1,2,0:0:0:0:
288,6,85487,1,2,0:0:0:0:
347,65,85755,1,2,0:0:0:0:
406,5,85988,6,0,P|430:68|399:129,1,140,2|2,0:0|0:0,0:0:0:0:
340,188,86757,2,0,L|340:223,1,35,2|0,0:0|0:0,0:0:0:0:
340,265,87013,2,0,B|375:258|375:258|408:265,1,70,2|2,0:0|0:0,0:0:0:0:
376,343,87519,1,2,0:0:0:0:
376,343,87768,1,2,0:0:0:0:
291,343,88017,6,0,B|217:351|233:302|157:313,1,140,2|2,0:0|0:0,0:0:0:0:
98,254,88764,2,0,P|94:236|96:219,1,35,2|0,0:0|0:0,0:0:0:0:
126,189,89013,2,0,L|126:119,1,70,2|2,0:0|0:0,0:0:0:0:
126,34,89512,1,0,0:0:0:0:
205,62,89761,1,2,0:0:0:0:
284,89,90010,5,2,0:0:0:0:
284,89,91235,1,0,3:0:0:0:
205,62,91485,1,0,3:0:0:0:
126,34,91735,1,0,3:0:0:0:
65,93,91985,6,0,P|56:126|66:159,1,70,8|0,3:0|0:0,0:0:0:0:
125,219,92484,2,0,P|134:252|124:285,1,70,8|2,1:0|0:0,0:0:0:0:
94,315,92859,1,8,1:0:0:0:
94,315,92984,2,0,L|173:321,1,70,0|8,0:0|1:0,0:0:0:0:
247,328,93484,1,0,0:0:0:0:
352,197,93984,6,0,B|361:163|361:163|350:129,1,70,8|0,3:0|3:0,0:0:0:0:
384,52,94484,2,0,B|350:42|350:42|316:53,1,70,8|0,1:0|3:0,0:0:0:0:
277,68,94859,1,8,1:0:0:0:
276,68,94984,2,0,P|227:75|196:70,1,70,0|8,0:0|1:0,0:0:0:0:
124,54,95483,1,0,0:0:0:0:
42,202,95983,6,0,L|55:270,1,70,8|0,3:0|3:0,0:0:0:0:
42,353,96483,2,0,L|110:340,1,70,8|0,1:0|0:0,0:0:0:0:
134,304,96858,1,8,1:0:0:0:
134,304,96983,2,0,P|172:308|204:314,1,70,0|8,0:0|1:0,0:0:0:0:
282,343,97483,1,0,0:0:0:0:
427,252,97983,5,8,3:0:0:0:
427,252,99482,1,8,0:0:0:0:
350,216,99732,1,8,3:0:0:0:
273,182,99982,6,0,L|203:193,1,70,8|0,3:0|0:0,0:0:0:0:
121,174,100482,2,0,L|132:243,1,70,8|2,1:0|0:0,0:0:0:0:
134,289,100857,1,8,1:0:0:0:
134,289,100982,2,0,P|179:298|211:318,1,70,0|8,0:0|1:0,0:0:0:0:
264,362,101481,1,0,0:0:0:0:
431,345,101981,6,0,P|421:311|431:278,1,70,8|0,3:0|3:0,0:0:0:0:
456,198,102481,2,0,P|465:164|455:131,1,70,8|0,1:0|3:0,0:0:0:0:
430,104,102856,1,8,1:0:0:0:
430,104,102981,2,0,L|343:101,1,70,0|8,0:0|1:0,0:0:0:0:
275,102,103481,1,0,0:0:0:0:
135,24,103981,6,0,B|125:60|125:60|133:91,1,70,8|0,3:0|3:0,0:0:0:0:
73,151,104480,2,0,B|83:187|83:187|74:218,1,70,8|0,1:0|0:0,0:0:0:0:
44,248,104855,1,8,1:0:0:0:
44,248,104980,2,0,B|33:286|33:286|43:322,1,70,0|8,0:0|1:0,0:0:0:0:
111,362,105480,1,0,0:0:0:0:
256,277,105980,5,8,3:0:0:0:
469,44,107979,6,0,L|329:44,1,140,8|8,3:0|1:0,0:0:0:0:
269,103,108729,2,0,P|259:136|267:170,1,70,2|2,0:0|0:0,0:0:0:0:
327,229,109229,2,0,P|336:262|328:296,1,70,8|8,3:0|1:0,0:0:0:0:
268,355,109729,1,2,0:0:0:0:
268,355,109979,6,0,L|128:353,1,140,8|8,3:0|1:0,0:0:0:0:
68,293,110728,1,2,0:0:0:0:
127,233,110978,2,0,L|236:251,2,105,2|8|0,0:0|3:0|0:0,0:0:0:0:
94,155,111978,6,0,B|149:147|149:147|175:158|175:158|230:148,1,140,8|8,3:0|1:0,0:0:0:0:
295,94,112728,2,0,B|330:87|330:87|362:98,1,70,2|2,0:0|0:0,0:0:0:0:
430,147,113227,2,0,B|437:182|437:182|427:214,1,70,8|8,3:0|1:0,0:0:0:0:
369,277,113727,1,2,0:2:0:0:
309,336,113977,5,8,3:0:0:0:
309,336,115477,1,8,0:0:0:0:
226,320,115727,1,8,3:0:0:0:
143,306,115977,6,0,L|144:166,1,140,8|8,3:0|1:0,0:0:0:0:
204,106,116726,2,0,P|238:99|271:107,1,70,2|2,0:0|0:0,0:0:0:0:
331,167,117226,2,0,P|365:173|398:165,1,70,8|8,3:0|1:0,0:0:0:0:
458,105,117726,1,2,0:0:0:0:
458,105,117976,6,0,B|437:166|437:166|456:238,1,140,8|8,3:0|1:0,0:0:0:0:
490,316,118726,1,2,0:0:0:0:
424,368,118976,2,0,L|296:355,2,105,2|8|0,0:0|3:0|0:0,0:0:0:0:
402,286,119975,6,0,L|260:270,1,140,8|8,3:0|1:0,0:0:0:0:
181,293,120725,2,0,P|148:285|114:293,1,70,2|2,0:0|0:0,0:0:0:0:
52,235,121225,2,0,P|43:201|51:167,1,70,8|8,3:0|1:0,0:0:0:0:
100,100,121725,1,2,0:2:0:0:
100,100,121975,5,8,3:0:0:0:
256,192,123724,12,0,131971,0:0:0:0:
