osu file format v14

[General]
AudioFilename: audio.mp3
AudioLeadIn: 0
PreviewTime:99863
Countdown: 0
SampleSet: Soft
StackLeniency: 0.6
Mode: 0
LetterboxInBreaks: 0
WidescreenStoryboard: 1

[Editor]
Bookmarks:8007,16004,24002,71993,105105
DistanceSpacing: 0.7
BeatDivisor: 4
GridSize: 32
TimelineZoom: 2.299999

[Metadata]
Title:Doradura
TitleUnicode:Дорадура
Artist:dora
ArtistUnicode:дора
Creator:Shmiklak
Version:FCL's Insane
Source:
Tags:marvollo m_a_r_v_o_l_l_o dura дура mental affection старшая сестра russian cute rock pop русский кьют рок поп testo imakuri fcl wajinshu marianna
BeatmapID:2395897
BeatmapSetID:1135418

[Difficulty]
HPDrainRate:5
CircleSize:4
OverallDifficulty:7.5
ApproachRate:9
SliderMultiplier:1.9
SliderTickRate:1

[Events]
//Background and Video events
0,0,"doradura.jpg",0,0
Video,0,"dora.avi"
//Break Periods
//Storyboard Layer 0 (Background)
//Storyboard Layer 1 (Fail)
//Storyboard Layer 2 (Pass)
//Storyboard Layer 3 (Foreground)
//Storyboard Layer 4 (Overlay)
//Storyboard Sound Samples

[TimingPoints]
10,499.833388870377,4,2,1,50,1,0
10,-100,4,2,1,50,0,0
2009,-50,4,2,1,50,0,0
4008,-100,4,2,1,50,0,0
6008,-50,4,2,1,50,0,0
8007,-142.857142857143,4,2,1,70,0,0
8069,-142.857142857143,4,2,1,40,0,0
8507,-142.857142857143,4,2,1,70,0,0
8569,-142.857142857143,4,2,1,40,0,0
9256,-142.857142857143,4,2,1,70,0,0
9319,-142.857142857143,4,2,1,40,0,0
10006,-142.857142857143,4,2,1,70,0,0
10069,-142.857142857143,4,2,1,40,0,0
12006,-142.857142857143,4,2,1,60,0,0
12068,-142.857142857143,4,2,1,40,0,0
12505,-142.857142857143,4,2,1,70,0,0
12568,-142.857142857143,4,2,1,40,0,0
13255,-142.857142857143,4,2,1,70,0,0
13318,-142.857142857143,4,2,1,40,0,0
14005,-142.857142857143,4,2,1,70,0,0
14067,-142.857142857143,4,2,1,40,0,0
16004,-80,4,2,1,50,0,0
16504,-80,4,2,1,70,0,0
16566,-80,4,2,1,50,0,0
18503,-80,4,2,1,70,0,0
18566,-80,4,2,1,50,0,0
18753,-80,4,2,1,70,0,0
18816,-80,4,2,1,45,0,0
19253,-80,4,2,1,70,0,0
19316,-80,4,2,1,50,0,0
20003,-80,4,2,1,70,0,0
20065,-80,4,2,1,50,0,0
20503,-80,4,2,1,70,0,0
20565,-80,4,2,1,50,0,0
21502,-80,4,2,1,70,0,0
21565,-80,4,2,1,50,0,0
22002,-80,4,2,1,70,0,0
22065,-80,4,2,1,50,0,0
24002,-66.6666666666667,4,2,1,66,0,1
30000,-133.333333333333,4,2,1,66,0,0
30249,-133.333333333333,4,2,1,22,0,0
31499,-133.333333333333,4,2,2,40,0,0
31811,-133.333333333333,4,2,2,45,0,0
31999,-66.6666666666667,4,2,1,66,0,1
37747,-100,4,2,1,40,0,0
38497,-133.333333333333,4,2,1,40,0,0
38997,-181.818181818181,4,2,1,40,0,0
39496,529.614264277518,4,2,1,40,1,0
39496,-100,4,2,1,40,0,0
39893,-100,4,2,1,5,0,0
40026,462.249614791988,4,2,1,60,1,0
40026,-142.857142857143,4,2,1,60,0,0
40083,-142.857142857143,4,2,1,40,0,0
40488,499.833388870377,4,2,1,70,1,0
40488,-142.857142857143,4,2,1,70,0,0
40550,-142.857142857143,4,2,1,40,0,0
41237,-142.857142857143,4,2,1,70,0,0
41300,-142.857142857143,4,2,1,40,0,0
42003,499.833388870377,4,2,1,70,1,0
42003,-142.857142857143,4,2,1,70,0,0
44002,-142.857142857143,4,2,1,60,0,0
44064,-142.857142857143,4,2,1,40,0,0
44502,-142.857142857143,4,2,1,70,0,0
44564,-142.857142857143,4,2,1,40,0,0
45251,-142.857142857143,4,2,1,70,0,0
45314,-142.857142857143,4,2,1,40,0,0
46001,-142.857142857143,4,2,1,70,0,0
46064,-142.857142857143,4,2,1,40,0,0
48001,-100,4,2,1,50,0,0
48500,-100,4,2,1,70,0,0
48563,-100,4,2,1,50,0,0
50500,-100,4,2,1,70,0,0
50562,-100,4,2,1,50,0,0
50750,-100,4,2,1,70,0,0
50812,-100,4,2,1,45,0,0
51249,-100,4,2,1,70,0,0
51312,-100,4,2,1,50,0,0
51999,-100,4,2,1,70,0,0
52062,-100,4,2,1,50,0,0
52499,-100,4,2,1,70,0,0
52561,-100,4,2,1,50,0,0
53499,-100,4,2,1,70,0,0
53561,-100,4,2,1,50,0,0
53999,-100,4,2,1,70,0,0
55998,-66.6666666666667,4,2,1,66,0,1
61996,-133.333333333333,4,2,1,66,0,0
62246,-133.333333333333,4,2,1,22,0,0
63495,-133.333333333333,4,2,2,40,0,0
63808,-133.333333333333,4,2,2,45,0,0
63995,-66.6666666666667,4,2,1,66,0,1
69993,-181.818181818181,4,2,1,66,0,0
71993,-142.857142857143,4,2,1,60,0,0
72055,-142.857142857143,4,2,1,40,0,0
72492,-142.857142857143,4,2,1,70,0,0
72555,-142.857142857143,4,2,1,40,0,0
73242,-142.857142857143,4,2,1,70,0,0
73305,-142.857142857143,4,2,1,40,0,0
73992,-142.857142857143,4,2,1,70,0,0
74054,-142.857142857143,4,2,1,40,0,0
75991,-142.857142857143,4,2,1,60,0,0
76054,-142.857142857143,4,2,1,40,0,0
76491,-142.857142857143,4,2,1,70,0,0
76553,-142.857142857143,4,2,1,40,0,0
77241,-142.857142857143,4,2,1,70,0,0
77303,-142.857142857143,4,2,1,40,0,0
77991,-142.857142857143,4,2,1,70,0,0
78053,-142.857142857143,4,2,1,40,0,0
79990,-142.857142857143,4,2,1,60,0,0
80052,-142.857142857143,4,2,1,40,0,0
80490,-142.857142857143,4,2,1,70,0,0
80552,-142.857142857143,4,2,1,40,0,0
81239,-142.857142857143,4,2,1,70,0,0
81302,-142.857142857143,4,2,1,40,0,0
81989,-142.857142857143,4,2,1,70,0,0
82052,-142.857142857143,4,2,1,40,0,0
83989,508.474576271186,4,2,1,40,1,0
83989,-100,4,2,1,70,0,0
84052,-100,4,2,1,50,0,0
84497,-100,4,2,1,70,0,0
84561,-100,4,2,1,50,0,0
85220,535.714285714286,4,2,1,50,1,0
85220,-100,4,2,1,50,0,0
85487,-100,4,2,1,70,0,0
85554,-100,4,2,1,50,0,0
85755,467.836257309942,4,2,1,50,1,0
85755,-100,4,2,1,50,0,0
85988,512.820512820513,4,2,1,50,1,0
85988,-100,4,2,1,50,0,0
86500,-100,4,2,1,70,0,0
86564,-100,4,2,1,50,0,0
86757,-100,4,2,1,70,0,0
86821,-100,4,2,1,50,0,0
87270,498.338870431894,4,2,1,50,1,0
87270,-100,4,2,1,50,0,0
88017,498.338870431894,4,2,1,50,1,0
88017,-100,4,2,1,50,0,0
88515,-100,4,2,1,70,0,0
88577,-100,4,2,1,50,0,0
89636,-100,4,2,1,70,0,0
89698,-100,4,2,1,50,0,0
90010,-100,4,2,1,70,0,0
90072,-100,4,2,1,50,0,0
90986,499.833388870377,4,2,1,50,1,0
90986,-100,4,2,1,50,0,0
91985,499.833388870377,4,2,1,50,1,0
91985,-66.6666666666667,4,2,1,66,0,1
97983,-66.6666666666667,4,2,1,66,0,0
98232,-133.333333333333,4,2,1,22,0,0
99482,-133.333333333333,4,2,2,40,0,0
99794,-133.333333333333,4,2,2,45,0,0
99982,-66.6666666666667,4,2,1,66,0,1
105980,-133.333333333333,4,2,1,66,0,0
107979,-66.6666666666667,4,2,1,70,0,0
114227,-133.333333333333,4,2,1,70,0,0
115477,-133.333333333333,4,2,2,40,0,0
115789,-133.333333333333,4,2,2,45,0,0
115977,-66.6666666666667,4,2,1,70,0,0
121975,-133.333333333333,4,2,1,70,0,0
122974,-153.846153846153,4,2,1,70,0,0
123224,-153.846153846153,4,2,1,5,0,0
123349,-200,4,2,1,70,0,0
123474,-66.6666666666667,4,2,1,5,0,0
123724,-208.333333333333,4,2,1,35,0,0
126067,-1000,4,2,1,25,0,0
126973,-1000,4,2,1,5,0,0
128066,-1000,4,2,1,15,0,0
130066,-1000,4,2,1,10,0,0
131065,-1000,4,2,1,5,0,0
132065,-1000,4,2,1,5,0,0

[Colours]
Combo1 : 129,224,112
Combo2 : 255,102,0
Combo3 : 255,94,255
Combo4 : 45,203,255
SliderTrackOverride : 255,120,120
SliderBorder : 255,255,255

[HitObjects]
61,93,10,6,0,B|179:80|121:153|261:139,1,190,2|0,0:0|0:0,0:0:0:0:
305,98,759,1,0,0:0:0:0:
366,194,1009,1,0,0:0:0:0:
282,26,1259,2,0,P|266:145|262:243,1,190
186,329,2009,6,0,P|139:306|176:253,1,95,2|0,0:0|0:0,0:0:0:0:
28,338,4008,6,0,P|42:283|161:267,1,190,2|0,0:0|0:0,0:0:0:0:
193,331,4758,1,0,0:0:0:0:
260,246,5008,1,0,0:0:0:0:
392,361,5258,2,0,L|193:344,1,190
473,234,6008,6,0,B|490:277|490:277|450:343,1,95,2|0,0:0|0:0,0:0:0:0:
113,221,8007,6,0,P|129:172|148:151,1,66.4999979705811,2|0,0:0|0:0,0:0:0:0:
234,267,8507,2,0,L|223:357,1,66.4999979705811,2|0,0:0|0:0,0:0:0:0:
376,370,9007,1,0,0:0:0:0:
376,370,9256,2,0,L|367:303,2,66.4999979705811,2|0|0,0:0|0:0|0:0,0:0:0:0:
427,219,10006,5,2,0:0:0:0:
105,142,12006,6,0,P|156:141|171:78,1,99.7499969558717,2|0,0:0|0:0,0:0:0:0:
223,206,12505,2,0,P|209:243|203:291,1,66.4999979705811,2|0,0:0|0:0,0:0:0:0:
315,316,13005,1,0,0:0:0:0:
245,350,13255,1,2,0:0:0:0:
110,237,13505,2,0,P|103:204|91:173,1,66.4999979705811
231,67,14005,5,2,0:0:0:0:
465,83,16004,6,0,B|364:61|399:140|279:108,1,178.125,2|0,0:0|0:0,0:0:0:0:
206,40,16504,2,0,L|223:162,1,118.75,2|0,0:0|0:0,0:0:0:0:
172,231,16879,1,0,0:0:0:0:
181,242,17004,6,0,L|267:226,1,59.375,2|2,0:0|0:0,0:0:0:0:
365,328,17254,2,0,L|244:312,1,118.75,2|2,0:0|0:0,0:0:0:0:
103,225,17629,5,2,0:0:0:0:
155,165,17754,1,2,0:0:0:0:
180,241,17879,1,0,0:0:0:0:
42,326,18004,6,0,P|81:266|205:250,1,178.125,2|0,0:0|0:0,0:0:0:0:
267,351,18503,2,0,P|324:321|300:270,1,118.75,2|2,0:0|0:0,0:0:0:0:
241,164,18878,1,2,0:0:0:0:
250,171,19003,5,2,0:0:0:0:
326,163,19128,1,2,0:0:0:0:
403,155,19253,2,0,L|389:253,1,59.375,2|0,0:0|0:0,0:0:0:0:
491,47,19503,5,2,0:0:0:0:
478,40,19628,1,2,0:0:0:0:
388,79,19753,5,2,0:0:0:0:
401,72,19878,1,2,0:0:0:0:
311,20,20003,6,0,B|337:45|337:45|314:213,1,178.125,2|0,0:0|0:0,0:0:0:0:
291,339,20503,2,0,L|157:317,1,118.75,2|2,0:0|0:0,0:0:0:0:
48,195,20878,1,0,0:0:0:0:
58,206,21003,6,0,L|144:194,1,59.375,2|2,0:0|0:0,0:0:0:0:
203,24,21252,2,0,L|187:153,1,118.75,2|2,0:0|0:0,0:0:0:0:
272,258,21627,5,2,0:0:0:0:
290,233,21752,1,2,0:0:0:0:
342,299,21877,5,2,0:0:0:0:
383,202,22002,5,2,0:0:0:0:
434,208,23127,5,0,3:0:0:0:
430,203,23189,1,0,3:0:0:0:
426,197,23252,2,0,L|431:122,1,59.375,0|0,3:0|3:0,0:0:0:0:
325,59,23502,2,0,L|328:118,1,59.375,0|0,3:0|3:0,0:0:0:0:
422,51,23752,1,0,3:0:0:0:
428,39,23877,1,0,3:0:0:0:
434,208,24002,6,0,B|380:202|380:202|357:211|357:211|184:189,1,213.750008153916,8|0,3:0|0:0,0:0:0:0:
64,218,24501,2,0,P|39:248|78:312,1,71.2500027179719,8|0,1:0|0:0,0:0:0:0:
279,348,24751,5,2,0:0:0:0:
348,308,24876,2,0,L|359:222,1,71.2500027179719,8|0,1:0|0:0,0:0:0:0:
203,42,25126,1,8,1:0:0:0:
272,82,25251,2,0,L|283:168,1,71.2500027179719,8|0,3:0|0:0,0:0:0:0:
170,318,25501,2,0,P|99:294|157:212,1,142.500005435944,8|0,1:0|3:0,0:0:0:0:
180,178,25876,1,0,3:0:0:0:
94,94,26001,6,0,L|101:254,1,142.500005435944,8|0,3:0|3:0,0:0:0:0:
351,304,26501,2,0,L|358:227,1,71.2500027179719,8|0,1:0|0:0,0:0:0:0:
419,75,26751,2,0,L|425:145,1,71.2500027179719,0|8,3:0|1:0,0:0:0:0:
338,317,27001,5,0,0:0:0:0:
262,333,27125,1,8,1:0:0:0:
251,343,27250,2,0,L|153:335,1,71.2500027179719,8|0,3:0|0:0,0:0:0:0:
18,194,27500,2,0,L|189:179,1,142.500005435944,8|0,1:0|3:0,0:0:0:0:
241,112,27875,1,0,3:0:0:0:
131,26,28000,6,0,L|136:120,1,71.2500027179719,8|0,3:0|0:0,0:0:0:0:
270,220,28250,2,0,L|265:314,1,71.2500027179719,0|0,3:0|0:0,0:0:0:0:
42,373,28500,2,0,P|67:330|171:306,1,142.500005435944,8|0,1:0|0:0,0:0:0:0:
205,358,28875,1,8,1:0:0:0:
341,293,29000,5,0,0:0:0:0:
421,280,29125,1,8,1:0:0:0:
340,302,29250,2,0,P|333:253|333:211,1,71.2500027179719,8|0,3:0|0:0,0:0:0:0:
197,95,29500,5,8,1:0:0:0:
210,39,29625,1,0,0:0:0:0:
266,53,29750,1,0,3:0:0:0:
252,108,29875,1,0,3:0:0:0:
132,137,30000,5,8,3:0:0:0:
132,137,30249,6,0,L|142:192,9,35.625001358986,2|0|0|0|0|0|0|0|0|0,0:0|0:0|0:0|0:0|0:0|0:0|0:0|0:0|0:0|0:0,0:0:0:0:
86,225,31499,5,8,0:0:0:0:
103,258,31624,1,8,0:0:0:0:
164,177,31749,5,8,3:0:0:0:
164,177,31874,5,0,0:0:0:0:
267,152,31999,6,0,P|260:182|258:237,1,71.2500027179719,8|0,3:0|0:0,0:0:0:0:
370,348,32249,2,0,P|402:326|395:277,1,71.2500027179719
193,370,32499,2,0,L|58:350,1,71.2500027179719,8|0,1:0|0:0,0:0:0:0:
42,151,32749,5,2,0:0:0:0:
62,227,32874,1,8,1:0:0:0:
117,174,32999,1,0,0:0:0:0:
63,237,33123,1,8,1:0:0:0:
125,180,33248,2,0,L|225:174,1,71.2500027179719,8|0,3:0|0:0,0:0:0:0:
337,71,33498,2,0,B|310:99|310:99|320:213,1,142.500005435944,8|0,1:0|3:0,0:0:0:0:
397,255,33873,1,0,3:0:0:0:
464,194,33998,6,0,P|455:167|404:146,1,71.2500027179719,8|0,3:0|0:0,0:0:0:0:
316,308,34248,2,0,L|206:300,1,71.2500027179719,0|0,3:0|0:0,0:0:0:0:
464,194,34498,6,0,P|436:188|392:221,1,71.2500027179719,8|0,1:0|0:0,0:0:0:0:
310,316,34748,2,0,L|200:308,1,71.2500027179719,0|8,3:0|1:0,0:0:0:0:
114,159,34998,5,0,0:0:0:0:
125,151,35123,1,8,1:0:0:0:
126,166,35248,2,0,L|113:262,1,71.2500027179719,8|0,3:0|0:0,0:0:0:0:
63,73,35498,5,8,1:0:0:0:
76,63,35623,1,0,0:0:0:0:
125,82,35748,1,0,3:0:0:0:
147,43,35873,1,0,3:0:0:0:
224,91,35998,6,0,L|206:206,1,71.2500027179719,8|0,3:0|0:0,0:0:0:0:
277,340,36247,2,0,P|267:297|269:238,1,71.2500027179719,0|0,3:0|0:0,0:0:0:0:
434,349,36497,2,0,L|349:338,1,71.2500027179719,8|0,1:0|0:0,0:0:0:0:
174,319,36747,5,0,0:0:0:0:
98,339,36872,1,8,1:0:0:0:
96,351,36997,1,0,0:0:0:0:
67,252,37122,1,8,1:0:0:0:
62,264,37247,2,0,L|69:174,1,71.2500027179719,8|0,3:0|0:0,0:0:0:0:
251,44,37497,6,0,P|202:71|182:161,1,142.500005435944,8|0,1:0|3:0,0:0:0:0:
186,61,37997,6,0,P|167:110|184:157,1,95,8|0,3:0|0:0,0:0:0:0:
146,88,38497,6,0,P|154:120|193:158,1,71.2500027179719
137,119,38997,6,0,P|161:143|199:148,1,52.2500015945435
177,148,39496,6,0,P|237:178|237:256,1,142.5
242,247,40026,6,0,L|359:237,1,99.7499969558717,2|0,0:0|0:0,0:0:0:0:
465,332,40488,2,0,P|434:288|431:251,1,66.4999979705811,2|0,0:0|0:0,0:0:0:0:
480,111,40987,1,0,0:0:0:0:
383,74,41237,2,0,P|396:117|407:167,1,66.4999979705811,2|0,0:0|0:0,0:0:0:0:
246,276,42003,5,4,0:0:0:0:
168,326,44002,6,0,P|125:297|156:248,1,99.7499969558717,2|0,0:0|0:0,0:0:0:0:
216,211,44502,2,0,P|221:182|211:140,1,66.4999979705811,2|0,0:0|0:0,0:0:0:0:
92,73,45002,1,0,0:0:0:0:
158,25,45251,2,0,L|254:12,1,66.4999979705811,2|0,0:0|0:0,0:0:0:0:
481,147,46001,5,2,0:0:0:0:
387,247,48001,6,0,B|297:239|343:301|214:278,1,142.5,2|0,0:0|0:0,0:0:0:0:
104,352,48500,2,0,P|136:337|142:263,1,95,2|0,0:0|0:0,0:0:0:0:
61,196,48875,1,0,0:0:0:0:
69,207,49000,6,0,L|156:197,1,47.5,2|2,0:0|0:0,0:0:0:0:
234,71,49250,2,0,P|269:111|329:129,1,95,2|2,0:0|0:0,0:0:0:0:
415,37,49625,5,2,0:0:0:0:
488,55,49750,1,2,0:0:0:0:
469,128,49875,1,0,0:0:0:0:
395,110,50000,6,0,L|412:231,1,95,2|0,0:0|0:0,0:0:0:0:
213,310,50500,1,2,0:0:0:0:
374,335,50750,2,0,L|439:324,1,47.5,2|2,0:0|0:0,0:0:0:0:
212,299,51000,1,2,0:0:0:0:
145,331,51124,1,2,0:0:0:0:
138,340,51249,6,0,L|142:259,1,47.5,2|0,0:0|0:0,0:0:0:0:
45,132,51499,2,0,L|47:179,1,47.5,2|2,0:0|0:0,0:0:0:0:
135,73,51749,1,2,0:0:0:0:
127,62,51874,1,2,0:0:0:0:
124,152,51999,6,0,P|169:156|228:251,1,142.5,2|0,0:0|0:0,0:0:0:0:
93,307,52499,2,0,P|101:272|161:228,1,95,2|2,0:0|0:0,0:0:0:0:
280,316,52874,1,0,0:0:0:0:
269,326,52999,6,0,P|283:283|302:247,1,47.5,2|2,0:0|0:0,0:0:0:0:
440,138,53249,2,0,P|411:212|373:203,1,95,2|2,0:0|0:0,0:0:0:0:
307,110,53624,5,2,0:0:0:0:
231,102,53749,1,2,0:0:0:0:
155,95,53874,1,2,0:0:0:0:
151,107,53999,5,2,0:0:0:0:
360,192,55123,5,0,3:0:0:0:
356,195,55186,1,0,3:0:0:0:
352,198,55248,2,0,L|344:264,1,47.5,0|0,3:0|3:0,0:0:0:0:
257,160,55498,2,0,L|249:226,1,47.5,0|0,3:0|3:0,0:0:0:0:
171,122,55748,1,0,3:0:0:0:
166,155,55873,1,0,3:0:0:0:
94,232,55998,6,0,B|236:214|236:214|286:300,1,213.750008153916,8|0,3:0|0:0,0:0:0:0:
206,102,56498,2,0,P|176:121|165:154,1,71.2500027179719,8|0,1:0|0:0,0:0:0:0:
271,275,56748,5,2,0:0:0:0:
341,308,56873,2,0,P|374:280|378:239,1,71.2500027179719,8|0,1:0|0:0,0:0:0:0:
357,46,57122,1,8,1:0:0:0:
293,90,57247,2,0,P|300:132|334:156,1,71.2500027179719,8|0,3:0|0:0,0:0:0:0:
483,300,57497,2,0,L|321:308,1,142.500005435944,8|0,1:0|3:0,0:0:0:0:
256,361,57872,1,0,3:0:0:0:
162,312,57997,6,0,L|146:185,1,71.2500027179719,8|0,3:0|0:0,0:0:0:0:
54,107,58247,2,0,L|62:177,1,71.2500027179719,0|0,3:0|0:0,0:0:0:0:
141,25,58497,2,0,L|211:16,1,71.2500027179719,8|0,1:0|0:0,0:0:0:0:
364,64,58747,5,0,3:0:0:0:
355,71,58872,1,8,1:0:0:0:
404,132,58997,1,0,0:0:0:0:
358,211,59122,6,0,L|198:195,1,142.500005435944,8|0,1:0|0:0,0:0:0:0:
22,219,59497,2,0,L|128:208,1,71.2500027179719,8|0,1:0|0:0,0:0:0:0:
153,259,59747,1,0,3:0:0:0:
197,125,59872,1,0,3:0:0:0:
245,219,59997,6,0,P|236:255|230:329,1,71.2500027179719,8|0,3:0|0:0,0:0:0:0:
374,356,60246,2,0,L|371:276,1,71.2500027179719,0|0,3:0|0:0,0:0:0:0:
245,219,60496,2,0,P|214:252|159:260,1,71.2500027179719,8|0,1:0|0:0,0:0:0:0:
384,346,60746,5,0,0:0:0:0:
374,356,60871,2,0,L|445:353,1,71.2500027179719,8|0,1:0|0:0,0:0:0:0:
181,332,61121,1,8,1:0:0:0:
171,342,61246,2,0,L|242:339,1,71.2500027179719,8|0,3:0|0:0,0:0:0:0:
0,296,61496,2,0,L|71:293,1,71.2500027179719,8|0,3:0|3:0,0:0:0:0:
144,228,61746,1,0,3:0:0:0:
109,142,61871,1,0,3:0:0:0:
171,44,61996,5,8,3:0:0:0:
172,44,62246,6,0,L|220:36,9,35.625001358986,2|0|0|0|0|0|0|0|0|0,0:0|0:0|0:0|0:0|0:0|0:0|0:0|0:0|0:0|0:0,0:0:0:0:
130,125,63495,5,8,0:0:0:0:
169,115,63620,1,8,0:0:0:0:
236,163,63745,5,8,3:0:0:0:
244,155,63870,5,0,0:0:0:0:
350,116,63995,6,0,B|315:145|315:145|331:263,1,142.500005435944,8|0,3:0|0:0,0:0:0:0:
197,369,64495,2,0,P|174:333|101:298,1,71.2500027179719,8|0,1:0|0:0,0:0:0:0:
67,105,64745,5,2,0:0:0:0:
120,162,64870,2,0,L|241:153,1,71.2500027179719,8|0,1:0|0:0,0:0:0:0:
416,22,65120,1,8,1:0:0:0:
363,79,65245,2,0,L|242:70,1,71.2500027179719,8|0,3:0|0:0,0:0:0:0:
338,195,65495,5,8,1:0:0:0:
357,187,65620,1,0,0:0:0:0:
411,287,65745,1,0,3:0:0:0:
392,279,65870,1,0,3:0:0:0:
267,202,65995,6,0,L|386:190,1,71.2500027179719,8|0,3:0|0:0,0:0:0:0:
221,318,66244,2,0,L|102:306,1,71.2500027179719,0|0,3:0|0:0,0:0:0:0:
272,194,66494,2,0,L|391:182,1,71.2500027179719,8|0,1:0|0:0,0:0:0:0:
213,327,66744,2,0,L|94:315,1,71.2500027179719,0|8,3:0|1:0,0:0:0:0:
39,99,66994,5,0,0:0:0:0:
94,154,67119,2,0,P|167:114|157:60,1,142.500005435944,8|0,1:0|0:0,0:0:0:0:
385,23,67494,2,0,P|312:63|322:117,1,142.500005435944,8|0,1:0|3:0,0:0:0:0:
389,145,67869,1,0,3:0:0:0:
312,278,67994,6,0,L|223:270,1,71.2500027179719,8|0,3:0|0:0,0:0:0:0:
411,362,68244,2,0,P|425:324|451:270,1,71.2500027179719,0|0,3:0|0:0,0:0:0:0:
318,111,68494,1,8,1:0:0:0:
92,153,68744,5,0,0:0:0:0:
104,223,68869,1,8,1:0:0:0:
117,293,68994,1,0,0:0:0:0:
108,306,69118,2,0,L|121:149,1,142.500005435944,8|0,1:0|0:0,0:0:0:0:
304,38,69493,2,0,L|206:48,1,71.2500027179719,8|0,1:0|0:0,0:0:0:0:
414,123,69743,1,0,3:0:0:0:
460,59,69868,1,0,3:0:0:0:
405,132,69993,5,8,3:0:0:0:
405,132,70493,1,0,0:0:0:0:
405,132,70993,2,0,P|384:220|380:246,1,104.500003189087
381,233,71993,6,0,P|327:254|266:282,1,99.7499969558717,2|0,0:0|0:0,0:0:0:0:
180,343,72492,2,0,P|190:299|196:260,1,66.4999979705811,2|0,0:0|0:0,0:0:0:0:
72,134,72992,1,0,0:0:0:0:
153,86,73242,2,0,P|158:118|166:151,1,66.4999979705811,2|0,0:0|0:0,0:0:0:0:
397,66,73992,5,2,0:0:0:0:
380,162,75991,6,0,P|326:147|333:88,1,99.7499969558717,2|0,0:0|0:0,0:0:0:0:
468,203,76491,2,0,P|438:227|430:262,1,66.4999979705811,2|0,0:0|0:0,0:0:0:0:
395,71,76991,1,0,0:0:0:0:
319,109,77241,2,0,L|328:193,1,66.4999979705811,2|0,0:0|0:0,0:0:0:0:
148,67,77991,5,2,0:0:0:0:
81,125,79990,6,0,L|97:256,1,99.7499969558717,2|0,0:0|0:0,0:0:0:0:
49,326,80490,2,0,P|91:302|130:296,1,66.4999979705811,2|0,0:0|0:0,0:0:0:0:
287,337,80990,1,0,0:0:0:0:
217,372,81239,2,0,L|203:279,1,66.4999979705811,2|0,0:0|0:0,0:0:0:0:
166,41,81989,5,2,0:0:0:0:
460,118,83989,6,0,B|372:110|413:173|324:166,1,142.5,2|0,0:0|0:0,0:0:0:0:
238,273,84497,2,0,L|113:264,1,95,2|0,0:0|0:0,0:0:0:0:
46,161,84878,1,0,0:0:0:0:
56,168,85005,6,0,L|63:101,1,47.5,2|2,0:0|0:0,0:0:0:0:
227,31,85220,2,0,L|236:136,1,95,2|2,0:0|0:0,0:0:0:0:
247,211,85621,1,2,0:0:0:0:
261,300,85755,5,2,0:0:0:0:
269,293,85871,1,2,0:0:0:0:
213,354,85988,2,0,L|95:349,1,95,2|0,0:0|0:0,0:0:0:0:
346,344,86500,2,0,P|364:296|434:295,1,95,2|2,0:0|0:0,0:0:0:0:
477,124,86885,5,0,0:0:0:0:
483,200,87013,1,2,0:0:0:0:
415,168,87141,1,2,0:0:0:0:
489,105,87270,6,0,L|480:237,1,95,2|0,0:0|0:0,0:0:0:0:
508,281,87643,1,2,0:0:0:0:
494,285,87768,1,2,0:0:0:0:
480,290,87892,1,2,0:0:0:0:
417,361,88017,6,0,P|366:335|363:301,1,95,2|0,0:0|0:0,0:0:0:0:
184,113,88515,2,0,L|203:242,1,95,2|2,0:0|0:0,0:0:0:0:
299,34,88889,1,0,0:0:0:0:
293,45,89013,6,0,L|216:57,1,47.5,2|2,0:0|0:0,0:0:0:0:
60,26,89262,2,0,L|137:38,1,47.5,2|0,0:0|0:0,0:0:0:0:
155,180,89512,5,0,0:0:0:0:
189,154,89636,1,2,0:0:0:0:
194,197,89761,1,2,0:0:0:0:
180,176,89885,1,2,0:0:0:0:
264,134,90010,5,2,0:0:0:0:
353,120,91110,5,0,3:0:0:0:
350,126,91173,1,0,3:0:0:0:
346,132,91235,2,0,L|350:183,1,47.5,0|0,3:0|3:0,0:0:0:0:
240,106,91485,2,0,L|244:157,1,47.5,0|0,3:0|3:0,0:0:0:0:
144,85,91735,1,0,3:0:0:0:
146,118,91860,1,0,3:0:0:0:
68,203,91985,6,0,B|214:210|120:279|276:279,1,213.750008153916,8|0,3:0|0:0,0:0:0:0:
364,353,92484,2,0,P|399:335|396:289,1,71.2500027179719,8|0,1:0|0:0,0:0:0:0:
317,39,92734,5,2,0:0:0:0:
364,97,92859,2,0,L|352:192,1,71.2500027179719,8|0,1:0|0:0,0:0:0:0:
202,237,93109,1,8,1:0:0:0:
249,295,93234,2,0,L|237:390,1,71.2500027179719,8|0,3:0|0:0,0:0:0:0:
39,265,93484,2,0,P|60:194|161:206,1,142.500005435944,8|0,1:0|3:0,0:0:0:0:
211,105,93859,1,0,3:0:0:0:
126,83,93984,6,0,L|134:193,1,71.2500027179719,8|0,3:0|0:0,0:0:0:0:
268,215,94234,2,0,L|276:325,1,71.2500027179719,0|0,3:0|0:0,0:0:0:0:
123,159,94484,2,0,L|117:87,1,71.2500027179719,8|0,1:0|0:0,0:0:0:0:
278,221,94734,2,0,L|286:331,1,71.2500027179719,0|8,3:0|1:0,0:0:0:0:
346,112,94984,5,0,0:0:0:0:
359,120,95108,2,0,B|391:99|391:99|371:226,1,142.500005435944,8|0,1:0|0:0,0:0:0:0:
242,336,95483,2,0,B|225:233|225:233|257:254,1,142.500005435944,8|0,1:0|3:0,0:0:0:0:
149,309,95858,1,0,3:0:0:0:
76,257,95983,6,0,P|94:223|151:201,1,71.2500027179719,8|0,3:0|0:0,0:0:0:0:
246,136,96233,2,0,L|258:26,1,71.2500027179719,0|0,3:0|0:0,0:0:0:0:
32,89,96483,2,0,L|142:77,1,71.2500027179719,8|0,1:0|0:0,0:0:0:0:
259,223,96733,5,0,0:0:0:0:
270,228,96858,2,0,L|380:216,1,71.2500027179719,8|0,1:0|0:0,0:0:0:0:
497,329,97108,2,0,B|424:339|424:339|394:270,1,142.500005435944,8|0,1:0|0:0,0:0:0:0:
438,140,97483,5,8,1:0:0:0:
472,95,97608,1,0,0:0:0:0:
440,48,97733,1,0,3:0:0:0:
386,63,97858,1,0,3:0:0:0:
384,120,97983,5,8,3:0:0:0:
384,120,98232,6,0,L|374:172,9,35.625001358986,2|0|0|0|0|0|0|0|0|0,0:0|0:0|0:0|0:0|0:0|0:0|0:0|0:0|0:0|0:0,0:0:0:0:
315,215,99482,5,8,0:0:0:0:
305,201,99607,1,8,0:0:0:0:
275,279,99732,5,8,3:0:0:0:
390,235,99857,5,0,0:0:0:0:
305,201,99982,6,0,L|300:124,1,71.2500027179719,8|0,3:0|0:0,0:0:0:0:
158,36,100232,2,0,P|156:65|190:99,1,71.2500027179719
275,279,100482,2,0,P|213:247|246:172,1,142.500005435944,8|2,1:0|0:0,0:0:0:0:
79,105,100857,5,8,1:0:0:0:
86,119,100982,1,0,0:0:0:0:
64,203,101106,1,8,1:0:0:0:
71,217,101231,2,0,L|63:302,1,71.2500027179719,8|0,3:0|0:0,0:0:0:0:
185,346,101481,2,0,B|222:315|222:315|366:347,1,142.500005435944,8|0,1:0|3:0,0:0:0:0:
417,278,101856,1,0,3:0:0:0:
494,349,101981,6,0,P|446:325|420:288,1,71.2500027179719,8|0,3:0|0:0,0:0:0:0:
259,303,102231,2,0,P|255:249|274:208,1,71.2500027179719,0|0,3:0|0:0,0:0:0:0:
376,108,102481,2,0,P|379:161|360:202,1,71.2500027179719,8|0,1:0|0:0,0:0:0:0:
79,107,102731,5,0,3:0:0:0:
141,62,102856,2,0,P|189:86|215:123,1,71.2500027179719,8|0,1:0|0:0,0:0:0:0:
104,297,103106,1,8,1:0:0:0:
96,220,103231,2,0,P|140:190|185:186,1,71.2500027179719,8|0,3:0|0:0,0:0:0:0:
262,321,103481,5,8,1:0:0:0:
273,307,103606,1,0,0:0:0:0:
335,353,103731,1,0,3:0:0:0:
390,285,103856,1,0,3:0:0:0:
458,331,103981,6,0,L|291:321,1,142.500005435944,8|0,3:0|3:0,0:0:0:0:
77,384,104480,2,0,P|27:352|35:310,1,71.2500027179719,8|0,1:0|0:0,0:0:0:0:
186,175,104730,5,0,0:0:0:0:
174,174,104855,2,0,L|183:266,1,71.2500027179719,8|0,1:0|0:0,0:0:0:0:
244,47,105105,1,8,1:0:0:0:
256,46,105230,2,0,L|247:138,1,71.2500027179719,8|0,3:0|0:0,0:0:0:0:
316,219,105480,5,8,1:0:0:0:
399,184,105605,1,0,0:0:0:0:
453,248,105730,1,0,3:0:0:0:
462,238,105855,1,0,3:0:0:0:
381,286,105980,5,8,3:0:0:0:
381,286,106480,1,0,0:0:0:0:
381,286,106980,1,0,0:0:0:0:
381,286,107479,2,0,P|354:249|286:258,1,106.875004076958
297,249,107979,6,0,B|365:244|365:244|375:251|375:251|484:241|484:241|424:184,1,213.750008153916,8|0,3:0|0:0,0:0:0:0:
345,39,108479,2,0,L|361:136,1,71.2500027179719,8|0,1:0|0:0,0:0:0:0:
233,188,108729,5,2,0:0:0:0:
224,181,108854,2,0,P|204:221|220:270,1,71.2500027179719,8|2,0:0|0:0,0:0:0:0:
72,115,109104,1,8,0:0:0:0:
61,119,109229,2,0,P|85:156|136:166,1,71.2500027179719,8|0,3:0|0:0,0:0:0:0:
226,94,109479,5,8,1:0:0:0:
236,71,109604,1,2,0:0:0:0:
265,107,109729,1,2,0:0:0:0:
296,39,109854,1,2,0:0:0:0:
337,99,109979,6,0,P|397:134|381:237,1,142.500005435944,8|2,3:0|0:2,0:0:0:0:
235,354,110478,2,0,P|175:319|191:216,1,142.500005435944,8|2,1:0|0:0,0:0:0:0:
359,295,110853,1,2,0:0:0:0:
347,308,110978,5,2,0:0:0:0:
360,229,111103,1,0,1:0:0:0:
302,148,111228,6,0,B|292:46|292:46|328:24,1,142.500005435944,8|8,3:0|1:0,0:0:0:0:
196,93,111603,1,0,0:0:0:0:
124,58,111728,1,2,3:2:0:0:
57,18,111853,1,0,3:0:0:0:
66,29,111978,6,0,L|86:228,1,142.500005435944,8|0,3:0|0:0,0:0:0:0:
221,325,112478,2,0,P|242:265|324:271,1,142.500005435944,8|2,1:0|0:0,0:0:0:0:
87,350,112853,1,8,0:0:0:0:
80,340,112978,5,2,0:0:0:0:
109,268,113102,1,8,0:0:0:0:
160,327,113227,2,0,L|306:309,1,142.500005435944,8|8,3:0|1:0,0:0:0:0:
361,253,113602,5,0,0:0:0:0:
452,325,113727,1,2,0:2:0:0:
453,313,113852,1,2,0:0:0:0:
460,216,113977,5,8,3:0:0:0:
460,216,114227,6,0,L|464:160,9,35.625001358986
470,86,115477,5,8,0:0:0:0:
464,72,115602,1,8,0:0:0:0:
348,28,115727,5,8,3:0:0:0:
342,42,115852,1,0,0:0:0:0:
265,115,115977,6,0,B|122:104|122:104|162:126|191:198,1,213.750008153916,8|0,3:0|0:0,0:0:0:0:
42,236,116476,2,0,P|61:201|139:177,1,71.2500027179719,8|0,1:0|0:0,0:0:0:0:
183,323,116726,5,2,0:0:0:0:
204,309,116851,2,0,L|219:208,1,71.2500027179719,8|2,0:0|0:0,0:0:0:0:
378,168,117101,1,8,0:0:0:0:
357,154,117226,2,0,L|342:53,1,71.2500027179719,8|0,3:0|0:0,0:0:0:0:
222,19,117476,5,8,1:0:0:0:
157,58,117601,1,2,0:0:0:0:
152,134,117726,1,2,0:0:0:0:
209,183,117851,1,2,0:0:0:0:
220,192,117976,6,0,B|393:164|393:164|439:223,1,213.750008153916,8|0,3:0|0:0,0:0:0:0:
353,329,118476,2,0,L|229:310,1,71.2500027179719,8|0,1:0|0:0,0:0:0:0:
305,104,118726,2,0,L|429:85,1,71.2500027179719,2|2,0:0|0:0,0:0:0:0:
224,230,118976,5,2,0:0:0:0:
168,149,119100,2,0,B|183:300,1,142.500005435944,0|0,1:0|0:0,0:0:0:0:
30,367,119475,2,0,P|43:337|103:323,1,71.2500027179719,8|0,1:0|0:0,0:0:0:0:
182,290,119725,1,2,3:2:0:0:
256,347,119850,1,0,3:0:0:0:
296,251,119975,6,0,L|491:219,2,142.500005435944,8|0|8,3:0|0:0|1:0,0:0:0:0:
101,49,120725,5,2,0:0:0:0:
167,103,120850,2,0,B|264:82,1,71.2500027179719,8|2,0:0|0:0,0:0:0:0:
483,26,121100,1,8,0:0:0:0:
417,80,121225,2,0,B|320:59,1,71.2500027179719,8|0,3:0|0:0,0:0:0:0:
260,157,121475,5,8,1:0:0:0:
246,213,121600,1,0,0:0:0:0:
315,172,121725,1,2,0:2:0:0:
301,227,121850,1,2,0:0:0:0:
246,213,121975,5,8,3:0:0:0:
322,313,122224,5,0,0:0:0:0:
424,197,122474,6,0,L|407:111,1,71.2500027179719,2|0,0:0|0:0,0:0:0:0:
305,49,122974,6,0,P|284:93|261:106,1,61.7499971733095,2|0,0:0|0:0,0:0:0:0:
319,86,123349,6,0,P|278:99|262:98,1,47.5,2|0,0:0|0:0,0:0:0:0:
274,99,123724,6,0,B|292:218|241:339|241:339|356:335|400:278|411:143|361:109|289:117,1,592.800014472657,2|0,0:0|0:0,0:0:0:0:
