osu file format v14

[General]
AudioFilename: audio.mp3
AudioLeadIn: 0
PreviewTime:99863
Countdown: 0
SampleSet: Soft
StackLeniency: 0.7
Mode: 0
LetterboxInBreaks: 0
WidescreenStoryboard: 1

[Editor]
Bookmarks: 8007,16004,24002,71993
DistanceSpacing: 1.2
BeatDivisor: 4
GridSize: 32
TimelineZoom: 2.099999

[Metadata]
Title:Doradura
TitleUnicode:Дорадура
Artist:dora
ArtistUnicode:дора
Creator:Shmiklak
Version:Collab Hard
Source:
Tags:marvollo m_a_r_v_o_l_l_o dura дура mental affection старшая сестра russian cute rock pop русский кьют рок поп testo imakuri fcl wajinshu marianna
BeatmapID:2397059
BeatmapSetID:1135418

[Difficulty]
HPDrainRate:5
CircleSize:4
OverallDifficulty:6
ApproachRate:8
SliderMultiplier:1.6
SliderTickRate:1

[Events]
//Background and Video events
0,0,"doradura.jpg",0,0
Video,0,"dora.avi"
//Break Periods
2,10206,11256
2,14205,15254
2,37947,39276
2,42203,43252
2,46201,47251
2,70193,71243
2,74192,75241
2,78191,79240
2,82189,83239
//Storyboard Layer 0 (Background)
//Storyboard Layer 1 (Fail)
//Storyboard Layer 2 (Pass)
//Storyboard Layer 3 (Foreground)
//Storyboard Layer 4 (Overlay)
//Storyboard Sound Samples

[TimingPoints]
10,499.833388870377,4,2,0,100,1,0
10,-100,4,2,0,100,0,0
8007,-125,4,2,1,70,0,0
8069,-125,4,2,1,40,0,0
8507,-125,4,2,1,70,0,0
8569,-125,4,2,1,40,0,0
9256,-125,4,2,1,70,0,0
9319,-125,4,2,1,40,0,0
10006,-125,4,2,1,70,0,0
10069,-125,4,2,1,40,0,0
12006,-125,4,2,1,60,0,0
12068,-125,4,2,1,40,0,0
12505,-125,4,2,1,70,0,0
12568,-125,4,2,1,40,0,0
13255,-125,4,2,1,70,0,0
13318,-125,4,2,1,40,0,0
14005,-125,4,2,1,70,0,0
14067,-125,4,2,1,40,0,0
16004,-100,4,2,1,50,0,0
16504,-100,4,2,1,70,0,0
16566,-100,4,2,1,50,0,0
18503,-100,4,2,1,70,0,0
18566,-100,4,2,1,50,0,0
18753,-100,4,2,1,70,0,0
18816,-100,4,2,1,45,0,0
19253,-100,4,2,1,70,0,0
19316,-100,4,2,1,50,0,0
20003,-100,4,2,1,70,0,0
20065,-100,4,2,1,50,0,0
20503,-100,4,2,1,70,0,0
20565,-100,4,2,1,50,0,0
21502,-100,4,2,1,70,0,0
21565,-100,4,2,1,50,0,0
22002,-100,4,2,1,70,0,0
22065,-100,4,2,1,50,0,0
24002,-76.9230769230769,4,2,1,66,0,1
30000,-76.9230769230769,4,2,1,66,0,0
31499,-76.9230769230769,4,2,2,40,0,0
31811,-76.9230769230769,4,2,2,45,0,0
31999,-76.9230769230769,4,2,1,66,0,1
37747,-133.333333333333,4,2,1,40,0,0
39496,529.614264277518,4,2,1,100,1,0
39496,-100,4,2,1,100,0,0
40026,462.249614791988,4,2,1,60,1,0
40026,-142.857142857143,4,2,1,60,0,0
40083,-142.857142857143,4,2,1,40,0,0
40488,499.833388870377,4,2,1,70,1,0
40488,-125,4,2,1,70,0,0
40550,-125,4,2,1,40,0,0
41237,-125,4,2,1,70,0,0
41300,-125,4,2,1,40,0,0
42003,499.833388870377,4,2,1,70,1,0
42003,-125,4,2,1,70,0,0
44002,-125,4,2,1,60,0,0
44064,-125,4,2,1,40,0,0
44502,-125,4,2,1,70,0,0
44564,-125,4,2,1,40,0,0
45251,-125,4,2,1,70,0,0
45314,-125,4,2,1,40,0,0
46001,-125,4,2,1,70,0,0
46064,-125,4,2,1,40,0,0
48001,-100,4,2,1,50,0,0
48500,-100,4,2,1,70,0,0
48563,-100,4,2,1,50,0,0
50500,-100,4,2,1,70,0,0
50562,-100,4,2,1,50,0,0
50750,-100,4,2,1,70,0,0
50812,-100,4,2,1,45,0,0
51249,-100,4,2,1,70,0,0
51312,-100,4,2,1,50,0,0
51999,-100,4,2,1,70,0,0
52062,-100,4,2,1,50,0,0
52499,-100,4,2,1,70,0,0
52561,-100,4,2,1,50,0,0
53499,-100,4,2,1,70,0,0
53561,-100,4,2,1,50,0,0
53999,-100,4,2,1,70,0,0
55998,-76.9230769230769,4,2,1,66,0,1
61996,-76.9230769230769,4,2,1,66,0,0
63495,-76.9230769230769,4,2,2,40,0,0
63808,-76.9230769230769,4,2,2,45,0,0
63995,-76.9230769230769,4,2,1,66,0,1
69993,-76.9230769230769,4,2,1,66,0,0
71993,-142.857142857143,4,2,1,60,0,0
72055,-142.857142857143,4,2,1,40,0,0
72492,-142.857142857143,4,2,1,70,0,0
72555,-142.857142857143,4,2,1,40,0,0
73242,-142.857142857143,4,2,1,70,0,0
73305,-142.857142857143,4,2,1,40,0,0
73992,-142.857142857143,4,2,1,70,0,0
74054,-142.857142857143,4,2,1,40,0,0
75991,-142.857142857143,4,2,1,60,0,0
76054,-142.857142857143,4,2,1,40,0,0
76491,-142.857142857143,4,2,1,70,0,0
76553,-142.857142857143,4,2,1,40,0,0
77241,-142.857142857143,4,2,1,70,0,0
77303,-142.857142857143,4,2,1,40,0,0
77991,-142.857142857143,4,2,1,70,0,0
78053,-142.857142857143,4,2,1,40,0,0
79990,-142.857142857143,4,2,1,60,0,0
80052,-142.857142857143,4,2,1,40,0,0
80490,-142.857142857143,4,2,1,70,0,0
80552,-142.857142857143,4,2,1,40,0,0
81239,-142.857142857143,4,2,1,70,0,0
81302,-142.857142857143,4,2,1,40,0,0
81989,-142.857142857143,4,2,1,70,0,0
82052,-142.857142857143,4,2,1,40,0,0
83989,508.474576271186,4,2,1,70,1,0
83989,-100,4,2,1,70,0,0
84052,-100,4,2,1,50,0,0
84497,-100,4,2,1,70,0,0
84561,-100,4,2,1,50,0,0
85220,535.714285714286,4,2,1,50,1,0
85220,-100,4,2,1,50,0,0
85487,-100,4,2,1,70,0,0
85554,-100,4,2,1,50,0,0
85755,467.836257309942,4,2,1,50,1,0
85755,-100,4,2,1,50,0,0
85988,512.820512820513,4,2,1,50,1,0
85988,-100,4,2,1,50,0,0
86500,-100,4,2,1,70,0,0
86564,-100,4,2,1,50,0,0
86757,-100,4,2,1,70,0,0
86821,-100,4,2,1,50,0,0
87270,498.338870431894,4,2,1,50,1,0
87270,-100,4,2,1,50,0,0
88017,498.338870431894,4,2,1,50,1,0
88017,-100,4,2,1,50,0,0
88515,-100,4,2,1,70,0,0
88577,-100,4,2,1,50,0,0
89636,-100,4,2,1,70,0,0
89698,-100,4,2,1,50,0,0
90010,-100,4,2,1,70,0,0
90072,-100,4,2,1,50,0,0
90986,499.833388870377,4,2,1,50,1,0
90986,-100,4,2,1,50,0,0
91985,499.833388870377,4,2,1,66,1,0
91985,-76.9230769230769,4,2,1,66,0,1
97983,-76.9230769230769,4,2,1,66,0,0
99482,-76.9230769230769,4,2,2,40,0,0
99794,-76.9230769230769,4,2,2,45,0,0
99982,-76.9230769230769,4,2,1,66,0,1
105980,-76.9230769230769,4,2,1,66,0,0
107979,-76.9230769230769,4,2,1,70,0,0
115477,-76.9230769230769,4,2,2,40,0,0
115789,-76.9230769230769,4,2,2,45,0,0
115977,-76.9230769230769,4,2,1,70,0,0
121975,-100,4,2,1,70,0,0
123474,-76.9230769230769,4,2,1,5,0,0
123724,-1000,4,2,1,35,0,0
126067,-1000,4,2,1,25,0,0
128066,-1000,4,2,1,15,0,0
130066,-1000,4,2,1,10,0,0
131065,-1000,4,2,1,5,0,0
132065,-1000,4,2,1,5,0,0

[Colours]
Combo1 : 129,224,112
Combo2 : 255,102,0
Combo3 : 255,94,255
Combo4 : 45,203,255
SliderTrackOverride : 255,120,120
SliderBorder : 255,255,255

[HitObjects]
380,75,8007,6,0,L|445:65,1,64,2|0,0:0|0:0,0:0:0:0:
490,141,8507,2,0,L|426:150,1,64,2|0,0:0|0:0,0:0:0:0:
348,195,9007,1,0,0:0:0:0:
400,267,9256,2,0,P|406:309|403:342,2,64,2|0|0,0:0|0:0|0:0,0:0:0:0:
348,195,10006,1,2,0:0:0:0:
348,195,12006,6,0,P|303:208|274:208,1,64,2|0,0:0|0:0,0:0:0:0:
202,177,12505,2,0,L|206:111,1,64,2|0,0:0|0:0,0:0:0:0:
136,55,13005,1,0,0:0:0:0:
102,137,13255,2,0,L|105:200,2,64,2|0|0,0:0|0:0|0:0,0:0:0:0:
37,74,14005,1,2,0:0:0:0:
21,299,16004,6,0,B|110:328|92:274|178:298,1,160,2|2,0:0|0:0,0:0:0:0:
282,337,16754,1,0,0:0:0:0:
282,337,16879,1,0,0:0:0:0:
282,337,17004,2,0,P|311:336|334:328,2,40,2|2|2,0:0|0:0|0:0,0:0:0:0:
177,297,17504,2,0,L|182:237,1,40,2|2,0:0|0:0,0:0:0:0:
233,204,17754,2,0,L|228:144,1,40,2|0,0:0|0:0,0:0:0:0:
176,79,18004,6,0,P|133:78|81:61,1,80,2|0,0:0|0:0,0:0:0:0:
16,145,18503,1,2,0:0:0:0:
102,224,18753,1,2,0:0:0:0:
102,224,18878,1,2,0:0:0:0:
102,224,19003,2,0,P|110:197|110:172,1,40,2|2,0:0|0:0,0:0:0:0:
178,142,19253,2,0,P|180:161|198:226,1,80,2|2,0:0|0:0,0:0:0:0:
251,272,19628,2,0,L|303:265,2,40,2|2|2,0:0|0:0|0:0,0:0:0:0:
160,330,20003,6,0,P|126:267|31:232,1,160,2|2,0:0|0:0,0:0:0:0:
13,124,20753,1,2,0:0:0:0:
13,124,20878,1,0,0:0:0:0:
13,124,21003,2,0,P|54:136|64:137,1,40,2|2,0:0|0:0,0:0:0:0:
121,106,21252,2,0,P|162:94|219:98,1,80,2|2,0:0|0:0,0:0:0:0:
271,147,21627,1,2,0:0:0:0:
271,147,21752,1,2,0:0:0:0:
271,147,21877,1,2,0:0:0:0:
271,147,22002,6,0,L|265:238,1,80,2|0,0:0|0:0,0:0:0:0:
288,329,22752,2,0,L|282:249,1,80
339,205,23127,2,0,L|388:213,6,40,0|0|0|0|0|0|0,3:0|3:0|3:0|3:0|3:0|3:0|3:0,0:0:0:0:
269,140,24002,6,0,P|203:123|124:62,1,155.999992858887,8|0,3:0|0:0,0:0:0:0:
82,19,24501,2,0,L|77:133,1,103.999995239258,8|2,1:0|0:0,0:0:0:0:
50,193,24876,1,8,1:0:0:0:
50,193,25001,2,0,L|-18:182,2,51.999997619629,0|8|8,0:0|1:0|3:0,0:0:0:0:
150,299,25501,2,0,P|178:260|233:247,1,103.999995239258,8|0,1:0|3:0,0:0:0:0:
294,291,25876,5,0,3:0:0:0:
294,291,26001,2,0,L|411:270,1,103.999995239258,8|0,3:0|3:0,0:0:0:0:
512,189,26501,2,0,L|395:168,1,103.999995239258,8|0,1:0|3:0,0:0:0:0:
369,109,26876,1,8,1:0:0:0:
421,58,27001,2,0,P|462:59|490:71,1,51.999997619629,0|8,0:0|1:0,0:0:0:0:
369,109,27250,2,0,P|343:114|317:113,1,51.999997619629,8|0,3:0|0:0,0:0:0:0:
247,91,27500,2,0,L|239:200,1,103.999995239258,8|0,1:0|3:0,0:0:0:0:
198,335,28000,6,0,P|169:268|107:215,1,155.999992858887,8|0,3:0|0:0,0:0:0:0:
43,178,28500,2,0,L|55:61,1,103.999995239258,8|0,1:0|0:0,0:0:0:0:
127,58,28875,1,8,1:0:0:0:
127,58,29000,2,0,P|144:83|172:95,2,51.999997619629,0|8|8,0:0|1:0|3:0,0:0:0:0:
266,14,29500,2,0,L|254:140,1,103.999995239258,8|0,1:0|3:0,0:0:0:0:
252,207,29875,5,0,3:0:0:0:
252,207,30000,1,8,3:0:0:0:
252,207,31374,1,0,0:0:0:0:
289,190,31499,1,8,0:0:0:0:
330,196,31624,1,8,0:0:0:0:
358,227,31749,2,0,P|362:250|364:278,1,51.999997619629,8|0,3:0|0:0,0:0:0:0:
262,340,31999,6,0,B|172:369|201:304|105:339,1,155.999992858887,8|0,3:0|0:0,0:0:0:0:
47,300,32499,2,0,L|38:182,1,103.999995239258,8|2,1:0|0:0,0:0:0:0:
73,131,32874,1,8,1:0:0:0:
135,168,32999,2,0,P|188:152|200:144,1,51.999997619629,0|8,0:0|1:0,0:0:0:0:
235,102,33248,2,0,P|288:118|300:126,1,51.999997619629,8|0,3:0|0:0,0:0:0:0:
335,169,33498,1,8,1:0:0:0:
477,121,33748,1,0,3:0:0:0:
477,121,33873,1,0,3:0:0:0:
477,121,33998,6,0,L|468:236,1,103.999995239258,8|0,3:0|3:0,0:0:0:0:
393,349,34498,2,0,L|384:245,1,103.999995239258,8|0,1:0|3:0,0:0:0:0:
326,200,34873,1,8,1:0:0:0:
326,200,34998,1,0,0:0:0:0:
326,200,35123,1,8,1:0:0:0:
261,234,35248,2,0,P|251:263|246:297,1,51.999997619629,8|0,3:0|0:0,0:0:0:0:
177,307,35498,2,0,P|171:281|128:199,1,103.999995239258,8|0,1:0|3:0,0:0:0:0:
37,105,35998,6,0,L|11:273,1,155.999992858887,8|0,3:0|0:0,0:0:0:0:
0,330,36497,2,0,P|54:299|111:298,1,103.999995239258,8|0,1:0|0:0,0:0:0:0:
164,319,36872,1,8,1:0:0:0:
227,283,36997,2,0,P|235:249|231:210,1,51.999997619629,0|8,0:0|1:0,0:0:0:0:
305,211,37247,2,0,P|306:236|312:261,1,51.999997619629,8|0,3:0|0:0,0:0:0:0:
359,318,37497,1,8,1:0:0:0:
394,146,37747,1,0,3:0:0:0:
394,146,40026,6,0,L|327:156,1,55.9999982910157,2|0,0:0|0:0,0:0:0:0:
271,202,40488,2,0,L|181:188,2,64,2|0|0,0:0|0:0|0:0,0:0:0:0:
322,275,41237,2,0,P|363:273|397:285,1,64,2|0,0:0|0:0,0:0:0:0:
218,361,42003,1,4,0:0:0:0:
224,349,44002,6,0,P|214:312|202:287,1,64,2|0,0:0|0:0,0:0:0:0:
145,219,44502,2,0,P|181:209|207:197,1,64,2|0,0:0|0:0,0:0:0:0:
238,114,45002,1,0,0:0:0:0:
149,99,45251,2,0,P|123:127|105:158,2,64,2|0|0,0:0|0:0|0:0,0:0:0:0:
225,51,46001,1,2,0:0:0:0:
225,51,48001,6,0,B|314:80|296:26|382:50,1,160,2|2,0:0|0:0,0:0:0:0:
458,145,48750,1,0,0:0:0:0:
458,145,48875,1,0,0:0:0:0:
458,145,49000,2,0,L|467:197,2,40,2|2|2,0:0|0:0|0:0,0:0:0:0:
377,223,49500,2,0,L|317:218,1,40,2|2,0:0|0:0,0:0:0:0:
284,273,49750,2,0,L|289:333,1,40,2|0,0:0|0:0,0:0:0:0:
212,354,50000,6,0,P|205:309|180:265,1,80,2|0,0:0|0:0,0:0:0:0:
94,220,50500,1,2,0:0:0:0:
192,170,50750,1,2,0:0:0:0:
192,170,50875,1,2,0:0:0:0:
192,170,51000,2,0,P|220:168|241:162,1,40,2|2,0:0|0:0,0:0:0:0:
289,121,51249,2,0,L|294:25,1,80,2|2,0:0|0:0,0:0:0:0:
367,23,51624,2,0,L|374:75,2,40,2|2|2,0:0|0:0|0:0,0:0:0:0:
451,14,51999,6,0,P|444:71|431:184,1,160,2|2,0:0|0:0,0:0:0:0:
442,282,52749,1,2,0:0:0:0:
442,282,52874,1,0,0:0:0:0:
442,282,52999,2,0,P|401:270|391:269,1,40,2|2,0:0|0:0,0:0:0:0:
329,270,53249,2,0,P|288:282|231:278,1,80,2|2,0:0|0:0,0:0:0:0:
182,259,53624,1,2,0:0:0:0:
182,259,53749,1,2,0:0:0:0:
182,259,53874,1,2,0:0:0:0:
182,259,53999,1,2,0:0:0:0:
182,259,55123,6,0,L|133:251,6,40,0|0|0|0|0|0|0,3:0|3:0|3:0|3:0|3:0|3:0|3:0,0:0:0:0:
262,193,55998,6,0,B|236:120|236:120|252:32,1,155.999992858887,8|0,3:0|0:0,0:0:0:0:
318,17,56498,2,0,L|432:22,1,103.999995239258,8|2,1:0|0:0,0:0:0:0:
477,81,56873,1,8,1:0:0:0:
477,81,56998,2,0,P|474:117|466:149,2,51.999997619629,0|8|8,0:0|1:0|3:0,0:0:0:0:
370,181,57497,2,0,L|381:300,1,103.999995239258,8|0,1:0|3:0,0:0:0:0:
307,315,57872,5,0,3:0:0:0:
307,315,57997,2,0,L|297:211,1,103.999995239258,8|0,3:0|3:0,0:0:0:0:
182,119,58497,2,0,P|127:138|65:140,1,103.999995239258,8|0,1:0|3:0,0:0:0:0:
27,91,58872,1,8,1:0:0:0:
77,38,58997,2,0,P|118:39|146:51,1,51.999997619629,0|8,0:0|1:0,0:0:0:0:
200,34,59247,2,0,P|225:32|251:28,1,51.999997619629,8|0,3:0|0:0,0:0:0:0:
323,11,59497,2,0,L|331:120,1,103.999995239258,8|0,1:0|3:0,0:0:0:0:
216,205,59997,6,0,P|132:190|45:215,1,155.999992858887,8|0,3:0|0:0,0:0:0:0:
19,264,60496,2,0,P|32:314|83:343,1,103.999995239258,8|0,1:0|0:0,0:0:0:0:
149,333,60871,1,8,1:0:0:0:
149,333,60996,2,0,P|174:316|186:288,2,51.999997619629,0|8|8,0:0|1:0|3:0,0:0:0:0:
137,187,61496,2,0,L|263:199,1,103.999995239258,8|0,1:0|3:0,0:0:0:0:
317,204,61871,5,0,3:0:0:0:
317,204,61996,1,8,3:0:0:0:
317,204,63370,1,0,0:0:0:0:
300,167,63495,1,8,0:0:0:0:
306,126,63620,1,8,0:0:0:0:
337,98,63745,2,0,P|361:93|388:92,1,51.999997619629,8|0,3:0|0:0,0:0:0:0:
480,158,63995,6,0,P|494:233|394:275,1,155.999992858887,8|0,3:0|0:0,0:0:0:0:
366,296,64495,2,0,L|248:287,1,103.999995239258,8|2,1:0|0:0,0:0:0:0:
205,241,64870,1,8,1:0:0:0:
256,189,64995,2,0,P|265:164|270:139,1,51.999997619629,0|8,0:0|1:0,0:0:0:0:
245,70,65245,2,0,P|220:60|195:55,1,51.999997619629,8|0,3:0|0:0,0:0:0:0:
122,60,65495,1,8,1:0:0:0:
37,180,65745,1,0,3:0:0:0:
37,180,65870,1,0,3:0:0:0:
37,180,65995,6,0,P|39:223|28:295,1,103.999995239258,8|0,3:0|3:0,0:0:0:0:
152,364,66494,2,0,P|144:312|146:260,1,103.999995239258,8|0,1:0|3:0,0:0:0:0:
211,222,66869,1,8,1:0:0:0:
211,222,66994,1,0,0:0:0:0:
211,222,67119,1,8,1:0:0:0:
278,195,67244,2,0,P|288:166|293:132,1,51.999997619629,8|0,3:0|0:0,0:0:0:0:
361,122,67494,2,0,P|366:147|410:230,1,103.999995239258,8|0,1:0|3:0,0:0:0:0:
462,349,67994,6,0,L|299:331,1,155.999992858887,8|0,3:0|0:0,0:0:0:0:
237,353,68494,2,0,P|183:322|126:321,1,103.999995239258,8|0,1:0|0:0,0:0:0:0:
74,345,68869,1,8,1:0:0:0:
38,281,68994,2,0,P|36:255|30:230,1,51.999997619629,0|8,0:0|1:0,0:0:0:0:
60,163,69243,2,0,P|61:137|68:111,1,51.999997619629,8|0,3:0|0:0,0:0:0:0:
115,56,69493,1,8,1:0:0:0:
174,188,69743,1,0,3:0:0:0:
235,55,69993,1,8,3:0:0:0:
343,305,71993,6,0,L|425:307,1,55.9999982910157,2|0,0:0|0:0,0:0:0:0:
463,261,72492,2,0,P|467:225|458:185,1,55.9999982910157,2|0,0:0|0:0,0:0:0:0:
411,148,72992,1,0,0:0:0:0:
357,90,73242,2,0,P|353:54|359:17,2,55.9999982910157,2|0|0,0:0|0:0|0:0,0:0:0:0:
411,148,73992,1,2,0:0:0:0:
340,302,75991,6,0,L|276:309,1,55.9999982910157,2|0,0:0|0:0,0:0:0:0:
216,347,76491,2,0,L|141:342,1,55.9999982910157,2|0,0:0|0:0,0:0:0:0:
99,294,76991,1,0,0:0:0:0:
40,242,77241,2,0,B|35:208|35:208|41:177,2,55.9999982910157,2|0|0,0:0|0:0|0:0,0:0:0:0:
99,294,77991,1,2,0:0:0:0:
178,165,79990,6,0,L|171:99,1,55.9999982910157,2|0,0:0|0:0,0:0:0:0:
248,88,80490,2,0,L|256:157,1,55.9999982910157,2|0,0:0|0:0,0:0:0:0:
307,202,80990,1,0,0:0:0:0:
364,256,81239,2,0,P|407:260|429:255,2,55.9999982910157,2|0|0,0:0|0:0|0:0,0:0:0:0:
307,202,81989,1,2,0:0:0:0:
178,327,83989,6,0,P|125:329|52:247,1,160,2|2,0:0|0:0,0:0:0:0:
103,170,84751,1,0,0:0:0:0:
106,145,84878,1,0,0:0:0:0:
108,119,85005,2,0,L|100:64,1,40,2|2,0:0|0:0,0:0:0:0:
97,57,85220,1,2,0:0:0:0:
201,189,85487,2,0,P|249:185|267:180,1,40,2|2,0:0|0:0,0:0:0:0:
311,145,85755,2,0,P|338:117|343:108,1,40,2|2,0:0|0:0,0:0:0:0:
352,9,85988,6,0,P|378:57|423:80,1,80,2|0,0:0|0:0,0:0:0:0:
498,124,86500,1,2,0:0:0:0:
404,208,86757,1,2,0:0:0:0:
400,233,86885,1,0,0:0:0:0:
395,257,87013,2,0,P|395:282|400:309,1,40,2|2,0:0|0:0,0:0:0:0:
450,368,87270,2,0,L|348:374,1,80,2|2,0:0|0:0,0:0:0:0:
299,333,87643,2,0,P|256:321|233:320,2,40,2|2|2,0:0|0:0|0:0,0:0:0:0:
196,384,88017,6,0,B|181:342|181:342|199:215,1,160,2|2,0:0|0:0,0:0:0:0:
211,113,88764,1,2,0:0:0:0:
207,85,88889,1,0,0:0:0:0:
201,53,89013,2,0,L|192:11,2,40,2|2|2,0:0|0:0|0:0,0:0:0:0:
292,141,89512,2,0,P|340:146|364:144,1,40,0|2,0:0|0:0,0:0:0:0:
395,212,89761,2,0,P|441:199|454:191,1,40,2|2,0:0|0:0,0:0:0:0:
470,127,90010,5,2,0:0:0:0:
470,127,91235,5,0,3:0:0:0:
459,98,91360,1,0,3:0:0:0:
448,67,91485,2,0,L|387:67,1,40,0|0,3:0|3:0,0:0:0:0:
330,141,91735,2,0,L|390:142,1,40,0|0,3:0|3:0,0:0:0:0:
266,73,91985,6,0,P|233:125|138:161,1,155.999992858887,8|0,3:0|0:0,0:0:0:0:
92,115,92484,2,0,L|100:226,1,103.999995239258,8|2,1:0|0:0,0:0:0:0:
76,298,92859,1,8,1:0:0:0:
76,298,92984,2,0,P|21:316|11:316,2,51.999997619629,0|8|8,0:0|1:0|3:0,0:0:0:0:
187,196,93484,2,0,P|247:208|284:257,1,103.999995239258,8|0,1:0|3:0,0:0:0:0:
291,311,93859,1,0,3:0:0:0:
291,311,93984,6,0,L|396:293,1,103.999995239258,8|0,3:0|3:0,0:0:0:0:
469,191,94484,2,0,P|477:134|459:77,1,103.999995239258,8|0,1:0|3:0,0:0:0:0:
401,54,94859,1,8,1:0:0:0:
401,54,94984,2,0,P|345:68|320:67,1,51.999997619629,0|8,0:0|1:0,0:0:0:0:
277,50,95233,2,0,P|234:44|207:45,1,51.999997619629,8|0,3:0|0:0,0:0:0:0:
171,93,95483,2,0,L|187:202,1,103.999995239258,8|0,1:0|3:0,0:0:0:0:
294,328,95983,6,0,P|311:276|433:233,1,155.999992858887,8|0,3:0|0:0,0:0:0:0:
448,287,96483,2,0,L|432:164,1,103.999995239258,8|0,1:0|0:0,0:0:0:0:
448,109,96858,1,8,1:0:0:0:
448,109,96983,2,0,P|453:64|450:32,2,51.999997619629,0|8|8,0:0|1:0|3:0,0:0:0:0:
349,157,97483,2,0,P|288:165|245:136,1,103.999995239258,8|0,1:0|3:0,0:0:0:0:
309,88,97983,5,8,3:0:0:0:
165,54,99357,1,0,0:0:0:0:
128,59,99482,1,8,0:0:0:0:
95,62,99607,1,8,0:0:0:0:
61,65,99732,2,0,L|-5:68,1,51.999997619629,8|0,3:0|0:0,0:0:0:0:
66,149,99982,6,0,L|230:134,1,155.999992858887,8|0,3:0|0:0,0:0:0:0:
268,79,100482,2,0,L|255:198,1,103.999995239258,8|2,1:0|0:0,0:0:0:0:
281,255,100857,1,8,1:0:0:0:
341,295,100982,2,0,P|401:302|416:300,2,51.999997619629,0|8|8,0:0|1:0|3:0,0:0:0:0:
158,221,101481,2,0,P|90:224|41:259,1,103.999995239258,8|0,1:0|3:0,0:0:0:0:
18,301,101856,1,0,3:0:0:0:
36,371,101981,6,0,L|160:357,1,103.999995239258,8|0,3:0|3:0,0:0:0:0:
264,370,102481,2,0,L|389:375,1,103.999995239258,8|0,1:0|3:0,0:0:0:0:
431,337,102856,1,8,1:0:0:0:
397,272,102981,2,0,P|389:221|392:198,1,51.999997619629,0|8,0:0|1:0,0:0:0:0:
452,184,103231,2,0,P|456:148|452:125,1,51.999997619629,8|0,3:0|0:0,0:0:0:0:
412,71,103481,2,0,P|356:99|305:69,1,103.999995239258,8|0,1:0|3:0,0:0:0:0:
207,32,103981,6,0,B|225:77|225:77|184:193,1,155.999992858887,8|0,3:0|0:0,0:0:0:0:
124,213,104480,2,0,P|184:199|241:228,1,103.999995239258,8|0,1:0|0:0,0:0:0:0:
281,256,104855,1,8,1:0:0:0:
338,301,104980,2,0,P|401:299|421:292,2,51.999997619629,0|8|8,0:0|1:0|3:0,0:0:0:0:
223,351,105480,2,0,P|163:339|99:349,1,103.999995239258,8|0,1:0|3:0,0:0:0:0:
1,382,105980,1,8,3:0:0:0:
75,192,107979,6,0,L|231:186,1,155.999992858887,8|0,3:0|0:0,0:0:0:0:
305,204,108479,2,0,L|315:100,1,103.999995239258,8|2,1:0|0:0,0:0:0:0:
322,26,108854,1,8,0:0:0:0:
322,26,108979,2,0,P|264:25|244:33,2,51.999997619629,2|8|8,0:0|0:0|3:0,0:0:0:0:
421,103,109479,2,0,L|411:218,1,103.999995239258,8|2,1:0|0:0,0:0:0:0:
359,255,109854,1,2,0:0:0:0:
359,255,109979,6,0,P|417:243|474:276,1,103.999995239258,8|2,3:0|0:2,0:0:0:0:
373,353,110478,2,0,P|322:373|271:362,1,103.999995239258,8|2,1:0|0:0,0:0:0:0:
213,318,110853,1,2,0:0:0:0:
213,318,110978,2,0,P|229:289|234:261,1,51.999997619629,2|0,0:0|1:0,0:0:0:0:
221,188,111228,2,0,P|213:162|193:129,1,51.999997619629,8|0,3:0|0:0,0:0:0:0:
142,94,111478,2,0,P|198:113|256:89,1,103.999995239258,8|2,1:0|3:2,0:0:0:0:
111,8,111978,6,0,B|142:95|142:95|108:167,1,155.999992858887,8|0,3:0|0:0,0:0:0:0:
73,213,112478,2,0,P|65:261|79:317,1,103.999995239258,8|2,1:0|0:0,0:0:0:0:
141,356,112853,1,8,0:0:0:0:
141,356,112978,2,0,L|210:348,2,51.999997619629,2|8|8,0:0|0:0|3:0,0:0:0:0:
209,251,113477,2,0,P|263:231|317:253,1,103.999995239258,8|2,1:0|0:2,0:0:0:0:
261,311,113977,5,8,3:0:0:0:
428,272,115352,1,0,0:0:0:0:
432,240,115477,1,8,0:0:0:0:
434,208,115602,1,8,0:0:0:0:
438,176,115727,2,0,L|443:120,1,51.999997619629,8|0,3:0|0:0,0:0:0:0:
413,56,115977,6,0,B|373:90|336:83|336:83|309:60|309:60|267:55,1,155.999992858887,8|0,3:0|0:0,0:0:0:0:
224,112,116476,2,0,B|182:113|160:126|160:126|125:108,1,103.999995239258,8|2,1:0|0:0,0:0:0:0:
62,72,116851,1,8,0:0:0:0:
62,72,116976,2,0,P|56:18|56:8,2,51.999997619629,2|8|8,0:0|0:0|3:0,0:0:0:0:
110,188,117476,2,0,B|121:240|121:240|95:304,1,103.999995239258,8|2,1:0|0:0,0:0:0:0:
54,341,117851,1,2,0:0:0:0:
54,341,117976,6,0,P|93:317|166:339,1,103.999995239258,8|2,3:0|0:2,0:0:0:0:
271,298,118476,2,0,P|316:320|381:309,1,103.999995239258,8|2,1:0|0:0,0:0:0:0:
428,273,118851,1,2,0:0:0:0:
428,273,118976,2,0,L|424:215,1,51.999997619629,2|0,0:0|1:0,0:0:0:0:
477,167,119225,2,0,L|472:110,1,51.999997619629,8|0,3:0|0:0,0:0:0:0:
420,64,119475,2,0,L|301:68,1,103.999995239258,8|2,1:0|3:2,0:0:0:0:
208,132,119975,6,0,P|192:207|261:195,1,155.999992858887,8|0,3:0|0:0,0:0:0:0:
311,167,120475,2,0,P|360:154|416:176,1,103.999995239258,8|2,1:0|0:0,0:0:0:0:
452,230,120850,1,8,0:0:0:0:
452,230,120975,2,0,P|497:278|514:287,2,51.999997619629,2|8|8,0:0|0:0|3:0,0:0:0:0:
503,115,121475,2,0,P|523:61|497:6,1,103.999995239258,8|2,1:0|0:2,0:0:0:0:
444,59,121850,1,2,0:0:0:0:
448,63,121975,5,8,3:0:0:0:
364,16,122224,1,2,0:0:0:0:
283,68,122474,1,2,0:0:0:0:
199,20,122724,1,2,0:0:0:0:
123,79,122974,2,0,P|71:77|3:85,2,120,2|2|2,0:0|0:0|0:0,0:0:0:0:
256,192,123849,12,0,132346,0:0:0:0:
