osu file format v14

[General]
AudioFilename: audio.mp3
AudioLeadIn: 0
PreviewTime:99863
Countdown: 0
SampleSet: Soft
StackLeniency: 0.7
Mode: 0
LetterboxInBreaks: 0
WidescreenStoryboard: 1

[Editor]
Bookmarks: 8007,16004,24002,71993
DistanceSpacing: 2.3
BeatDivisor: 8
GridSize: 32
TimelineZoom: 2.699999

[Metadata]
Title:Doradura
TitleUnicode:Дорадура
Artist:dora
ArtistUnicode:дора
Creator:Shmiklak
Version:Collab Expert
Source:
Tags:marvollo m_a_r_v_o_l_l_o dura дура mental affection старшая сестра russian cute rock pop русский кьют рок поп testo imakuri fcl wajinshu marianna
BeatmapID:2371355
BeatmapSetID:1135418

[Difficulty]
HPDrainRate:5.5
CircleSize:4
OverallDifficulty:7.5
ApproachRate:9.3
SliderMultiplier:1.9
SliderTickRate:1

[Events]
//Background and Video events
0,0,"doradura.jpg",0,0
Video,0,"dora.avi"
//Break Periods
2,10206,11452
2,14205,15450
2,37946,39472
2,42203,43448
2,46201,47447
2,70193,71439
2,74192,75437
2,78690,79436
2,82688,83435
//Storyboard Layer 0 (Background)
//Storyboard Layer 1 (Fail)
//Storyboard Layer 2 (Pass)
//Storyboard Layer 3 (Foreground)
//Storyboard Layer 4 (Overlay)
//Storyboard Sound Samples

[TimingPoints]
10,499.833388870377,4,2,0,100,1,0
10,-100,4,2,0,100,0,0
8007,-142.857142857143,4,2,1,70,0,0
8069,-142.857142857143,4,2,1,40,0,0
8507,-142.857142857143,4,2,1,70,0,0
8569,-142.857142857143,4,2,1,40,0,0
9256,-142.857142857143,4,2,1,70,0,0
9319,-142.857142857143,4,2,1,40,0,0
10006,-142.857142857143,4,2,1,70,0,0
10069,-142.857142857143,4,2,1,40,0,0
12006,-142.857142857143,4,2,1,60,0,0
12068,-142.857142857143,4,2,1,40,0,0
12505,-142.857142857143,4,2,1,70,0,0
12568,-142.857142857143,4,2,1,40,0,0
13255,-142.857142857143,4,2,1,70,0,0
13318,-142.857142857143,4,2,1,40,0,0
14005,-142.857142857143,4,2,1,70,0,0
14067,-142.857142857143,4,2,1,40,0,0
16004,-100,4,2,1,50,0,0
16504,-100,4,2,1,70,0,0
16566,-100,4,2,1,50,0,0
18503,-100,4,2,1,70,0,0
18566,-100,4,2,1,50,0,0
18753,-100,4,2,1,70,0,0
18816,-100,4,2,1,45,0,0
19253,-100,4,2,1,70,0,0
19316,-100,4,2,1,50,0,0
20003,-100,4,2,1,70,0,0
20065,-100,4,2,1,50,0,0
20503,-100,4,2,1,70,0,0
20565,-100,4,2,1,50,0,0
21502,-100,4,2,1,70,0,0
21565,-100,4,2,1,50,0,0
22002,-100,4,2,1,70,0,0
22065,-100,4,2,1,50,0,0
24002,-66.6666666666667,4,2,1,66,0,1
30000,-66.6666666666667,4,2,1,66,0,0
31499,-66.6666666666667,4,2,2,40,0,0
31811,-66.6666666666667,4,2,2,45,0,0
31999,-66.6666666666667,4,2,1,66,0,1
37747,-133.333333333333,4,2,1,40,0,0
39496,529.614264277518,4,2,1,40,1,0
39496,-100,4,2,0,100,0,0
40026,462.249614791988,4,2,1,60,1,0
40026,-142.857142857143,4,2,1,60,0,0
40083,-142.857142857143,4,2,1,40,0,0
40488,499.833388870377,4,2,1,70,1,0
40488,-142.857142857143,4,2,1,70,0,0
40550,-142.857142857143,4,2,1,40,0,0
41237,-142.857142857143,4,2,1,70,0,0
41300,-142.857142857143,4,2,1,40,0,0
42003,499.833388870377,4,2,1,40,1,0
42003,-142.857142857143,4,2,1,70,0,0
44002,-142.857142857143,4,2,1,60,0,0
44064,-142.857142857143,4,2,1,40,0,0
44502,-142.857142857143,4,2,1,70,0,0
44564,-142.857142857143,4,2,1,40,0,0
45251,-142.857142857143,4,2,1,70,0,0
45314,-142.857142857143,4,2,1,40,0,0
46001,-142.857142857143,4,2,1,70,0,0
46064,-142.857142857143,4,2,1,40,0,0
48001,-100,4,2,1,50,0,0
48500,-100,4,2,1,70,0,0
48563,-100,4,2,1,50,0,0
50500,-100,4,2,1,70,0,0
50562,-100,4,2,1,50,0,0
50750,-100,4,2,1,70,0,0
50812,-100,4,2,1,45,0,0
51249,-100,4,2,1,70,0,0
51312,-100,4,2,1,50,0,0
51999,-100,4,2,1,70,0,0
52062,-100,4,2,1,50,0,0
52499,-100,4,2,1,70,0,0
52561,-100,4,2,1,50,0,0
53499,-100,4,2,1,70,0,0
53561,-100,4,2,1,50,0,0
53999,-100,4,2,1,70,0,0
55998,-66.6666666666667,4,2,1,66,0,1
61996,-66.6666666666667,4,2,1,66,0,0
63495,-66.6666666666667,4,2,2,40,0,0
63808,-66.6666666666667,4,2,2,45,0,0
63995,-66.6666666666667,4,2,1,66,0,1
69993,-66.6666666666667,4,2,1,66,0,0
71993,-142.857142857143,4,2,1,60,0,0
72055,-142.857142857143,4,2,1,40,0,0
72492,-142.857142857143,4,2,1,70,0,0
72555,-142.857142857143,4,2,1,40,0,0
73242,-142.857142857143,4,2,1,70,0,0
73305,-142.857142857143,4,2,1,40,0,0
73992,-142.857142857143,4,2,1,70,0,0
74054,-142.857142857143,4,2,1,40,0,0
75991,-142.857142857143,4,2,1,60,0,0
76054,-142.857142857143,4,2,1,40,0,0
76491,-142.857142857143,4,2,1,70,0,0
76553,-142.857142857143,4,2,1,40,0,0
77241,-142.857142857143,4,2,1,70,0,0
77303,-142.857142857143,4,2,1,40,0,0
77991,-142.857142857143,4,2,1,70,0,0
78053,-142.857142857143,4,2,1,40,0,0
79990,-142.857142857143,4,2,1,60,0,0
80052,-142.857142857143,4,2,1,40,0,0
80490,-142.857142857143,4,2,1,70,0,0
80552,-142.857142857143,4,2,1,40,0,0
81239,-142.857142857143,4,2,1,70,0,0
81302,-142.857142857143,4,2,1,40,0,0
81989,-142.857142857143,4,2,1,70,0,0
82052,-142.857142857143,4,2,1,40,0,0
83989,508.474576271186,4,2,1,40,1,0
83989,-100,4,2,1,70,0,0
84052,-100,4,2,1,50,0,0
84497,-100,4,2,1,70,0,0
84561,-100,4,2,1,50,0,0
85220,535.714285714286,4,2,1,50,1,0
85220,-100,4,2,1,50,0,0
85487,-100,4,2,1,70,0,0
85554,-100,4,2,1,50,0,0
85755,467.836257309942,4,2,1,50,1,0
85755,-100,4,2,1,50,0,0
85988,512.820512820513,4,2,1,50,1,0
85988,-100,4,2,1,50,0,0
86500,-100,4,2,1,70,0,0
86564,-100,4,2,1,50,0,0
86757,-100,4,2,1,70,0,0
86821,-100,4,2,1,50,0,0
87270,498.338870431894,4,2,1,50,1,0
87270,-100,4,2,1,50,0,0
88017,498.338870431894,4,2,1,50,1,0
88017,-100,4,2,1,50,0,0
88515,-100,4,2,1,70,0,0
88577,-100,4,2,1,50,0,0
89636,-100,4,2,1,70,0,0
89698,-100,4,2,1,50,0,0
90010,-100,4,2,1,70,0,0
90072,-100,4,2,1,50,0,0
90986,499.833388870377,4,2,1,50,1,0
90986,-100,4,2,1,50,0,0
91985,499.833388870377,4,2,1,50,1,0
91985,-66.6666666666667,4,2,1,66,0,1
97983,-66.6666666666667,4,2,1,66,0,0
99482,-66.6666666666667,4,2,2,40,0,0
99794,-66.6666666666667,4,2,2,45,0,0
99982,-66.6666666666667,4,2,1,66,0,1
105980,-66.6666666666667,4,2,1,66,0,0
107979,-66.6666666666667,4,2,1,70,0,0
115477,-66.6666666666667,4,2,2,40,0,0
115789,-66.6666666666667,4,2,2,45,0,0
115977,-66.6666666666667,4,2,1,70,0,0
123474,-66.6666666666667,4,2,1,5,0,0
123724,-1000,4,2,1,35,0,0
126067,-1000,4,2,1,25,0,0
128066,-1000,4,2,1,15,0,0
130066,-1000,4,2,1,10,0,0
131065,-1000,4,2,1,5,0,0
132065,-1000,4,2,1,5,0,0

[Colours]
Combo1 : 129,224,112
Combo2 : 255,102,0
Combo3 : 255,94,255
Combo4 : 45,203,255
SliderTrackOverride : 255,120,120
SliderBorder : 255,255,255

[HitObjects]
441,122,8007,6,0,P|373:132|316:168,1,132.999995941162,2|2,0:0|0:0,0:0:0:0:
244,275,8757,1,0,0:0:0:0:
160,148,9007,1,0,0:0:0:0:
381,238,9256,1,2,0:0:0:0:
388,218,9506,1,0,0:0:0:0:
388,218,10006,1,2,0:0:0:0:
192,184,12006,6,0,B|212:120|212:120|184:48,1,132.999995941162,2|2,0:0|0:0,0:0:0:0:
107,132,12755,1,0,0:0:0:0:
192,184,13005,1,0,0:0:0:0:
81,300,13255,1,2,0:0:0:0:
66,277,13505,1,0,0:0:0:0:
66,277,14005,1,2,0:0:0:0:
128,61,16004,6,0,P|276:71|288:72,1,142.5,2|0,0:0|0:0,0:0:0:0:
154,209,16504,2,0,P|138:163|131:149,1,47.5,2|0,0:0|0:0,0:0:0:0:
267,253,16754,2,0,P|255:310|247:365,1,95,0|2,0:0|0:0,0:0:0:0:
399,242,17129,1,2,0:0:0:0:
381,226,17254,2,0,P|376:194|375:160,1,47.5,2|0,0:0|0:0,0:0:0:0:
200,90,17504,1,2,0:0:0:0:
245,179,17629,1,2,0:0:0:0:
305,86,17754,2,0,P|311:48|312:22,1,47.5,2|0,0:0|0:0,0:0:0:0:
104,12,18004,6,0,P|109:61|117:106,1,95,2|0,0:0|0:0,0:0:0:0:
247,265,18503,2,0,P|255:218|260:170,1,95,2|2,0:0|0:0,0:0:0:0:
146,282,18878,1,2,0:0:0:0:
276,366,19003,2,0,P|306:375|370:353,1,95,2|2,0:0|0:0,0:0:0:0:
459,253,19378,1,0,0:0:0:0:
434,229,19503,2,0,P|413:240|390:246,1,47.5,2|2,0:0|0:0,0:0:0:0:
293,132,19753,2,0,P|315:138|336:149,1,47.5,2|2,0:0|0:0,0:0:0:0:
219,238,20003,6,0,B|143:258|159:214|79:234,1,142.5,2|0,0:0|0:0,0:0:0:0:
175,375,20503,2,0,P|183:346|191:331,1,47.5,2|0,0:0|0:0,0:0:0:0:
313,254,20753,2,0,L|318:369,1,95,2|2,0:0|0:0,0:0:0:0:
419,241,21127,1,2,0:0:0:0:
398,219,21252,2,0,P|393:188|394:167,1,47.5,2|0,0:0|0:0,0:0:0:0:
303,91,21502,1,2,0:0:0:0:
259,175,21627,1,2,0:0:0:0:
167,199,21752,2,0,P|139:191|115:171,1,47.5,2|2,0:0|0:0,0:0:0:0:
264,332,22002,5,2,0:0:0:0:
272,152,23127,5,0,3:0:0:0:
272,152,23189,1,0,3:0:0:0:
272,152,23252,1,0,3:0:0:0:
292,284,23377,1,0,3:0:0:0:
348,152,23502,1,0,3:0:0:0:
360,320,23627,1,0,3:0:0:0:
424,148,23752,1,0,3:0:0:0:
432,348,23877,1,0,3:0:0:0:
500,140,24002,6,0,P|508:108|504:64,1,71.2500027179719,8|0,3:0|0:0,0:0:0:0:
320,4,24251,2,0,P|317:39|325:73,1,71.2500027179719
229,243,24501,2,0,P|89:220|79:218,1,142.500005435944,8|2,1:0|0:0,0:0:0:0:
304,303,24876,1,8,1:0:0:0:
276,155,25001,1,0,0:0:0:0:
297,313,25126,1,8,1:0:0:0:
280,144,25251,2,0,P|356:159|364:160,1,71.2500027179719,8|0,3:0|0:0,0:0:0:0:
193,304,25501,2,0,B|113:324|130:278|46:299,1,142.500005435944,8|0,1:0|3:0,0:0:0:0:
407,73,26001,6,0,P|442:115|445:149,1,71.2500027179719,8|0,3:0|0:0,0:0:0:0:
266,211,26251,2,0,P|270:156|292:130,1,71.2500027179719,0|0,3:0|0:0,0:0:0:0:
453,320,26501,2,0,P|299:309|289:308,1,142.500005435944,8|0,1:0|3:0,0:0:0:0:
119,303,26876,1,8,1:0:0:0:
4,289,27001,1,0,0:0:0:0:
159,199,27125,1,8,1:0:0:0:
103,308,27250,2,0,P|91:341|88:377,1,71.2500027179719,8|0,3:0|0:0,0:0:0:0:
286,294,27500,2,0,P|259:140|258:130,1,142.500005435944,8|0,1:0|3:0,0:0:0:0:
512,356,28000,6,0,P|476:352|436:324,1,71.2500027179719,8|0,3:0|0:0,0:0:0:0:
315,294,28250,2,0,P|279:298|239:326,1,71.2500027179719,0|0,3:0|0:0,0:0:0:0:
368,205,28500,2,0,P|353:338|352:353,1,142.500005435944,8|0,1:0|0:0,0:0:0:0:
302,144,28875,1,8,1:0:0:0:
416,95,29000,1,0,0:0:0:0:
255,51,29125,1,8,1:0:0:0:
433,110,29250,2,0,P|495:98|512:96,1,71.2500027179719,8|0,3:0|0:0,0:0:0:0:
275,166,29500,2,0,B|198:150|198:150|125:170,1,142.500005435944,8|0,1:0|3:0,0:0:0:0:
291,358,30000,5,8,3:0:0:0:
281,339,31374,2,0,P|321:344|364:351,1,71.2500027179719,0|8,0:0|0:0,0:0:0:0:
445,260,31624,1,8,0:0:0:0:
362,210,31749,2,0,P|349:179|348:137,1,71.2500027179719,8|0,3:0|0:0,0:0:0:0:
162,39,31999,6,0,P|100:42|86:43,1,71.2500027179719,8|0,3:0|0:0,0:0:0:0:
246,115,32249,2,0,P|307:118|322:119,1,71.2500027179719
153,282,32499,2,0,P|146:140|145:126,1,142.500005435944,8|2,1:0|0:0,0:0:0:0:
78,344,32874,1,8,1:0:0:0:
230,304,32999,1,0,0:0:0:0:
69,349,33123,1,8,1:0:0:0:
237,300,33248,2,0,P|275:304|318:309,1,71.2500027179719,8|0,3:0|0:0,0:0:0:0:
137,160,33498,2,0,B|67:178|67:178|-14:143,1,142.500005435944,8|0,1:0|3:0,0:0:0:0:
227,37,33998,6,0,P|262:37|297:31,1,71.2500027179719,8|0,3:0|0:0,0:0:0:0:
490,104,34248,2,0,P|454:98|419:98,1,71.2500027179719,0|0,3:0|0:0,0:0:0:0:
304,260,34498,2,0,P|299:196|292:96,1,142.500005435944,8|0,1:0|3:0,0:0:0:0:
121,34,34873,1,8,1:0:0:0:
132,197,34998,2,0,P|124:241|112:272,1,71.2500027179719,0|8,0:0|1:0,0:0:0:0:
252,357,35248,2,0,P|285:344|320:340,1,71.2500027179719,8|0,3:0|0:0,0:0:0:0:
512,218,35498,2,0,B|432:238|449:192|365:213,1,142.500005435944,8|0,1:0|3:0,0:0:0:0:
91,337,35998,6,0,P|47:339|12:323,1,71.2500027179719,8|0,3:0|0:0,0:0:0:0:
18,164,36247,2,0,P|51:153|86:156,1,71.2500027179719,0|0,3:0|0:0,0:0:0:0:
238,301,36497,2,0,P|309:317|391:282,1,142.500005435944,8|0,1:0|0:0,0:0:0:0:
432,149,36872,1,8,1:0:0:0:
295,178,36997,1,0,0:0:0:0:
446,147,37122,1,8,1:0:0:0:
290,94,37247,2,0,L|213:74,1,71.2500027179719,8|0,3:0|0:0,0:0:0:0:
46,189,37497,2,0,B|110:166|110:166|188:182,1,142.500005435944,8|0,1:0|3:0,0:0:0:0:
156,116,40026,5,2,0:0:0:0:
156,116,40488,2,0,P|216:132|284:112,1,132.999995941162,2|0,0:0|0:0,0:0:0:0:
396,32,41237,1,2,0:0:0:0:
372,200,41487,2,0,P|368:231|364:292,1,66.4999979705811
440,140,42003,1,4,0:0:0:0:
440,140,44002,5,2,0:0:0:0:
440,140,44502,2,0,P|444:201|453:273,1,132.999995941162,2|0,0:0|0:0,0:0:0:0:
340,362,45251,1,2,0:0:0:0:
258,228,45501,2,0,P|262:197|277:145,1,66.4999979705811
159,295,46001,1,2,0:0:0:0:
159,295,48001,6,0,B|235:315|219:271|299:291,1,142.5,2|0,0:0|0:0,0:0:0:0:
189,176,48500,2,0,P|180:198|173:220,1,47.5,2|0,0:0|0:0,0:0:0:0:
264,128,48750,1,0,0:0:0:0:
211,36,48875,1,0,0:0:0:0:
338,70,49000,2,0,P|370:75|404:76,1,47.5,2|2,0:0|0:0,0:0:0:0:
453,188,49250,2,0,P|421:190|387:194,1,47.5,2|0,0:0|0:0,0:0:0:0:
284,267,49500,1,2,0:0:0:0:
379,306,49625,1,2,0:0:0:0:
489,280,49750,2,0,P|483:318|482:344,1,47.5,2|0,0:0|0:0,0:0:0:0:
431,164,50000,6,0,P|426:115|418:70,1,95,2|0,0:0|0:0,0:0:0:0:
198,20,50500,2,0,P|190:65|187:88,1,47.5,2|0,0:0|0:0,0:0:0:0:
171,222,50750,2,0,P|179:267|182:290,1,47.5,2|2,0:0|0:0,0:0:0:0:
284,356,51000,2,0,P|287:332|292:309,1,47.5,2|2,0:0|0:0,0:0:0:0:
423,198,51249,2,0,P|399:193|376:191,1,47.5,2|0,0:0|0:0,0:0:0:0:
320,89,51499,2,0,P|296:96|275:106,1,47.5,2|2,0:0|0:0,0:0:0:0:
190,64,51749,2,0,P|173:82|160:101,1,47.5,2|2,0:0|0:0,0:0:0:0:
232,335,51999,6,0,B|212:267|212:267|235:176,1,142.5,2|0,0:0|0:0,0:0:0:0:
308,66,52499,2,0,P|316:44|321:13,1,47.5,2|0,0:0|0:0,0:0:0:0:
453,159,52749,2,0,L|358:170,1,95,2|2,0:0|0:0,0:0:0:0:
269,276,53124,1,2,0:0:0:0:
249,296,53249,2,0,P|248:325|245:348,1,47.5,2|0,0:0|0:0,0:0:0:0:
72,370,53499,1,2,0:0:0:0:
131,284,53624,1,2,0:0:0:0:
58,208,53749,2,0,P|59:182|64:156,1,47.5,2|2,0:0|0:0,0:0:0:0:
266,42,53999,5,2,0:0:0:0:
259,138,55123,5,0,3:0:0:0:
259,138,55186,1,0,3:0:0:0:
259,138,55248,1,0,3:0:0:0:
188,74,55373,1,0,3:0:0:0:
336,101,55498,1,0,3:0:0:0:
179,149,55623,1,0,3:0:0:0:
266,42,55748,1,0,3:0:0:0:
238,218,55873,1,0,3:0:0:0:
68,123,55998,6,0,P|25:128|-12:146,1,71.2500027179719,8|0,3:0|0:0,0:0:0:0:
161,40,56248,2,0,P|194:52|229:55,1,71.2500027179719
396,22,56498,2,0,P|384:130|379:175,1,142.500005435944,8|2,1:0|0:0,0:0:0:0:
235,261,56873,1,8,1:0:0:0:
263,113,56998,1,0,0:0:0:0:
242,271,57122,1,8,1:0:0:0:
259,102,57247,2,0,P|183:117|175:118,1,71.2500027179719,8|0,3:0|0:0,0:0:0:0:
346,262,57497,2,0,B|426:282|409:236|493:257,1,142.500005435944,8|0,1:0|3:0,0:0:0:0:
361,95,57997,6,0,P|373:134|382:181,1,71.2500027179719,8|0,3:0|0:0,0:0:0:0:
231,259,58247,2,0,P|238:224|249:190,1,71.2500027179719,0|0,3:0|0:0,0:0:0:0:
94,135,58497,2,0,P|110:285|110:298,1,142.500005435944,8|0,1:0|3:0,0:0:0:0:
4,150,58872,1,8,1:0:0:0:
78,37,58997,1,0,0:0:0:0:
206,155,59122,1,8,1:0:0:0:
380,101,59247,2,0,P|346:89|310:86,1,71.2500027179719,8|0,3:0|0:0,0:0:0:0:
184,241,59497,2,0,P|338:214|348:213,1,142.500005435944,8|0,1:0|3:0,0:0:0:0:
468,366,59997,6,0,P|432:362|392:334,1,71.2500027179719,8|0,3:0|0:0,0:0:0:0:
230,313,60246,2,0,P|194:317|154:345,1,71.2500027179719,0|0,3:0|0:0,0:0:0:0:
8,235,60496,2,0,B|72:259|72:259|150:229,1,142.500005435944,8|0,1:0|0:0,0:0:0:0:
290,159,60871,1,8,1:0:0:0:
264,278,60996,1,0,0:0:0:0:
198,122,61121,1,8,1:0:0:0:
341,229,61246,2,0,P|403:217|420:215,1,71.2500027179719,8|0,3:0|0:0,0:0:0:0:
251,361,61496,2,0,P|177:372|101:357,1,142.500005435944,8|0,1:0|3:0,0:0:0:0:
0,154,61996,5,8,3:0:0:0:
0,154,63370,2,0,P|40:149|83:142,1,71.2500027179719,0|8,0:0|0:0,0:0:0:0:
164,233,63620,1,8,0:0:0:0:
81,283,63745,2,0,P|68:314|67:356,1,71.2500027179719,8|0,3:0|0:0,0:0:0:0:
239,202,63995,6,0,P|236:140|235:126,1,71.2500027179719,8|0,3:0|0:0,0:0:0:0:
386,66,64245,2,0,P|383:127|382:142,1,71.2500027179719
204,34,64495,2,0,B|123:66|143:11|61:40,1,142.500005435944,8|2,1:0|0:0,0:0:0:0:
100,199,64870,1,8,1:0:0:0:
209,141,64995,1,0,0:0:0:0:
23,147,65120,1,8,1:0:0:0:
166,243,65245,2,0,P|196:264|221:305,1,71.2500027179719,8|0,3:0|0:0,0:0:0:0:
20,376,65495,2,0,P|25:315|29:229,1,142.500005435944,8|0,1:0|3:0,0:0:0:0:
199,88,65995,6,0,P|234:88|269:94,1,71.2500027179719,8|0,3:0|0:0,0:0:0:0:
351,220,66244,2,0,P|315:226|280:226,1,71.2500027179719,0|0,3:0|0:0,0:0:0:0:
426,109,66494,2,0,P|436:178|446:250,1,142.500005435944,8|0,1:0|3:0,0:0:0:0:
328,351,66869,1,8,1:0:0:0:
256,220,66994,2,0,P|264:176|276:145,1,71.2500027179719,0|8,0:0|1:0,0:0:0:0:
111,39,67244,2,0,P|122:72|128:107,1,71.2500027179719,8|0,3:0|0:0,0:0:0:0:
13,259,67494,2,0,B|93:239|76:285|160:264,1,142.500005435944,8|0,1:0|3:0,0:0:0:0:
374,144,67994,6,0,L|368:56,1,71.2500027179719,8|0,3:0|0:0,0:0:0:0:
464,190,68244,2,0,L|459:261,1,71.2500027179719,0|0,3:0|0:0,0:0:0:0:
295,354,68494,2,0,B|226:331|226:331|150:346,1,142.500005435944,8|0,1:0|0:0,0:0:0:0:
0,377,68869,1,8,1:0:0:0:
91,301,68994,1,0,0:0:0:0:
0,217,69118,1,8,1:0:0:0:
168,180,69243,2,0,P|203:182|236:195,1,71.2500027179719,8|0,3:0|0:0,0:0:0:0:
428,330,69493,2,0,P|419:271|406:170,1,142.500005435944,8|0,1:0|3:0,0:0:0:0:
382,29,69868,1,0,3:0:0:0:
299,139,69993,1,8,3:0:0:0:
143,278,71993,6,0,P|134:307|160:393,1,66.4999979705811,2|0,0:0|0:0,0:0:0:0:
62,232,72492,1,2,0:0:0:0:
214,319,72742,2,0,L|291:313,1,66.4999979705811
442,194,73242,2,0,P|360:219|329:272,1,132.999995941162,2|0,0:0|0:0,0:0:0:0:
264,384,73992,1,2,0:0:0:0:
255,367,75991,6,0,P|300:363|338:335,1,66.4999979705811,2|0,0:0|0:0,0:0:0:0:
428,218,76491,1,2,0:0:0:0:
268,287,76741,2,0,P|262:247|251:197,1,66.4999979705811
477,283,77241,2,0,P|423:247|361:264,1,132.999995941162,2|0,0:0|0:0,0:0:0:0:
386,14,77991,2,0,P|371:80|361:148,1,132.999995941162,2|0,0:0|0:0,0:0:0:0:
182,78,79990,6,0,P|169:131|163:166,1,66.4999979705811,2|0,0:0|0:0,0:0:0:0:
77,220,80490,2,0,P|90:273|96:308,1,66.4999979705811,2|0,0:0|0:0,0:0:0:0:
193,371,80990,1,0,0:0:0:0:
299,295,81239,2,0,P|208:286|139:280,1,132.999995941162,2|0,0:0|0:0,0:0:0:0:
324,211,81989,2,0,P|368:242|377:334,1,132.999995941162,2|0,0:0|0:0,0:0:0:0:
396,335,83989,6,0,B|346:225|441:251|388:120,1,190,2|2,0:0|0:0,0:0:0:0:
312,187,84751,2,0,P|297:225|289:254,1,47.5
233,318,85005,2,0,P|225:295|216:273,1,47.5,2|2,0:0|0:0,0:0:0:0:
159,182,85220,1,2,0:0:0:0:
159,182,85487,5,2,0:0:0:0:
206,41,85621,1,2,0:0:0:0:
98,76,85755,5,2,0:0:0:0:
180,111,85871,1,2,0:0:0:0:
254,142,85988,2,0,P|308:135|364:130,1,95,2|0,0:0|0:0,0:0:0:0:
348,131,86500,6,0,P|388:122|406:117,1,47.5,2|0,0:0|0:0,0:0:0:0:
472,226,86757,2,0,P|448:220|425:215,1,47.5,2|0,0:0|0:0,0:0:0:0:
315,209,87013,1,2,0:0:0:0:
368,283,87141,1,2,0:0:0:0:
289,384,87270,6,0,P|278:320|266:278,1,95,2|0,0:0|0:0,0:0:0:0:
193,248,87643,1,2,0:0:0:0:
146,107,87768,1,2,0:0:0:0:
254,142,87892,1,2,0:0:0:0:
102,186,88017,6,0,P|65:144|111:23,1,190,2|2,0:0|0:0,0:0:0:0:
102,186,88764,2,0,P|92:226|87:258,1,47.5,2|0,0:0|0:0,0:0:0:0:
159,306,89013,2,0,P|165:328|170:352,1,47.5,2|2,0:0|0:0,0:0:0:0:
264,314,89262,2,0,P|322:298|381:292,1,95,2|0,0:0|0:0,0:0:0:0:
467,232,89636,5,2,0:0:0:0:
281,208,89761,1,2,0:0:0:0:
384,151,89885,1,2,0:0:0:0:
369,314,90010,1,2,0:0:0:0:
137,282,91110,5,0,3:0:0:0:
137,282,91173,1,0,3:0:0:0:
137,282,91235,1,0,3:0:0:0:
0,300,91360,1,0,3:0:0:0:
173,214,91485,1,0,3:0:0:0:
5,226,91610,1,0,3:0:0:0:
201,142,91735,1,0,3:0:0:0:
1,150,91860,1,0,3:0:0:0:
47,3,91985,6,0,P|98:74|125:158,1,142.500005435944,8|0,3:0|0:0,0:0:0:0:
0,300,92359,1,0,0:0:0:0:
0,300,92484,2,0,P|32:262|74:235,1,71.2500027179719,8|0,1:0|0:0,0:0:0:0:
239,288,92734,2,0,P|190:279|153:250,1,71.2500027179719,2|8,0:0|1:0,0:0:0:0:
256,124,92984,1,0,0:0:0:0:
447,142,93109,1,8,1:0:0:0:
447,142,93234,2,0,P|467:200|475:246,1,71.2500027179719,8|0,3:0|0:0,0:0:0:0:
374,58,93484,2,0,P|345:133|331:251,1,142.500005435944,8|0,1:0|3:0,0:0:0:0:
346,334,93859,1,0,3:0:0:0:
236,189,93984,6,0,B|176:170|154:208|149:203|113:235|49:202,1,142.500005435944,8|0,3:0|3:0,0:0:0:0:
15,81,94359,1,0,0:0:0:0:
123,36,94484,2,0,P|111:85|105:130,1,71.2500027179719,8|0,1:0|0:0,0:0:0:0:
322,151,94734,2,0,P|287:111|250:99,1,71.2500027179719,0|8,3:0|1:0,0:0:0:0:
236,189,94984,1,0,0:0:0:0:
346,334,95108,2,0,P|439:321|504:316,1,142.500005435944,8|0,1:0|0:0,0:0:0:0:
177,381,95483,2,0,P|84:368|6:359,1,142.500005435944,8|0,1:0|3:0,0:0:0:0:
210,287,95858,1,0,3:0:0:0:
108,128,95983,6,0,P|60:190|86:266,1,142.500005435944,8|0,3:0|3:0,0:0:0:0:
199,130,96358,1,0,0:0:0:0:
157,49,96483,2,0,P|117:40|79:27,1,71.2500027179719,8|0,1:0|0:0,0:0:0:0:
246,207,96733,2,0,P|280:195|315:188,1,71.2500027179719,0|8,0:0|1:0,0:0:0:0:
445,15,96983,1,0,0:0:0:0:
461,219,97108,1,8,1:0:0:0:
461,219,97233,2,0,P|453:183|442:150,1,71.2500027179719,8|0,3:0|0:0,0:0:0:0:
315,336,97483,2,0,B|358:333|387:311|387:311|421:339|467:333,1,142.500005435944,8|0,1:0|3:0,0:0:0:0:
322,224,97983,1,8,3:0:0:0:
2,325,99357,6,0,P|42:330|85:337,1,71.2500027179719,0|8,0:0|0:0,0:0:0:0:
166,246,99607,1,8,0:0:0:0:
83,196,99732,2,0,P|70:165|69:123,1,71.2500027179719,8|0,3:0|0:0,0:0:0:0:
215,131,99982,6,0,B|256:123|256:123|309:149|309:149|366:136,1,142.500005435944,8|0,3:0|0:0,0:0:0:0:
316,55,100357,1,0,0:0:0:0:
512,76,100482,2,0,P|459:58|427:46,1,71.2500027179719,8|0,1:0|0:0,0:0:0:0:
434,252,100732,2,0,P|381:270|349:282,1,71.2500027179719,2|8,0:0|1:0,0:0:0:0:
197,39,100982,1,0,0:0:0:0:
297,135,101106,1,8,1:0:0:0:
112,222,101231,2,0,P|92:173|86:122,1,71.2500027179719,8|0,3:0|0:0,0:0:0:0:
218,234,101481,2,0,P|179:306|206:365,1,142.500005435944,8|0,1:0|3:0,0:0:0:0:
269,306,101856,1,0,3:0:0:0:
426,249,101981,6,0,P|387:321|414:380,1,142.500005435944,8|0,3:0|3:0,0:0:0:0:
471,317,102356,1,0,0:0:0:0:
315,256,102481,2,0,P|272:245|227:247,1,71.2500027179719,8|0,1:0|0:0,0:0:0:0:
82,361,102731,2,0,P|113:329|133:289,1,71.2500027179719,0|8,3:0|1:0,0:0:0:0:
156,199,102981,1,0,0:0:0:0:
123,2,103106,2,0,B|92:47|92:47|127:150,1,142.500005435944,8|0,1:0|0:0,0:0:0:0:
248,372,103481,2,0,B|217:327|217:327|252:224,1,142.500005435944,8|0,1:0|3:0,0:0:0:0:
308,315,103856,1,0,3:0:0:0:
429,188,103981,6,0,P|338:174|239:155,1,142.500005435944,8|0,3:0|3:0,0:0:0:0:
198,138,104355,1,0,0:0:0:0:
56,266,104480,2,0,P|43:223|28:182,1,71.2500027179719,8|0,1:0|0:0,0:0:0:0:
165,382,104730,2,0,P|177:339|192:298,1,71.2500027179719,0|8,0:0|1:0,0:0:0:0:
1,383,104980,5,0,0:0:0:0:
160,234,105105,1,8,1:0:0:0:
263,328,105230,2,0,P|336:344|365:353,1,71.2500027179719,8|0,3:0|0:0,0:0:0:0:
475,178,105480,2,0,P|389:217|345:256,1,142.500005435944,8|0,1:0|3:0,0:0:0:0:
373,127,105855,1,0,3:0:0:0:
456,270,105980,1,8,3:0:0:0:
139,164,107979,6,0,P|44:142|-29:132,2,142.500005435944,8|0|8,3:0|0:0|1:0,0:0:0:0:
204,285,108729,2,0,P|257:275|299:271,1,71.2500027179719,2|8,0:0|0:0,0:0:0:0:
424,338,108979,5,2,0:0:0:0:
397,208,109104,1,8,0:0:0:0:
324,43,109229,2,0,P|315:121|298:206,1,142.500005435944,8|8,3:0|1:0,0:0:0:0:
274,272,109604,1,2,0:0:0:0:
151,327,109729,1,2,0:0:0:0:
253,374,109854,1,2,0:0:0:0:
58,270,109979,6,0,P|45:189|37:147,1,106.875004076958,8|0,3:0|0:0,0:0:0:0:
38,144,110228,2,0,P|85:155|116:157,1,71.2500027179719,2|0,0:2|0:0,0:0:0:0:
283,57,110478,6,0,P|296:138|304:180,1,106.875004076958,8|0,1:0|0:0,0:0:0:0:
303,183,110728,2,0,P|256:172|225:170,1,71.2500027179719,2|2,0:0|0:0,0:0:0:0:
58,270,110978,1,2,0:0:0:0:
92,80,111103,1,0,1:0:0:0:
159,235,111228,2,0,P|173:281|182:323,1,71.2500027179719,8|0,3:0|0:0,0:0:0:0:
276,384,111478,6,0,P|333:319|400:321,1,142.500005435944,8|2,1:0|3:2,0:0:0:0:
512,376,111853,1,0,3:0:0:0:
498,180,111978,38,0,B|523:253|427:290|372:233|389:147|441:77|505:84,1,285.000010871888,8|8,3:0|1:0,0:0:0:0:
292,122,112728,5,2,0:0:0:0:
66,42,112853,1,8,0:0:0:0:
123,231,112978,1,2,0:0:0:0:
199,64,113102,1,8,0:0:0:0:
254,235,113227,2,0,P|274:301|281:344,1,106.875004076958,8|0,3:0|0:0,0:0:0:0:
281,351,113477,2,0,P|291:297|299:259,1,71.2500027179719,8|0,1:0|0:0,0:0:0:0:
384,181,113727,1,2,0:2:0:0:
393,288,113852,1,2,0:0:0:0:
292,122,113977,1,8,3:0:0:0:
306,364,115352,5,0,0:0:0:0:
261,281,115477,2,0,P|207:267|168:255,1,71.2500027179719,8|8,0:0|0:0,0:0:0:0:
373,164,115727,1,8,3:0:0:0:
373,164,115977,6,0,P|468:142|541:132,2,142.500005435944,8|0|8,3:0|0:0|1:0,0:0:0:0:
308,285,116726,2,0,P|255:275|213:271,1,71.2500027179719,2|8,0:0|0:0,0:0:0:0:
88,338,116976,5,2,0:0:0:0:
115,208,117101,1,8,0:0:0:0:
188,43,117226,2,0,P|197:121|214:206,1,142.500005435944,8|8,3:0|1:0,0:0:0:0:
238,272,117601,1,2,0:0:0:0:
361,327,117726,1,2,0:0:0:0:
259,374,117851,1,2,0:0:0:0:
454,270,117976,6,0,P|467:189|475:147,1,106.875004076958,8|0,3:0|0:0,0:0:0:0:
474,144,118226,2,0,P|427:155|396:157,1,71.2500027179719,2|0,0:2|0:0,0:0:0:0:
229,57,118476,6,0,P|216:138|208:180,1,106.875004076958,8|0,1:0|0:0,0:0:0:0:
209,183,118726,2,0,P|256:172|287:170,1,71.2500027179719,2|2,0:0|0:0,0:0:0:0:
454,270,118976,1,2,0:0:0:0:
420,80,119100,1,0,1:0:0:0:
353,235,119225,2,0,P|339:281|330:323,1,71.2500027179719,8|0,3:0|0:0,0:0:0:0:
245,384,119475,6,0,P|212:318|146:298,1,142.500005435944,8|2,1:0|3:2,0:0:0:0:
33,351,119850,1,0,3:0:0:0:
14,180,119975,38,0,B|-11:253|85:290|140:233|123:147|71:77|7:84,1,285.000010871888,8|8,3:0|1:0,0:0:0:0:
220,122,120725,5,2,0:0:0:0:
446,42,120850,1,8,0:0:0:0:
389,231,120975,1,2,0:0:0:0:
313,64,121100,1,8,0:0:0:0:
258,235,121225,2,0,P|238:301|231:344,1,106.875004076958,8|0,3:0|0:0,0:0:0:0:
231,351,121475,2,0,P|221:297|213:259,1,71.2500027179719,8|0,1:0|0:0,0:0:0:0:
128,181,121725,1,2,0:2:0:0:
119,288,121850,1,2,0:0:0:0:
220,122,121975,1,8,3:0:0:0:
256,192,123724,12,0,131971,0:0:0:0:
