osu file format v14

[General]
AudioFilename: audio.mp3
AudioLeadIn: 0
PreviewTime: 99865
Countdown: 0
SampleSet: Soft
StackLeniency: 0.7
Mode: 2
LetterboxInBreaks: 0
WidescreenStoryboard: 1

[Editor]
DistanceSpacing: 1.4
BeatDivisor: 4
GridSize: 4
TimelineZoom: 2.299999

[Metadata]
Title:Doradura
TitleUnicode:Дорадура
Artist:dora
ArtistUnicode:дора
Creator:Nelly
Version:Salad
Source:
Tags:wajinshu terton dura дура mental affection старшая сестра russian cute rock pop русский кьют рок поп
BeatmapID:2785750
BeatmapSetID:1342172

[Difficulty]
HPDrainRate:4
CircleSize:2.8
OverallDifficulty:6.9
ApproachRate:6.9
SliderMultiplier:1.5
SliderTickRate:1

[Events]
//Background and Video events
0,0,"doradura.jpg",0,0
//Break Periods
//Storyboard Layer 0 (Background)
//Storyboard Layer 1 (Fail)
//Storyboard Layer 2 (Pass)
//Storyboard Layer 3 (Foreground)
//Storyboard Layer 4 (Overlay)
//Storyboard Sound Samples

[TimingPoints]
10,499.833388870377,4,2,1,50,1,0
8017,474.308300395257,4,2,1,50,1,0
8017,-100,4,2,1,50,0,0
8992,499.98333388887,4,2,1,50,1,0
12034,472.426065320777,4,2,1,50,1,0
12993,499.98333388887,4,2,1,50,1,0
14001,499.98333388887,4,2,1,50,1,0
16002,499.833388870377,4,2,1,70,1,0
18011,499.833388870377,4,2,1,70,1,0
22017,499.833388870377,4,2,1,70,1,0
23121,499.833388870377,4,2,1,70,1,0
23986,499.833388870377,4,2,1,66,1,1
23986,-71.4285714285714,4,2,1,66,0,1
30000,499.833388870377,4,2,1,66,1,0
30000,-100,4,2,1,66,0,0
31499,-100,4,2,2,40,0,0
31749,-100,4,2,2,45,0,0
31999,-71.4285714285714,4,2,1,66,0,1
37747,-100,4,2,1,40,0,0
39496,529.614264277518,4,2,1,40,1,0
40026,462.249614791988,4,2,1,50,1,0
40488,499.833388870377,4,2,1,50,1,0
42003,499.833388870377,4,2,1,50,1,0
44012,476.039352586481,4,2,1,50,1,0
44012,-100,4,2,1,50,0,0
44488,-100,4,2,1,50,0,0
44986,499.833388870377,4,2,1,50,1,0
45235,-100,4,2,1,50,0,0
45985,-100,4,2,1,50,0,0
48009,499.833388870377,4,2,1,70,1,0
55243,499.833388870377,4,2,1,70,1,0
55992,499.833388870377,4,2,1,66,1,1
55992,-71.4285714285714,4,2,1,66,0,1
61990,-100,4,2,1,66,0,0
63489,-100,4,2,2,40,0,0
63739,-100,4,2,2,45,0,0
63989,-71.4285714285714,4,2,1,66,0,1
69987,-100,4,2,1,66,0,0
71992,499.833388870377,4,2,1,50,1,0
71992,-100,4,2,1,50,0,0
72997,479.846449136277,4,2,1,50,1,0
73984,479.846449136277,4,3,1,50,1,0
75977,504.032258064517,4,3,1,50,1,0
76987,499.833388870377,4,3,1,50,1,0
79998,483.714930667527,4,3,1,50,1,0
80981,508.302270416808,4,3,1,50,1,0
83989,508.474576271186,4,2,1,70,1,0
85236,535.714285714286,4,2,1,70,1,0
85487,467.836257309942,4,2,1,70,1,0
85988,512.820512820513,4,2,1,70,1,0
87270,498.338870431894,4,2,1,70,1,0
88017,498.338870431894,4,2,1,70,1,0
91125,498.338870431894,4,2,1,70,1,0
91993,499.833388870377,4,2,1,66,1,1
91993,-71.4285714285714,4,2,1,66,0,1
97991,-100,4,2,1,66,0,0
99490,-100,4,2,2,40,0,0
99740,-100,4,2,2,45,0,0
99990,-71.4285714285714,4,2,1,66,0,1
105988,-100,4,2,1,66,0,0
107987,-100,4,2,1,70,0,0
115485,-100,4,2,2,40,0,0
115735,-100,4,2,2,45,0,0
115985,-100,4,2,1,70,0,0
123684,499.833388870377,4,2,1,35,1,0
123684,-100,4,2,1,35,0,0
125933,-100,4,2,1,25,0,0
127932,-100,4,2,1,15,0,0
129931,-100,4,2,1,10,0,0
131931,-100,4,2,1,5,0,0

[Colours]
Combo1 : 129,224,112
Combo2 : 255,102,0
Combo3 : 255,94,255
Combo4 : 45,203,255

[HitObjects]
153,328,8017,6,0,P|128:307|163:211,1,150,2|2,0:0|0:0,0:0:0:0:
341,192,8992,2,0,L|344:115,1,75,0|2,0:0|0:0,0:0:0:0:
74,72,9991,1,2,0:0:0:0:
386,331,12034,6,0,L|392:182,1,150,2|2,0:0|0:0,0:0:0:0:
212,204,12993,2,0,L|209:129,1,75,0|2,0:0|0:0,0:0:0:0:
479,55,14001,1,2,0:0:0:0:
160,313,16002,6,0,P|98:274|125:212,1,150,2|2,0:0|0:0,0:0:0:0:
228,193,16751,1,0,0:0:0:0:
333,185,17001,1,2,0:0:0:0:
334,147,17126,1,2,0:0:0:0:
335,110,17251,1,2,0:0:0:0:
230,80,17501,1,2,0:0:0:0:
177,80,17626,1,2,0:0:0:0:
230,80,17751,1,2,0:0:0:0:
455,296,18011,6,0,P|470:257|403:184,1,150,2|2,0:0|0:0,0:0:0:0:
301,182,18760,1,2,0:0:0:0:
195,83,19010,1,2,0:0:0:0:
247,81,19134,1,0,0:0:0:0:
300,78,19259,1,2,0:0:0:0:
406,187,19510,1,2,0:0:0:0:
354,185,19634,1,2,0:0:0:0:
301,182,19759,1,2,0:0:0:0:
74,312,20010,6,0,P|40:284|83:206,1,150,2|2,0:0|0:0,0:0:0:0:
188,204,20760,1,2,0:0:0:0:
293,203,21010,1,2,0:0:0:0:
346,203,21134,1,2,0:0:0:0:
293,203,21259,1,2,0:0:0:0:
188,88,21509,1,2,0:0:0:0:
135,88,21634,1,2,0:0:0:0:
188,88,21759,1,2,0:0:0:0:
397,119,22017,5,2,0:0:0:0:
149,308,23121,5,0,3:0:0:0:
98,292,23245,1,0,3:0:0:0:
67,250,23370,1,0,3:0:0:0:
69,198,23495,1,0,3:0:0:0:
99,158,23620,1,0,3:0:0:0:
150,144,23745,1,0,3:0:0:0:
376,237,23986,6,0,L|380:128,1,104.999996795654,8|0,3:0|0:0,0:0:0:0:
154,204,24485,2,0,L|149:93,1,104.999996795654,8|2,1:0|0:0,0:0:0:0:
203,124,24860,1,8,1:0:0:0:
307,116,25110,1,8,1:0:0:0:
360,113,25235,1,8,3:0:0:0:
134,47,25485,2,0,L|27:42,1,104.999996795654,8|0,1:0|3:0,0:0:0:0:
135,182,25985,6,0,L|240:177,1,104.999996795654,8|0,3:0|3:0,0:0:0:0:
466,257,26485,2,0,L|357:252,1,104.999996795654,8|0,1:0|3:0,0:0:0:0:
285,165,26985,1,0,0:0:0:0:
337,162,27109,1,8,1:0:0:0:
389,160,27234,1,8,3:0:0:0:
164,274,27484,2,0,L|160:169,1,104.999996795654,8|0,1:0|3:0,0:0:0:0:
267,168,27984,6,0,L|371:163,1,104.999996795654,8|0,3:0|3:0,0:0:0:0:
143,127,28484,2,0,L|139:23,1,104.999996795654,8|0,1:0|0:0,0:0:0:0:
193,44,28859,1,8,1:0:0:0:
298,39,29109,1,8,1:0:0:0:
350,42,29234,1,8,3:0:0:0:
125,303,29484,2,0,L|120:194,1,104.999996795654,8|0,1:0|3:0,0:0:0:0:
346,147,29984,5,8,3:0:0:0:
452,210,31499,6,0,L|482:182,2,37.5,8|8|8,0:0|0:0|3:0,0:0:0:0:
226,220,31999,6,0,L|120:215,1,104.999996795654,8|0,3:0|0:0,0:0:0:0:
350,105,32499,2,0,L|455:100,1,104.999996795654,8|2,1:0|0:0,0:0:0:0:
402,66,32874,1,8,1:0:0:0:
297,56,33123,1,8,1:0:0:0:
245,61,33248,1,8,3:0:0:0:
472,243,33498,2,0,L|465:137,1,104.999996795654,8|0,1:0|3:0,0:0:0:0:
360,71,33998,6,0,L|252:66,1,104.999996795654,8|0,3:0|3:0,0:0:0:0:
27,315,34498,2,0,L|21:206,1,104.999996795654,8|0,1:0|3:0,0:0:0:0:
166,231,34998,1,0,0:0:0:0:
167,193,35122,1,8,1:0:0:0:
169,156,35247,1,8,3:0:0:0:
392,105,35498,2,0,L|496:100,1,104.999996795654,8|0,1:0|3:0,0:0:0:0:
391,27,35998,6,0,L|285:22,1,104.999996795654,8|0,3:0|3:0,0:0:0:0:
87,317,36497,2,0,L|83:210,1,104.999996795654,8|0,1:0|0:0,0:0:0:0:
137,234,36872,1,8,1:0:0:0:
257,219,37122,1,8,3:0:0:0:
310,214,37247,1,8,1:0:0:0:
83,212,37497,2,0,L|79:104,1,104.999996795654,8|0,1:0|3:0,0:0:0:0:
346,327,40026,6,0,L|349:176,1,150,2|2,0:0|0:0,0:0:0:0:
170,133,40987,2,0,L|92:129,1,75,0|2,0:0|0:0,0:0:0:0:
371,60,42003,1,0,0:0:0:0:
90,326,44012,6,0,P|81:285|155:218,1,150,2|2,0:0|0:0,0:0:0:0:
333,199,44986,2,0,L|336:117,1,75,0|2,0:0|0:0,0:0:0:0:
66,95,45985,1,2,0:0:0:0:
375,324,48009,6,0,P|406:302|367:215,1,150,2|2,0:0|0:0,0:0:0:0:
266,208,48758,1,0,0:0:0:0:
162,201,49008,1,2,0:0:0:0:
215,197,49133,1,2,0:0:0:0:
268,193,49258,1,2,0:0:0:0:
374,94,49508,1,2,0:0:0:0:
427,97,49633,1,2,0:0:0:0:
374,94,49758,1,2,0:0:0:0:
148,83,50008,6,0,P|99:91|88:180,1,150,2|2,0:0|0:0,0:0:0:0:
192,184,50758,1,2,0:0:0:0:
297,191,51008,1,2,0:0:0:0:
349,187,51132,1,2,0:0:0:0:
297,191,51257,1,2,0:0:0:0:
192,342,51507,1,2,0:0:0:0:
188,289,51632,1,2,0:0:0:0:
184,236,51757,1,2,0:0:0:0:
409,213,52007,6,0,P|444:190|407:108,1,150,2|2,0:0|0:0,0:0:0:0:
302,108,52756,1,2,0:0:0:0:
197,108,53006,1,2,0:0:0:0:
145,104,53132,1,2,0:0:0:0:
197,108,53257,1,2,0:0:0:0:
303,212,53507,1,2,0:0:0:0:
250,208,53632,1,2,0:0:0:0:
197,204,53757,1,2,0:0:0:0:
400,139,54007,5,2,0:0:0:0:
134,302,55130,5,0,3:0:0:0:
83,286,55243,1,0,3:0:0:0:
52,244,55367,1,0,3:0:0:0:
54,192,55492,1,0,3:0:0:0:
84,152,55617,1,0,3:0:0:0:
135,138,55742,1,0,3:0:0:0:
361,134,55992,6,0,L|466:132,1,104.999996795654,8|0,3:0|0:0,0:0:0:0:
238,313,56492,2,0,L|236:207,1,104.999996795654,8|2,1:0|0:0,0:0:0:0:
291,195,56867,1,8,1:0:0:0:
396,119,57116,1,8,1:0:0:0:
343,118,57241,1,8,3:0:0:0:
121,203,57491,2,0,P|74:179|63:131,1,104.999996795654,8|0,1:0|3:0,0:0:0:0:
169,51,57991,6,0,L|274:49,1,104.999996795654,8|0,3:0|3:0,0:0:0:0:
496,271,58491,2,0,L|497:166,1,104.999996795654,8|0,1:0|3:0,0:0:0:0:
391,124,58991,1,0,0:0:0:0:
444,119,59115,1,8,1:0:0:0:
496,115,59240,1,8,3:0:0:0:
270,288,59491,2,0,L|268:179,1,104.999996795654,8|0,1:0|3:0,0:0:0:0:
163,238,59991,6,0,L|161:126,1,104.999996795654,8|0,3:0|3:0,0:0:0:0:
387,68,60490,2,0,L|281:69,1,104.999996795654,8|0,1:0|0:0,0:0:0:0:
229,70,60865,1,8,1:0:0:0:
334,257,61114,1,8,1:0:0:0:
335,205,61239,1,8,3:0:0:0:
114,149,61490,2,0,L|8:144,1,104.999996795654,8|0,1:0|3:0,0:0:0:0:
235,76,61990,5,8,3:0:0:0:
470,210,63489,6,0,L|500:182,2,37.5,8|8|8,0:0|0:0|3:0,0:0:0:0:
244,250,63989,6,0,L|137:247,1,104.999996795654,8|0,3:0|0:0,0:0:0:0:
364,209,64489,2,0,L|366:99,1,104.999996795654,8|2,1:0|0:0,0:0:0:0:
313,129,64864,1,8,1:0:0:0:
208,120,65114,1,8,1:0:0:0:
206,51,65239,1,8,3:0:0:0:
427,279,65489,2,0,L|433:173,1,104.999996795654,8|0,1:0|3:0,0:0:0:0:
325,215,65989,6,0,L|320:111,1,104.999996795654,8|0,3:0|3:0,0:0:0:0:
92,315,66488,2,0,L|89:207,1,104.999996795654,8|0,1:0|3:0,0:0:0:0:
196,227,66988,1,0,0:0:0:0:
197,189,67112,1,8,1:0:0:0:
198,152,67237,1,8,3:0:0:0:
423,75,67488,2,0,L|317:72,1,104.999996795654,8|0,1:0|3:0,0:0:0:0:
211,259,67988,6,0,L|208:154,1,104.999996795654,8|0,3:3|3:3,0:3:0:0:
432,310,68488,2,0,L|435:203,1,104.999996795654,8|0,1:0|0:0,0:0:0:0:
381,231,68863,1,8,1:0:0:0:
276,225,69112,1,8,1:0:0:0:
223,222,69237,1,8,3:0:0:0:
448,167,69487,2,0,L|451:60,1,104.999996795654,8|0,1:0|3:0,0:0:0:0:
224,54,69987,5,8,3:0:0:0:
367,313,71992,6,0,P|387:279|325:202,1,150,2|2,0:0|0:0,0:0:0:0:
148,201,72997,2,0,L|67:203,1,75,0|2,0:0|0:0,0:0:0:0:
344,114,73984,1,2,0:0:0:0:
140,308,75977,6,0,P|108:290|150:210,1,150,2|2,0:0|0:0,0:0:0:0:
328,192,76987,2,0,L|332:115,1,75,0|2,0:0|0:0,0:0:0:0:
61,76,77986,1,2,0:0:0:0:
386,331,79998,6,0,L|392:182,1,150,2|2,0:0|0:0,0:0:0:0:
212,204,80981,2,0,L|209:129,1,75,0|2,0:0|0:0,0:0:0:0:
479,55,81997,1,2,0:0:0:0:
143,308,83989,6,0,P|114:294|145:201,1,150,2|2,0:0|0:0,0:0:0:0:
245,198,84751,1,0,0:0:0:0:
350,194,85005,1,2,0:0:0:0:
352,156,85132,1,2,0:0:0:0:
353,119,85236,1,2,0:0:0:0:
250,103,85487,1,2,0:0:0:0:
198,105,85603,1,2,0:0:0:0:
250,103,85720,1,2,0:0:0:0:
485,282,85988,6,0,P|472:198|420:168,1,150,2|2,0:0|0:0,0:0:0:0:
319,161,86757,1,2,0:0:0:0:
217,154,87013,1,2,0:0:0:0:
165,156,87141,1,2,0:0:0:0:
217,154,87270,1,2,0:0:0:0:
322,331,87519,1,0,0:0:0:0:
324,293,87643,1,2,0:0:0:0:
326,256,87768,1,2,0:0:0:0:
101,216,88017,6,0,P|55:206|60:117,1,150,2|2,0:0|0:0,0:0:0:0:
161,98,88764,1,2,0:0:0:0:
265,78,89013,1,2,0:0:0:0:
318,80,89138,1,2,0:0:0:0:
265,78,89262,1,2,0:0:0:0:
161,193,89512,1,0,0:0:0:0:
108,195,89637,1,2,0:0:0:0:
161,193,89761,1,2,0:0:0:0:
363,219,90010,5,2,0:0:0:0:
111,319,91125,5,0,3:0:0:0:
65,282,91249,1,0,3:0:0:0:
44,226,91374,1,0,3:0:0:0:
55,168,91498,1,0,3:0:0:0:
95,125,91623,1,0,3:0:0:0:
153,109,91747,1,0,3:0:0:0:
379,106,91993,6,0,L|383:211,1,104.999996795654,8|0,3:0|0:0,0:0:0:0:
157,304,92492,2,0,L|154:196,1,104.999996795654,8|2,1:0|0:0,0:0:0:0:
207,220,92867,1,8,1:0:0:0:
311,203,93117,1,8,1:0:0:0:
258,197,93242,1,8,3:0:0:0:
37,157,93492,2,0,L|34:52,1,104.999996795654,8|0,1:0|3:0,0:0:0:0:
144,203,93992,6,0,L|149:98,1,104.999996795654,8|0,3:0|3:0,0:0:0:0:
370,61,94492,2,0,L|476:56,1,104.999996795654,8|0,1:0|3:0,0:0:0:0:
369,230,94992,1,0,0:0:0:0:
368,192,95116,1,8,1:0:0:0:
366,155,95241,1,0,0:0:0:0:
141,171,95491,2,0,L|138:61,1,104.999996795654,8|0,1:0|3:0,0:0:0:0:
32,130,95991,6,0,L|29:24,1,104.999996795654,8|0,3:0|3:0,0:0:0:0:
255,71,96491,2,0,L|361:68,1,104.999996795654,8|0,1:0|0:0,0:0:0:0:
413,68,96866,1,8,1:0:0:0:
308,165,97116,1,8,1:0:0:0:
256,162,97241,1,8,3:0:0:0:
475,294,97491,2,0,L|480:189,1,104.999996795654,8|0,1:0|3:0,0:0:0:0:
256,162,97991,5,8,3:0:0:0:
70,250,99490,6,0,L|49:220,2,37.5,8|8|8,0:0|0:0|3:0,0:0:0:0:
296,244,99990,6,0,L|301:138,1,104.999996795654,8|0,3:0|0:0,0:0:0:0:
74,91,100490,2,0,L|179:85,1,104.999996795654,8|2,1:0|0:0,0:0:0:0:
232,81,100865,1,8,1:0:0:0:
337,70,101114,1,8,1:0:0:0:
390,74,101239,1,8,3:0:0:0:
167,319,101489,2,0,L|161:214,1,104.999996795654,8|0,1:0|3:0,0:0:0:0:
266,136,101989,6,0,L|159:130,1,104.999996795654,8|0,3:0|3:0,0:0:0:0:
388,284,102489,2,0,L|493:278,1,104.999996795654,8|0,1:0|3:0,0:0:0:0:
387,181,102989,1,0,0:0:0:0:
336,178,103113,1,8,1:0:0:0:
284,175,103238,1,0,0:0:0:0:
60,190,103489,2,0,L|54:83,1,104.999996795654,8|0,1:0|3:0,0:0:0:0:
162,162,103989,6,0,L|166:57,1,104.999996795654,8|0,3:0|3:0,0:0:0:0:
387,285,104488,2,0,L|392:179,1,104.999996795654,8|0,1:0|0:0,0:0:0:0:
339,202,104863,1,8,1:0:0:0:
236,186,105113,1,8,1:0:0:0:
185,178,105238,1,8,3:0:0:0:
410,206,105488,2,0,L|415:99,1,104.999996795654,8|0,1:0|3:0,0:0:0:0:
188,91,105988,5,8,3:0:0:0:
76,241,107987,6,0,P|59:209|120:129,1,150,8|8,3:0|1:0,0:0:0:0:
225,126,108737,1,2,0:0:0:0:
227,88,108861,1,8,0:0:0:0:
121,220,109112,1,8,0:0:0:0:
119,182,109236,1,8,3:0:0:0:
345,131,109487,2,0,L|423:129,1,75,8|2,1:0|0:0,0:0:0:0:
194,259,109987,6,0,P|142:247|151:164,1,150,8|8,3:0|1:0,0:0:0:0:
254,150,110736,2,0,L|257:76,1,75,2|2,0:0|0:0,0:0:0:0:
205,73,111111,1,0,1:0:0:0:
153,71,111236,1,8,3:0:0:0:
48,176,111486,2,0,L|45:102,1,75,8|2,1:0|3:2,0:0:0:0:
271,269,111986,6,0,P|323:257|314:174,1,150,8|8,3:0|1:0,0:0:0:0:
211,144,112736,1,2,0:0:0:0:
159,139,112861,1,8,0:0:0:0:
264,61,113110,1,8,0:0:0:0:
316,56,113235,1,8,3:0:0:0:
91,303,113485,2,0,L|88:229,1,75,8|2,1:0|0:2,0:0:0:0:
314,191,113985,5,8,3:0:0:0:
454,182,115485,6,0,L|484:211,2,37.5,8|8|8,0:0|0:0|3:0,0:0:0:0:
228,173,115985,6,0,P|186:227|231:280,1,150,8|8,3:0|1:0,0:0:0:0:
336,280,116734,1,2,0:0:0:0:
339,227,116859,1,8,0:0:0:0:
234,189,117109,1,8,0:0:0:0:
231,136,117234,1,8,3:0:0:0:
456,148,117484,2,0,L|459:72,1,75,8|2,1:0|0:0,0:0:0:0:
233,60,117984,6,0,L|78:56,1,150,8|8,3:0|1:0,0:0:0:0:
189,156,118734,1,2,0:0:0:0:
294,147,118984,1,2,0:0:0:0:
346,151,119108,1,0,1:0:0:0:
294,147,119233,1,8,3:0:0:0:
69,291,119483,2,0,L|66:215,1,75,8|2,1:0|3:2,0:0:0:0:
293,240,119983,6,0,P|328:219|297:133,1,150,8|8,3:0|1:0,0:0:0:0:
192,67,120733,1,2,0:0:0:0:
245,63,120858,1,8,0:0:0:0:
350,55,121108,1,8,0:0:0:0:
403,51,121233,1,8,3:0:0:0:
178,191,121483,2,0,L|96:187,1,75,8|2,1:0|0:2,0:0:0:0:
329,274,121983,5,8,3:0:0:0:
256,192,123684,12,0,131931,0:0:0:0:
