osu file format v14

[General]
AudioFilename: audio.mp3
AudioLeadIn: 0
PreviewTime: 99865
Countdown: 0
SampleSet: Soft
StackLeniency: 0.7
Mode: 2
LetterboxInBreaks: 0
WidescreenStoryboard: 1

[Editor]
DistanceSpacing: 1.6
BeatDivisor: 4
GridSize: 4
TimelineZoom: 2.299999

[Metadata]
Title:Doradura
TitleUnicode:Дорадура
Artist:dora
ArtistUnicode:дора
Creator:Nelly
Version:Rain
Source:
Tags:wajinshu terton dura дура mental affection старшая сестра russian cute rock pop русский кьют рок поп
BeatmapID:2780218
BeatmapSetID:1342172

[Difficulty]
HPDrainRate:6
CircleSize:3.6
OverallDifficulty:8.6
ApproachRate:8.6
SliderMultiplier:1.99
SliderTickRate:1

[Events]
//Background and Video events
0,0,"doradura.jpg",0,0
//Break Periods
//Storyboard Layer 0 (Background)
//Storyboard Layer 1 (Fail)
//Storyboard Layer 2 (Pass)
//Storyboard Layer 3 (Foreground)
//Storyboard Layer 4 (Overlay)
//Storyboard Sound Samples

[TimingPoints]
10,499.833388870377,4,2,1,50,1,0
8017,474.308300395257,4,2,1,50,1,0
8017,-100,4,2,1,50,0,0
8992,499.98333388887,4,2,1,50,1,0
12034,472.426065320777,4,2,1,50,1,0
12993,499.98333388887,4,2,1,50,1,0
14001,499.98333388887,4,2,1,50,1,0
16002,499.833388870377,4,2,1,70,1,0
18011,499.833388870377,4,2,1,70,1,0
22017,499.833388870377,4,2,1,70,1,0
23121,499.833388870377,4,2,1,70,1,0
23986,499.833388870377,4,2,1,66,1,1
23986,-100,4,2,1,66,0,1
30000,499.833388870377,4,2,1,66,1,0
30000,-100,4,2,1,66,0,0
31499,-100,4,2,2,40,0,0
31749,-100,4,2,2,45,0,0
31999,-100,4,2,1,66,0,1
37747,-100,4,2,1,40,0,0
39496,529.614264277518,4,2,1,40,1,0
40026,462.249614791988,4,2,1,50,1,0
40488,499.833388870377,4,2,1,50,1,0
42003,499.833388870377,4,2,1,50,1,0
44012,476.039352586481,4,2,1,50,1,0
44012,-100,4,2,1,50,0,0
44488,-100,4,2,1,50,0,0
44986,499.833388870377,4,2,1,50,1,0
45235,-100,4,2,1,50,0,0
45985,-100,4,2,1,50,0,0
48009,499.833388870377,4,2,1,70,1,0
55243,499.833388870377,4,2,1,70,1,0
55992,499.833388870377,4,2,1,66,1,1
55992,-100,4,2,1,66,0,1
61990,-100,4,2,1,66,0,0
63489,-100,4,2,2,40,0,0
63739,-100,4,2,2,45,0,0
63989,-100,4,2,1,66,0,1
69987,-100,4,2,1,66,0,0
71992,499.833388870377,4,2,1,50,1,0
71992,-100,4,2,1,50,0,0
72997,479.846449136277,4,2,1,50,1,0
73984,479.846449136277,4,3,1,50,1,0
75977,504.032258064517,4,3,1,50,1,0
76987,499.833388870377,4,3,1,50,1,0
79998,483.714930667527,4,3,1,50,1,0
80981,508.302270416808,4,3,1,50,1,0
83989,508.474576271186,4,2,1,70,1,0
85236,535.714285714286,4,2,1,70,1,0
85487,467.836257309942,4,2,1,70,1,0
85988,512.820512820513,4,2,1,70,1,0
87270,498.338870431894,4,2,1,70,1,0
88017,498.338870431894,4,2,1,70,1,0
91125,498.338870431894,4,2,1,70,1,0
91993,499.833388870377,4,2,1,66,1,1
91993,-100,4,2,1,66,0,1
97991,-100,4,2,1,66,0,0
99490,-100,4,2,2,40,0,0
99740,-100,4,2,2,45,0,0
99990,-100,4,2,1,66,0,1
105988,-100,4,2,1,66,0,0
107987,-100,4,2,1,70,0,0
115485,-100,4,2,2,40,0,0
115735,-100,4,2,2,45,0,0
115985,-100,4,2,1,70,0,0
123684,499.833388870377,4,2,1,35,1,0
123684,-100,4,2,1,35,0,0
125933,-100,4,2,1,25,0,0
127932,-100,4,2,1,15,0,0
129931,-100,4,2,1,10,0,0
131931,-100,4,2,1,5,0,0

[Colours]
Combo1 : 129,224,112
Combo2 : 255,102,0
Combo3 : 255,94,255
Combo4 : 45,203,255

[HitObjects]
161,339,8017,6,0,L|156:139,1,199,2|2,0:0|0:0,0:0:0:0:
256,113,8728,1,0,0:0:0:0:
475,237,8992,2,0,L|477:137,1,99.5,0|2,0:0|0:0,0:0:0:0:
59,135,9991,1,2,0:0:0:0:
201,272,12034,6,0,L|399:265,1,199,2|2,0:0|0:0,0:0:0:0:
300,185,12742,1,0,0:0:0:0:
81,167,12993,2,0,L|78:67,1,99.5,0|2,0:0|0:0,0:0:0:0:
438,50,14001,1,2,0:0:0:0:
154,313,16002,6,0,P|123:292|154:202,1,149.25,2|0,0:0|0:0,0:0:0:0:
364,193,16501,2,0,L|366:93,1,99.5,2|0,0:0|0:0,0:0:0:0:
296,82,16876,1,0,0:0:0:0:
176,73,17001,2,0,L|122:76,2,49.75,2|2|2,0:0|0:0|0:0,0:0:0:0:
396,331,17501,1,2,0:0:0:0:
450,277,17626,1,2,0:0:0:0:
435,202,17751,1,2,0:0:0:0:
357,183,17876,1,0,0:0:0:0:
147,302,18011,6,0,L|140:153,1,149.25,2|0,0:0|0:0,0:0:0:0:
351,75,18510,2,0,L|250:73,1,99.5,2|2,0:0|0:0,0:0:0:0:
181,69,18885,1,2,0:0:0:0:
301,165,19010,2,0,L|350:162,2,49.75,2|0|2,0:0|0:0|0:0,0:0:0:0:
81,344,19510,1,2,0:0:0:0:
46,275,19635,1,2,0:0:0:0:
69,199,19760,1,2,0:0:0:0:
137,164,19885,1,2,0:0:0:0:
350,155,20010,6,0,L|502:148,1,149.25,2|0,0:0|0:0,0:0:0:0:
307,57,20510,2,0,L|206:55,1,99.5,2|2,0:0|0:0,0:0:0:0:
137,51,20885,1,0,0:0:0:0:
17,127,21010,2,0,L|66:124,2,49.75,2|2|2,0:0|0:0|0:0,0:0:0:0:
236,291,21509,2,0,L|239:232,1,49.75,2|2,0:0|0:0,0:0:0:0:
158,231,21759,2,0,L|161:172,1,49.75,2|2,0:0|0:0,0:0:0:0:
358,121,22017,5,2,0:0:0:0:
181,308,23121,6,0,L|178:249,1,49.75,0|0,3:0|3:0,0:0:0:0:
373,284,23370,1,0,3:0:0:0:
437,239,23495,1,0,3:0:0:0:
461,165,23620,1,0,3:0:0:0:
433,92,23745,1,0,3:0:0:0:
366,50,23870,1,0,3:0:0:0:
174,41,23986,6,0,L|74:38,1,99.5,8|0,3:0|0:0,0:0:0:0:
294,267,24485,2,0,L|299:160,1,99.5,8|2,1:0|0:0,0:0:0:0:
229,148,24860,1,8,1:0:0:0:
109,132,24985,2,0,L|60:135,2,49.75,0|8|8,0:0|1:0|3:0,0:0:0:0:
309,66,25485,2,0,L|257:63,1,49.75,8|0,1:0|0:0,0:0:0:0:
149,60,25735,1,0,3:0:0:0:
470,302,25985,6,0,L|475:195,1,99.5,8|0,3:0|3:0,0:0:0:0:
255,152,26485,2,0,L|355:149,1,99.5,8|0,1:0|3:0,0:0:0:0:
283,108,26860,1,8,1:0:0:0:
162,88,26985,2,0,L|113:91,2,49.75,0|8|8,0:0|1:0|3:0,0:0:0:0:
381,315,27484,2,0,L|386:208,1,99.5,8|0,1:0|3:0,0:0:0:0:
314,187,27859,1,0,0:0:0:0:
127,171,27984,6,0,L|27:168,1,99.5,8|0,3:0|3:0,0:0:0:0:
247,60,28484,2,0,L|347:57,1,99.5,8|0,1:0|0:0,0:0:0:0:
276,128,28859,1,8,1:0:0:0:
156,223,28984,2,0,L|153:170,1,49.75,0|8,0:0|1:0,0:0:0:0:
225,152,29234,1,8,3:0:0:0:
447,141,29484,2,0,L|498:144,2,49.75,8|0|0,1:0|0:0|3:0,0:0:0:0:
106,162,30000,5,8,3:0:0:0:
272,269,31374,5,0,0:0:0:0:
392,244,31499,2,0,L|407:195,2,49.75,8|8|8,0:0|0:0|3:0,0:0:0:0:
68,291,31999,6,0,L|63:184,1,99.5,8|0,3:0|0:0,0:0:0:0:
283,114,32499,2,0,L|390:109,1,99.5,8|2,1:0|0:0,0:0:0:0:
312,167,32874,1,8,1:0:0:0:
192,202,32999,2,0,L|141:199,2,49.75,0|8|8,0:0|1:0|3:0,0:0:0:0:
391,322,33498,2,0,L|442:319,2,49.75,8|0|0,1:0|0:0|3:0,0:0:0:0:
70,222,33998,6,0,L|177:217,1,99.5,8|0,3:0|3:0,0:0:0:0:
389,79,34498,2,0,L|282:74,1,99.5,8|0,1:0|3:0,0:0:0:0:
219,77,34873,1,8,1:0:0:0:
341,175,34998,2,0,L|392:172,2,49.75,0|8|8,0:0|1:0|3:0,0:0:0:0:
121,189,35498,2,0,L|14:184,1,99.5,8|0,1:0|3:0,0:0:0:0:
93,137,35873,1,0,0:0:0:0:
303,326,35998,6,0,L|308:219,1,99.5,8|0,3:0|3:0,0:0:0:0:
89,117,36497,2,0,L|196:112,1,99.5,8|0,1:0|0:0,0:0:0:0:
260,113,36872,1,8,1:0:0:0:
140,207,36997,2,0,L|89:204,2,49.75,0|8|8,0:0|1:0|3:0,0:0:0:0:
463,258,37497,2,0,L|467:158,1,99.5,8|0,1:0|3:0,0:0:0:0:
134,308,40026,6,0,P|108:283|164:158,1,199,2|2,0:0|0:0,0:0:0:0:
264,152,40737,1,0,0:0:0:0:
483,204,40987,2,0,L|486:105,1,99.5,0|2,0:0|0:0,0:0:0:0:
120,65,42003,1,0,0:0:0:0:
378,308,44012,6,0,P|404:283|348:158,1,199,2|2,0:0|0:0,0:0:0:0:
248,152,44726,1,0,0:0:0:0:
29,204,44986,2,0,L|26:105,1,99.5,0|2,0:0|0:0,0:0:0:0:
392,65,45985,1,2,0:0:0:0:
147,329,48009,6,0,P|108:306|142:226,1,149.25,2|0,0:0|0:0,0:0:0:0:
331,222,48508,2,0,L|431:225,1,99.5,2|0,0:0|0:0,0:0:0:0:
360,170,48883,1,0,0:0:0:0:
239,97,49008,1,2,0:0:0:0:
294,94,49133,1,2,0:0:0:0:
350,92,49258,1,2,0:0:0:0:
130,330,49508,1,2,0:0:0:0:
53,315,49633,1,2,0:0:0:0:
17,246,49758,1,2,0:0:0:0:
51,177,49883,1,0,0:0:0:0:
242,148,50008,6,0,L|393:145,1,149.25,2|0,0:0|0:0,0:0:0:0:
198,314,50508,2,0,L|94:309,1,99.5,2|2,0:0|0:0,0:0:0:0:
169,264,50883,1,2,0:0:0:0:
290,242,51008,2,0,L|293:193,1,49.75,2|2,0:0|0:0,0:0:0:0:
223,169,51257,1,2,0:0:0:0:
442,302,51507,1,2,0:0:0:0:
482,236,51632,1,2,0:0:0:0:
461,161,51757,1,2,0:0:0:0:
392,126,51882,1,2,0:0:0:0:
199,293,52007,6,0,P|158:272|202:202,1,149.25,2|0,0:0|0:0,0:0:0:0:
392,185,52507,2,0,L|293:183,1,99.5,2|2,0:0|0:0,0:0:0:0:
222,176,52882,1,0,0:0:0:0:
342,94,53007,2,0,L|391:92,2,49.75,2|2|2,0:0|0:0|0:0,0:0:0:0:
122,293,53507,2,0,L|125:244,1,49.75,2|2,0:0|0:0,0:0:0:0:
206,234,53757,2,0,L|209:185,1,49.75,2|2,0:0|0:0,0:0:0:0:
18,139,54007,5,2,0:0:0:0:
307,301,55130,5,0,3:0:0:0:
307,301,55243,1,0,3:0:0:0:
118,49,55367,1,0,3:0:0:0:
50,90,55492,1,0,3:0:0:0:
26,164,55617,1,0,3:0:0:0:
54,236,55742,1,0,3:0:0:0:
121,276,55867,1,0,3:0:0:0:
314,280,55992,6,0,L|414:276,1,99.5,8|0,3:0|0:0,0:0:0:0:
194,211,56491,2,0,L|189:104,1,99.5,8|2,1:0|0:0,0:0:0:0:
260,87,56866,1,8,1:0:0:0:
381,80,56991,2,0,L|430:83,2,49.75,0|8|8,0:0|1:0|3:0,0:0:0:0:
182,207,57491,2,0,L|232:205,1,49.75,8|0,1:0|0:0,0:0:0:0:
342,198,57741,1,0,3:0:0:0:
22,337,57991,6,0,L|18:236,1,99.5,8|0,3:0|3:0,0:0:0:0:
239,140,58491,2,0,L|139:137,1,99.5,8|0,1:0|3:0,0:0:0:0:
210,83,58866,1,8,1:0:0:0:
330,232,58991,2,0,L|333:180,1,49.75,0|8,0:0|1:0,0:0:0:0:
262,160,59240,1,8,3:0:0:0:
42,231,59490,2,0,L|38:130,1,99.5,8|0,1:0|3:0,0:0:0:0:
109,99,59865,1,0,0:0:0:0:
321,85,59990,6,0,L|421:88,1,99.5,8|0,3:0|3:0,0:0:0:0:
200,212,60490,2,0,L|300:209,1,99.5,8|0,1:0|0:0,0:0:0:0:
370,204,60865,1,8,1:0:0:0:
489,124,60990,2,0,L|439:122,2,49.75,0|8|8,0:0|1:0|3:0,0:0:0:0:
286,301,61490,1,8,1:0:0:0:
345,299,61615,1,0,0:0:0:0:
405,297,61740,1,0,3:0:0:0:
85,204,61990,5,8,3:0:0:0:
282,284,63364,5,0,0:0:0:0:
162,265,63489,2,0,L|150:216,2,49.75,8|8|8,0:0|0:0|3:0,0:0:0:0:
482,225,63989,6,0,L|486:124,1,99.5,8|0,3:0|0:0,0:0:0:0:
266,65,64489,2,0,L|365:61,1,99.5,8|2,1:0|0:0,0:0:0:0:
295,146,64864,1,8,1:0:0:0:
175,228,64989,2,0,L|172:179,1,49.75,0|8,0:0|1:0,0:0:0:0:
242,158,65238,1,8,3:0:0:0:
42,139,65488,2,0,L|39:90,1,49.75,8|0,1:0|0:0,0:0:0:0:
109,69,65738,1,0,3:0:0:0:
430,256,65988,6,0,L|329:253,1,99.5,8|0,3:0|3:0,0:0:0:0:
112,154,66488,2,0,L|213:151,1,99.5,8|0,1:0|3:0,0:0:0:0:
282,147,66863,1,8,1:0:0:0:
403,142,66988,2,0,L|452:143,2,49.75,0|8|8,0:0|1:0|3:0,0:0:0:0:
183,277,67488,2,0,L|82:274,1,99.5,8|0,1:0|3:0,0:0:0:0:
154,222,67863,1,0,0:0:0:0:
344,128,67988,6,0,L|243:125,1,99.5,8|0,3:0|3:0,0:0:0:0:
465,316,68487,2,0,L|468:215,1,99.5,8|0,1:0|0:0,0:0:0:0:
397,202,68862,1,8,1:0:0:0:
277,179,68987,2,0,L|275:126,1,49.75,0|8,0:0|1:0,0:0:0:0:
345,113,69237,1,8,3:0:0:0:
126,63,69487,2,0,L|75:66,2,49.75,8|0|0,1:0|0:0|3:0,0:0:0:0:
448,162,69987,5,8,3:0:0:0:
227,335,71992,6,0,L|223:137,1,199,2|2,0:0|0:0,0:0:0:0:
323,112,72741,1,0,0:0:0:0:
103,199,72997,2,0,L|101:100,1,99.5,0|2,0:0|0:0,0:0:0:0:
450,41,73984,1,2,0:0:0:0:
151,289,75977,6,0,L|352:283,1,199,2|2,0:0|0:0,0:0:0:0:
250,200,76733,1,0,0:0:0:0:
469,192,76987,2,0,L|471:93,1,99.5,0|2,0:0|0:0,0:0:0:0:
122,34,77986,1,2,0:0:0:0:
285,335,79998,6,0,L|289:137,1,199,2|2,0:0|0:0,0:0:0:0:
189,112,80723,1,0,0:0:0:0:
409,199,80981,2,0,L|411:100,1,99.5,0|2,0:0|0:0,0:0:0:0:
62,41,81997,1,2,0:0:0:0:
404,315,83989,6,0,P|427:285|372:203,1,149.25,2|0,0:0|0:0,0:0:0:0:
183,202,84497,2,0,L|178:102,1,99.5,2|0,0:0|0:0,0:0:0:0:
248,79,84878,1,0,0:0:0:0:
368,87,85005,2,0,L|417:90,1,49.75,2|2,0:0|0:0,0:0:0:0:
419,132,85236,1,2,0:0:0:0:
184,324,85487,1,2,0:0:0:0:
119,311,85603,1,2,0:0:0:0:
98,244,85720,1,2,0:0:0:0:
123,177,85837,1,2,0:0:0:0:
348,165,85988,6,0,P|378:142|340:55,1,149.25,2|0,0:0|0:0,0:0:0:0:
222,247,86500,2,0,L|321:245,1,99.5,2|2,0:0|0:0,0:0:0:0:
250,204,86885,1,0,0:0:0:0:
131,109,87013,2,0,L|80:106,2,49.75,2|2|2,0:0|0:0|0:0,0:0:0:0:
351,345,87519,1,0,0:0:0:0:
402,286,87643,1,2,0:0:0:0:
394,209,87768,1,2,0:0:0:0:
333,162,87892,1,2,0:0:0:0:
142,79,88017,6,0,L|291:74,1,149.25,2|0,0:0|0:0,0:0:0:0:
171,230,88515,2,0,L|72:228,1,99.5,2|2,0:0|0:0,0:0:0:0:
143,187,88889,1,0,0:0:0:0:
252,159,89013,2,0,L|256:109,1,49.75,2|2,0:0|0:0,0:0:0:0:
186,92,89262,1,2,0:0:0:0:
406,332,89512,1,0,0:0:0:0:
457,274,89636,1,2,0:0:0:0:
446,199,89761,1,2,0:0:0:0:
378,162,89885,1,2,0:0:0:0:
168,157,90010,1,2,0:0:0:0:
360,293,91125,6,0,L|363:241,1,49.75,0|0,3:0|3:0,0:0:0:0:
170,297,91374,1,0,3:0:0:0:
156,219,91498,1,0,3:0:0:0:
182,145,91623,1,0,3:0:0:0:
242,94,91747,1,0,3:0:0:0:
320,80,91872,1,0,3:0:0:0:
125,37,91993,6,0,L|25:34,1,99.5,8|0,3:0|0:0,0:0:0:0:
246,303,92492,2,0,L|249:203,1,99.5,8|2,1:0|0:0,0:0:0:0:
179,186,92867,1,8,1:0:0:0:
299,146,92992,2,0,L|349:148,2,49.75,0|8|8,0:0|1:0|3:0,0:0:0:0:
79,94,93492,2,0,L|29:96,2,49.75,8|0|0,1:0|0:0|3:0,0:0:0:0:
400,263,93992,6,0,L|300:260,1,99.5,8|0,3:0|3:0,0:0:0:0:
500,165,94492,2,0,L|400:162,1,99.5,8|0,1:0|3:0,0:0:0:0:
329,158,94867,1,8,1:0:0:0:
208,156,94992,2,0,L|158:158,2,49.75,0|8|0,0:0|1:0|0:0,0:0:0:0:
427,342,95491,2,0,L|430:242,1,99.5,8|0,1:0|3:0,0:0:0:0:
358,229,95866,1,0,3:0:0:0:
163,215,95991,6,0,L|63:212,1,99.5,8|0,3:0|3:0,0:0:0:0:
283,100,96491,2,0,L|383:97,1,99.5,8|0,1:0|0:0,0:0:0:0:
312,51,96866,1,8,1:0:0:0:
191,159,96991,2,0,L|189:109,1,49.75,0|8,0:0|1:0,0:0:0:0:
259,88,97241,1,8,3:0:0:0:
481,184,97491,2,0,L|491:136,2,49.75,8|0|0,1:0|0:0|3:0,0:0:0:0:
159,291,97991,1,8,3:0:0:0:
334,283,99365,5,0,0:0:0:0:
453,256,99490,2,0,L|465:208,2,49.75,8|8|8,0:0|0:0|3:0,0:0:0:0:
133,268,99990,6,0,L|129:165,1,99.5,8|0,3:0|0:0,0:0:0:0:
349,70,100490,2,0,L|246:66,1,99.5,8|2,1:0|0:0,0:0:0:0:
320,140,100865,1,8,1:0:0:0:
435,235,100990,2,0,L|486:232,2,49.75,0|8|8,0:0|1:0|3:0,0:0:0:0:
236,332,101489,2,0,L|288:329,1,49.75,8|0,1:0|0:0,0:0:0:0:
396,326,101739,1,0,3:0:0:0:
76,214,101989,6,0,L|179:210,1,99.5,8|0,3:0|3:0,0:0:0:0:
395,193,102489,2,0,L|398:93,1,99.5,8|0,1:0|3:0,0:0:0:0:
328,82,102864,1,8,1:0:0:0:
208,71,102989,1,0,0:0:0:0:
263,68,103114,1,8,1:0:0:0:
319,66,103239,1,0,0:0:0:0:
98,268,103489,2,0,L|94:168,1,99.5,8|0,1:0|3:0,0:0:0:0:
165,157,103864,1,0,3:0:0:0:
376,193,103989,6,0,L|379:93,1,99.5,8|0,3:0|3:0,0:0:0:0:
160,54,104488,2,0,L|263:50,1,99.5,8|0,1:0|0:0,0:0:0:0:
189,122,104863,1,8,1:0:0:0:
69,273,104988,2,0,L|67:223,1,49.75,0|8,0:0|1:0,0:0:0:0:
137,202,105238,1,8,3:0:0:0:
336,92,105488,2,0,L|284:89,1,49.75,8|0,1:0|0:0,0:0:0:0:
176,86,105738,1,0,3:0:0:0:
495,262,105988,5,8,3:0:0:0:
207,336,107987,6,0,P|171:306|216:226,1,149.25,8|0,3:0|0:0,0:0:0:0:
403,217,108487,2,0,L|406:116,1,99.5,8|2,1:0|0:0,0:0:0:0:
335,99,108862,1,8,0:0:0:0:
214,85,108987,2,0,L|162:87,2,49.75,2|8|8,0:0|0:0|3:0,0:0:0:0:
434,318,109487,1,8,1:0:0:0:
483,258,109611,1,2,0:0:0:0:
474,182,109736,1,2,0:0:0:0:
410,137,109861,1,2,0:0:0:0:
218,127,109987,6,0,L|119:124,1,99.5,8|2,3:0|0:2,0:0:0:0:
338,326,110486,2,0,L|341:227,1,99.5,8|2,1:0|0:0,0:0:0:0:
271,213,110861,1,2,0:0:0:0:
391,173,110986,2,0,L|440:174,2,49.75,2|0|8,0:0|1:0|3:0,0:0:0:0:
171,85,111486,2,0,L|270:82,1,99.5,8|2,1:0|3:2,0:0:0:0:
341,82,111861,1,0,3:0:0:0:
131,308,111986,6,0,P|90:299|102:211,1,149.25,8|0,3:0|0:0,0:0:0:0:
291,238,112486,2,0,L|293:138,1,99.5,8|2,1:0|0:0,0:0:0:0:
223,125,112861,1,8,0:0:0:0:
343,95,112986,2,0,L|392:97,2,49.75,2|8|8,0:0|0:0|3:0,0:0:0:0:
124,323,113485,1,8,1:0:0:0:
75,263,113609,1,0,0:0:0:0:
84,187,113734,1,2,0:2:0:0:
148,142,113859,1,2,0:0:0:0:
359,131,113985,5,8,3:0:0:0:
163,298,115360,5,0,0:0:0:0:
44,274,115485,2,0,L|34:226,2,49.75,8|8|8,0:0|0:0|3:0,0:0:0:0:
369,262,115985,6,0,P|402:246|366:160,1,149.25,8|0,3:0|0:0,0:0:0:0:
181,141,116484,2,0,L|82:138,1,99.5,8|2,1:0|0:0,0:0:0:0:
152,94,116859,1,8,0:0:0:0:
272,71,116984,2,0,L|321:68,2,49.75,2|8|8,0:0|0:0|3:0,0:0:0:0:
52,340,117484,1,8,1:0:0:0:
23,266,117608,1,2,0:0:0:0:
52,192,117733,1,2,0:0:0:0:
120,157,117858,1,2,0:0:0:0:
314,144,117984,6,0,L|415:140,1,99.5,8|2,3:0|0:2,0:0:0:0:
194,263,118484,2,0,L|295:259,1,99.5,8|2,1:0|0:0,0:0:0:0:
364,255,118859,1,2,0:0:0:0:
484,200,118984,2,0,L|433:197,2,49.75,2|0|8,0:0|1:0|3:0,0:0:0:0:
265,177,119483,2,0,L|262:126,1,49.75,8|0,1:0|0:0,0:0:0:0:
343,118,119733,2,0,L|340:67,1,49.75,2|0,3:2|3:0,0:0:0:0:
142,41,119983,6,0,P|89:55|85:138,1,149.25,8|0,3:0|0:0,0:0:0:0:
277,193,120483,2,0,L|379:188,1,99.5,8|2,1:0|0:0,0:0:0:0:
306,142,120858,1,8,0:0:0:0:
186,124,120983,2,0,L|136:128,2,49.75,2|8|8,0:0|0:0|3:0,0:0:0:0:
406,347,121483,1,8,1:0:0:0:
465,298,121607,1,0,0:0:0:0:
461,221,121732,1,2,0:2:0:0:
398,178,121857,1,2,0:0:0:0:
185,168,121983,5,8,3:0:0:0:
256,192,123684,12,0,131931,0:0:0:0:
