osu file format v14

[General]
AudioFilename: audio.mp3
AudioLeadIn: 0
PreviewTime: 99865
Countdown: 0
SampleSet: Soft
StackLeniency: 0.7
Mode: 2
LetterboxInBreaks: 0
WidescreenStoryboard: 1

[Editor]
DistanceSpacing: 1.4
BeatDivisor: 4
GridSize: 4
TimelineZoom: 1.499999

[Metadata]
Title:Doradura
TitleUnicode:Дорадура
Artist:dora
ArtistUnicode:дора
Creator:Nelly
Version:Cup
Source:
Tags:wajinshu terton dura дура mental affection старшая сестра russian cute rock pop русский кьют рок поп
BeatmapID:2785749
BeatmapSetID:1342172

[Difficulty]
HPDrainRate:3
CircleSize:2.4
OverallDifficulty:6
ApproachRate:6
SliderMultiplier:1.4
SliderTickRate:1

[Events]
//Background and Video events
0,0,"doradura.jpg",0,0
//Break Periods
//Storyboard Layer 0 (Background)
//Storyboard Layer 1 (Fail)
//Storyboard Layer 2 (Pass)
//Storyboard Layer 3 (Foreground)
//Storyboard Layer 4 (Overlay)
//Storyboard Sound Samples

[TimingPoints]
10,499.833388870377,4,2,1,50,1,0
8017,474.308300395257,4,2,1,50,1,0
8017,-100,4,2,1,50,0,0
8992,499.98333388887,4,2,1,50,1,0
12034,472.426065320777,4,2,1,50,1,0
12993,499.98333388887,4,2,1,50,1,0
14001,499.98333388887,4,2,1,50,1,0
16002,499.833388870377,4,2,1,70,1,0
18011,499.833388870377,4,2,1,70,1,0
22017,499.833388870377,4,2,1,70,1,0
23121,499.833388870377,4,2,1,70,1,0
23986,499.833388870377,4,2,1,66,1,1
23986,-100,4,2,1,66,0,1
30000,499.833388870377,4,2,1,66,1,0
30000,-100,4,2,1,66,0,0
31499,-100,4,2,2,40,0,0
31749,-100,4,2,2,45,0,0
31999,-100,4,2,1,66,0,1
37747,-100,4,2,1,40,0,0
39496,529.614264277518,4,2,1,40,1,0
40026,462.249614791988,4,2,1,50,1,0
40488,499.833388870377,4,2,1,50,1,0
42003,499.833388870377,4,2,1,50,1,0
44012,476.039352586481,4,2,1,50,1,0
44012,-100,4,2,1,50,0,0
44488,-100,4,2,1,50,0,0
44986,499.833388870377,4,2,1,50,1,0
45235,-100,4,2,1,50,0,0
45985,-100,4,2,1,50,0,0
48009,499.833388870377,4,2,1,70,1,0
55243,499.833388870377,4,2,1,70,1,0
55992,499.833388870377,4,2,1,66,1,1
55992,-100,4,2,1,66,0,1
61990,-100,4,2,1,66,0,0
63489,-100,4,2,2,40,0,0
63739,-100,4,2,2,45,0,0
63989,-100,4,2,1,66,0,1
69987,-100,4,2,1,66,0,0
71992,499.833388870377,4,2,1,50,1,0
71992,-100,4,2,1,50,0,0
72997,479.846449136277,4,2,1,50,1,0
73984,479.846449136277,4,3,1,50,1,0
75977,504.032258064517,4,3,1,50,1,0
76987,499.833388870377,4,3,1,50,1,0
79998,483.714930667527,4,3,1,50,1,0
80981,508.302270416808,4,3,1,50,1,0
83989,508.474576271186,4,2,1,70,1,0
85236,535.714285714286,4,2,1,70,1,0
85487,467.836257309942,4,2,1,70,1,0
85988,512.820512820513,4,2,1,70,1,0
87270,498.338870431894,4,2,1,70,1,0
88017,498.338870431894,4,2,1,70,1,0
91125,498.338870431894,4,2,1,70,1,0
91993,499.833388870377,4,2,1,66,1,1
91993,-100,4,2,1,66,0,1
97991,-100,4,2,1,66,0,0
99490,-100,4,2,2,40,0,0
99740,-100,4,2,2,45,0,0
99990,-100,4,2,1,66,0,1
105988,-100,4,2,1,66,0,0
107987,-100,4,2,1,70,0,0
115485,-100,4,2,2,40,0,0
115735,-100,4,2,2,45,0,0
115985,-100,4,2,1,70,0,0
123684,499.833388870377,4,2,1,35,1,0
123684,-100,4,2,1,35,0,0
125933,-100,4,2,1,25,0,0
127932,-100,4,2,1,15,0,0
129931,-100,4,2,1,10,0,0
131931,-100,4,2,1,5,0,0

[Colours]
Combo1 : 129,224,112
Combo2 : 255,102,0
Combo3 : 255,94,255
Combo4 : 45,203,255

[HitObjects]
192,325,8017,6,0,P|166:306|194:215,1,140,2|2,0:0|0:0,0:0:0:0:
359,200,8992,2,0,L|361:129,1,70,0|2,0:0|0:0,0:0:0:0:
151,80,9991,1,2,0:0:0:0:
368,332,12034,6,0,L|372:191,1,140,2|2,0:0|0:0,0:0:0:0:
204,192,12993,2,0,L|202:121,1,70,0|2,0:0|0:0,0:0:0:0:
454,61,14001,1,2,0:0:0:0:
111,325,16002,6,0,P|86:302|125:221,1,140,2|2,0:0|0:0,0:0:0:0:
293,223,17001,2,0,L|296:152,1,70,2|2,0:0|0:0,0:0:0:0:
183,156,17501,2,0,L|186:85,1,70,2|2,0:0|0:0,0:0:0:0:
299,41,18011,6,0,P|332:51|334:145,1,140,2|2,0:0|0:0,0:0:0:0:
169,242,19010,2,0,L|96:239,1,70,2|2,0:0|0:0,0:0:0:0:
212,352,19510,2,0,L|214:282,1,70,2|2,0:0|0:0,0:0:0:0:
328,247,20010,6,0,L|469:245,1,140,2|2,0:0|0:0,0:0:0:0:
299,206,21010,2,0,L|296:135,1,70,2|2,0:0|0:0,0:0:0:0:
409,139,21509,2,0,L|406:68,1,70,2|2,0:0|0:0,0:0:0:0:
293,64,22017,5,2,0:0:0:0:
176,223,23121,5,0,3:0:0:0:
120,230,23245,2,0,L|50:233,2,70,0|0|0,3:0|3:0|3:0,0:0:0:0:
233,243,23986,6,0,P|262:235|312:143,1,140,8|8,3:0|1:0,0:0:0:0:
200,84,24735,2,0,L|128:82,2,70,2|0|8,0:0|0:0|3:0,0:0:0:0:
314,95,25485,2,0,L|315:164,1,70,8|0,1:0|3:0,0:0:0:0:
203,260,25985,6,0,L|346:257,1,140,8|8,3:0|1:0,0:0:0:0:
456,232,26735,2,0,L|457:162,1,70,0|0,3:0|0:0,0:0:0:0:
345,115,27234,1,8,3:0:0:0:
233,139,27484,2,0,L|231:69,1,70,8|0,1:0|3:0,0:0:0:0:
344,41,27984,6,0,P|376:52|345:126,1,140,8|8,3:0|1:0,0:0:0:0:
232,152,28734,2,0,L|230:221,1,70,0|0,0:0|0:0,0:0:0:0:
343,269,29233,1,8,3:0:0:0:
230,312,29484,2,0,L|161:309,1,70,8|0,1:0|3:0,0:0:0:0:
273,242,29984,5,8,3:0:0:0:
84,222,31499,6,0,L|82:151,1,70,8|8,0:0|3:0,0:0:0:0:
195,100,31999,6,0,L|337:97,1,140,8|8,3:0|1:0,0:0:0:0:
448,210,32749,1,2,0:0:0:0:
357,208,32998,1,0,0:0:0:0:
266,218,33248,1,8,3:0:0:0:
378,208,33498,2,0,L|380:136,1,70,8|0,1:0|3:0,0:0:0:0:
267,73,33998,6,0,P|238:81|188:172,1,140,8|8,3:0|1:0,0:0:0:0:
301,217,34748,1,0,3:0:0:0:
413,246,34998,2,0,L|416:168,1,70,0|8,0:0|3:0,0:0:0:0:
303,154,35498,2,0,L|300:76,1,70,8|0,1:0|3:0,0:0:0:0:
188,178,35998,6,0,P|188:141|264:82,1,140,8|8,3:0|1:0,0:0:0:0:
375,187,36747,2,0,L|378:116,1,70
265,90,37247,1,8,3:0:0:0:
153,76,37497,2,0,L|151:152,1,70,8|0,1:0|3:0,0:0:0:0:
396,327,40026,6,0,P|401:292|328:226,1,140,2|2,0:0|0:0,0:0:0:0:
164,210,40987,2,0,L|94:214,1,70,0|2,0:0|0:0,0:0:0:0:
351,99,42003,1,0,0:0:0:0:
124,315,44012,6,0,P|87:291|127:214,1,140,2|2,0:0|0:0,0:0:0:0:
287,178,44986,2,0,L|290:107,1,70,0|2,0:0|0:0,0:0:0:0:
38,71,45985,1,2,0:0:0:0:
390,318,48009,6,0,P|427:310|448:215,1,140,2|2,0:0|0:0,0:0:0:0:
285,164,49008,2,0,L|215:162,1,70,2|2,0:0|0:0,0:0:0:0:
328,332,49508,2,0,L|330:262,1,70,2|2,0:0|0:0,0:0:0:0:
217,266,50008,6,0,P|180:258|159:163,1,140,2|2,0:0|0:0,0:0:0:0:
323,77,51008,2,0,L|253:75,1,70,2|2,0:0|0:0,0:0:0:0:
141,198,51507,2,0,L|139:128,1,70,2|2,0:0|0:0,0:0:0:0:
252,205,52007,6,0,L|391:201,1,140,2|2,0:0|0:0,0:0:0:0:
224,341,53007,2,0,L|221:270,1,70,2|2,0:0|0:0,0:0:0:0:
334,274,53507,2,0,L|331:203,1,70,2|2,0:0|0:0,0:0:0:0:
217,168,54007,5,2,0:0:0:0:
348,172,55130,5,0,3:0:0:0:
404,164,55243,2,0,L|474:161,2,70,0|0|0,3:0|3:0|3:0,0:0:0:0:
291,298,55992,6,0,L|434:292,1,140,8|8,3:0|1:0,0:0:0:0:
318,203,56742,2,0,L|248:200,2,70,2|0|8,0:0|0:0|3:0,0:0:0:0:
206,115,57491,2,0,L|203:45,1,70,8|0,1:0|3:0,0:0:0:0:
316,27,57991,6,0,P|350:41|319:119,1,140,8|8,3:0|1:0,0:0:0:0:
209,116,58741,1,0,3:0:0:0:
96,113,58991,2,0,L|93:187,1,70,0|8,0:0|3:0,0:0:0:0:
207,216,59491,2,0,L|210:290,1,70,8|0,1:0|3:0,0:0:0:0:
96,320,59991,6,0,P|59:297|88:216,1,140,8|8,3:0|1:0,0:0:0:0:
196,199,60740,2,0,L|280:197,2,70,0|0|8,0:0|0:0|3:0,0:0:0:0:
309,359,61490,2,0,L|312:289,1,70,8|0,1:0|3:0,0:0:0:0:
199,268,61990,5,8,3:0:0:0:
474,232,63489,6,0,L|477:162,1,70,8|8,0:0|3:0,0:0:0:0:
364,113,63989,6,0,L|224:110,1,140,8|8,3:0|1:0,0:0:0:0:
111,125,64739,2,0,L|108:195,1,70,2|0,0:0|0:0,0:0:0:0:
220,211,65239,1,8,3:0:0:0:
331,319,65489,2,0,L|261:322,1,70,8|0,1:0|3:0,0:0:0:0:
147,322,65989,6,0,P|113:267|160:223,1,140,8|8,3:0|1:0,0:0:0:0:
274,183,66738,1,0,3:0:0:0:
163,131,66988,2,0,L|93:134,1,70,0|8,0:0|3:0,0:0:0:0:
206,295,67488,2,0,L|209:225,1,70,8|0,1:0|3:0,0:0:0:0:
96,259,67988,6,0,P|52:239|66:153,1,140,8|8,3:0|1:0,0:0:0:0:
171,145,68738,1,0,0:0:0:0:
283,136,68988,2,0,L|280:66,1,70,0|8,0:0|3:0,0:0:0:0:
168,223,69487,2,0,L|165:153,1,70,8|0,1:0|3:0,0:0:0:0:
52,110,69987,5,8,3:0:0:0:
368,332,71992,6,0,L|372:191,1,140,2|2,0:0|0:0,0:0:0:0:
204,192,72997,2,0,L|202:121,1,70,0|2,0:0|0:0,0:0:0:0:
454,61,73984,1,2,0:0:0:0:
118,295,75977,6,0,L|263:292,1,140,2|2,0:0|0:0,0:0:0:0:
427,190,76987,2,0,L|355:188,1,70,0|2,0:0|0:0,0:0:0:0:
104,192,77986,1,2,0:0:0:0:
343,332,79998,6,0,P|369:313|341:222,1,140,2|2,0:0|0:0,0:0:0:0:
176,207,80981,2,0,L|174:136,1,70,0|2,0:0|0:0,0:0:0:0:
384,87,81997,1,2,0:0:0:0:
95,327,83989,6,0,P|56:304|95:231,1,140,2|2,0:0|0:0,0:0:0:0:
256,201,85005,1,2,0:0:0:0:
256,142,85236,1,2,0:0:0:0:
162,157,85487,1,2,0:0:0:0:
163,87,85720,1,2,0:0:0:0:
280,51,85988,6,0,L|419:48,1,140,2|2,0:0|0:0,0:0:0:0:
308,154,86757,1,2,0:0:0:0:
420,272,87013,2,0,L|422:198,1,70,2|2,0:0|0:0,0:0:0:0:
309,230,87519,2,0,L|311:156,1,70,0|2,0:0|0:0,0:0:0:0:
198,111,88017,6,0,P|170:120|193:204,1,140,2|2,0:0|0:0,0:0:0:0:
359,306,89013,2,0,L|287:303,1,70,2|2,0:0|0:0,0:0:0:0:
177,272,89512,2,0,L|175:198,1,70,0|2,0:0|0:0,0:0:0:0:
287,167,90010,5,2,0:0:0:0:
149,120,91125,5,0,3:0:0:0:
93,112,91249,2,0,L|23:109,2,70,0|0|0,3:0|3:0|3:0,0:0:0:0:
206,260,91993,6,0,P|236:247|217:160,1,140,8|8,3:0|1:0,0:0:0:0:
105,79,92742,2,0,L|179:78,1,70,2|0,0:0|0:0,0:0:0:0:
287,84,93242,1,8,3:0:0:0:
399,195,93492,2,0,L|325:194,1,70,8|0,1:0|3:0,0:0:0:0:
216,304,93992,6,0,P|179:290|202:204,1,140,8|8,3:0|1:0,0:0:0:0:
306,185,94742,2,0,L|310:114,1,70,0|0,3:0|0:0,0:0:0:0:
200,91,95241,1,0,0:0:0:0:
312,70,95491,2,0,L|384:68,1,70,8|0,1:0|3:0,0:0:0:0:
269,160,95991,6,0,P|218:169|229:248,1,140,8|8,3:0|1:0,0:0:0:0:
335,277,96741,2,0,L|405:275,2,70,0|0|8,0:0|0:0|3:0,0:0:0:0:
222,182,97491,2,0,L|292:180,1,70,8|0,1:0|3:0,0:0:0:0:
405,180,97991,5,8,3:0:0:0:
149,321,99490,6,0,L|145:251,1,70,8|8,0:0|3:0,0:0:0:0:
258,205,99990,6,0,L|398:200,1,140,8|8,3:0|1:0,0:0:0:0:
285,107,100740,2,0,L|215:105,2,70,2|0|8,0:0|0:0|3:0,0:0:0:0:
398,362,101490,2,0,L|400:292,1,70,8|0,1:0|3:0,0:0:0:0:
287,271,101989,6,0,P|246:262|232:175,1,140,8|8,3:0|1:0,0:0:0:0:
343,159,102739,1,0,3:0:0:0:
231,155,102989,2,0,L|228:85,1,70,0|0,0:0|0:0,0:0:0:0:
341,44,103489,2,0,L|411:42,1,70,8|0,1:0|3:0,0:0:0:0:
298,266,103989,6,0,P|294:230|365:165,1,140,8|8,3:0|1:0,0:0:0:0:
476,154,104738,2,0,L|479:85,1,70,0|0,0:0|0:0,0:0:0:0:
366,74,105238,1,8,3:0:0:0:
254,226,105488,2,0,L|251:157,1,70,8|0,1:0|3:0,0:0:0:0:
366,74,105988,5,8,3:0:0:0:
99,316,107987,6,0,P|67:295|101:213,1,140,8|8,3:0|1:0,0:0:0:0:
208,209,108737,1,2,0:0:0:0:
319,204,108987,2,0,L|390:207,2,70,2|8|8,0:0|3:0|1:0,0:0:0:0:
208,209,109737,1,2,0:0:0:0:
319,311,109987,6,0,P|336:289|288:206,1,140,8|8,3:0|1:0,0:0:0:0:
175,198,110736,1,2,0:0:0:0:
287,188,110986,2,0,L|289:116,1,70,2|8,0:0|3:0,0:0:0:0:
402,171,111486,2,0,L|404:99,1,70,8|2,1:0|3:2,0:0:0:0:
291,81,111986,6,0,L|152:78,1,140,8|8,3:0|1:0,0:0:0:0:
38,232,112736,2,0,L|36:157,1,70,2|2,0:0|0:0,0:0:0:0:
148,163,113235,1,8,3:0:0:0:
260,339,113485,2,0,L|262:264,1,70,8|2,1:0|0:2,0:0:0:0:
149,258,113985,5,8,3:0:0:0:
457,274,115485,6,0,L|459:199,1,70,8|8,0:0|3:0,0:0:0:0:
346,136,115985,6,0,P|297:142|290:222,1,140,8|8,3:0|1:0,0:0:0:0:
401,257,116734,1,2,0:0:0:0:
288,319,116984,2,0,L|218:317,1,70,2|8,0:0|3:0,0:0:0:0:
105,293,117484,2,0,L|103:223,1,70,8|2,1:0|0:0,0:0:0:0:
216,180,117984,6,0,L|366:176,1,140,8|8,3:0|1:0,0:0:0:0:
468,170,118734,1,2,0:0:0:0:
356,337,118984,2,0,L|354:267,1,70,2|8,0:0|3:0,0:0:0:0:
242,297,119483,2,0,L|240:227,1,70,8|2,1:0|3:2,0:0:0:0:
353,200,119983,6,0,P|364:171|301:97,1,140,8|8,3:0|1:0,0:0:0:0:
189,89,120733,2,0,L|120:91,2,70,2|2|8,0:0|0:0|3:0,0:0:0:0:
302,273,121483,2,0,L|304:203,1,70,8|2,1:0|0:2,0:0:0:0:
191,183,121983,5,8,3:0:0:0:
256,192,123684,12,0,131931,0:0:0:0:
