osu file format v14

[General]
AudioFilename: audio.mp3
AudioLeadIn: 0
PreviewTime: -1
Countdown: 1
SampleSet: None
StackLeniency: 0.9
Mode: 0
LetterboxInBreaks: 0
WidescreenStoryboard: 0

[Editor]
DistanceSpacing: 1
BeatDivisor: 4
GridSize: 4
TimelineZoom: 0.5

[Metadata]
Title:Stay Alive
TitleUnicode:Stay Alive
Artist:dont know
ArtistUnicode:dont know
Creator:nuvasek
Version:pretty hardcore
Source:
Tags:re:zero
BeatmapID:1027752
BeatmapSetID:481565

[Difficulty]
HPDrainRate:7
CircleSize:4
OverallDifficulty:6
ApproachRate:9.5
SliderMultiplier:1.5
SliderTickRate:1

[Events]
//Background and Video events
//Break Periods
2,39841,46812
//Storyboard Layer 0 (Background)
//Storyboard Layer 1 (Fail)
//Storyboard Layer 2 (Pass)
//Storyboard Layer 3 (Foreground)
//Storyboard Sound Samples

[TimingPoints]
529.36230756006,429.391768074445,4,3,0,100,1,0
14906.5845319027,399.356313993173,4,3,0,100,1,0
27828.0989761092,409.556313993174,4,3,0,100,1,0
27854.5989761092,409.556313993174,4,3,0,100,1,0
31144.5989761092,409.556313993174,4,3,0,100,1,0
39335,409.556313993174,4,3,0,100,1,0
41417,555.080281690139,4,3,0,100,1,0
47363,391.280281690137,4,3,0,100,1,1
47852,-52.6315789473684,4,3,0,100,0,1
76492,-100,4,3,0,100,0,0

[HitObjects]
132,60,3588,6,8,P|220:60|220:60,1,75
132,60,4018,1,8,0:0:0:0:
284,60,4447,1,2,0:0:0:0:
132,60,4876,1,10,0:0:0:0:
164,88,7023,2,2,L|252:104,6,75,10|2|10|2|10|2|10,0:0|0:0|0:0|0:0|0:0|0:0|0:0,0:0:0:0:
412,112,8956,1,8,0:0:0:0:
124,184,10405,2,2,L|200:184,2,75
108,152,11264,1,8,0:0:0:0:
292,232,11478,1,8,0:0:0:0:
288,36,11693,1,8,0:0:0:0:
175,224,13840,2,2,L|299:126,1,150
142,139,14484,2,8,L|62:210,1,75
176,112,15289,2,4,B|232:92|292:88|328:88|452:64,1,262.5,8|8,0:0|0:0,0:0:0:0:
451,67,16204,2,8,P|353:178|315:56,1,337.5
256,292,17702,1,10,0:0:0:0:
352,52,18101,2,10,B|398:160|478:128|318:132|319:131,1,150
136,100,18800,1,8,0:0:0:0:
192,100,18999,2,10,B|280:100|320:104,2,112.5
380,180,19798,5,8,0:0:0:0:
128,264,20198,2,10,L|332:268,1,187.5
208,256,21096,1,8,0:0:0:0:
80,72,21495,2,8,L|264:72,1,150
248,64,22494,1,8,0:0:0:0:
248,64,22893,2,8,P|380:160|292:244,1,300
316,236,23892,1,8,0:0:0:0:
172,72,24091,2,8,B|92:140|160:220,2,150
147,203,25090,1,10,0:0:0:0:
316,108,25289,2,8,B|416:164|304:320|280:304,1,225
300,300,25988,6,10,L|164:228,1,150
167,229,26687,1,8,0:0:0:0:
120,108,27086,1,2,0:0:0:0:
244,88,27486,2,2,L|448:144,1,187.5
152,172,28264,1,2,0:0:0:0:
152,172,28366,2,8,P|252:160|160:208,1,262.5
208,292,29595,2,8,L|312:172,1,150
308,172,30516,1,10,0:0:0:0:
308,172,30823,2,10,L|100:152,1,187.5
152,140,31861,1,8,0:0:0:0:
252,96,32270,6,10,P|352:72|416:196,1,262.5
412,200,33192,1,8,0:0:0:0:
360,228,33397,2,2,B|260:280|260:216|316:140,1,187.5
288,136,34318,1,10,0:0:0:0:
212,140,34830,2,2,P|80:212|128:332,1,300
124,320,35956,2,8,L|288:280,1,150
304,244,36980,1,10,0:0:0:0:
264,200,37492,2,8,L|160:112,1,112.5
164,104,38209,1,8,0:0:0:0:
200,60,39130,2,10,L|400:64,1,187.5
256,192,47337,5,10,0:0:0:0:
120,100,48145,2,0,P|248:108|312:208,1,237.499993658066
112,216,48667,1,0,0:0:0:0:
148,88,48928,2,0,P|300:88|376:204,1,284.999992389679
172,44,49449,1,0,0:0:0:0:
104,132,49775,2,0,P|124:240|332:188,1,379.999989852906
320,184,50395,1,0,0:0:0:0:
112,148,50591,2,0,P|192:68|232:236,1,356.249990487099
232,184,51471,2,0,B|104:120|160:84|36:296,1,284.999992389679
408,64,52058,1,0,0:0:0:0:
328,64,52351,2,0,P|168:92|92:232,1,284.999992389679
192,232,52840,2,0,P|244:144|332:180,1,213.749994292259
80,172,54112,2,0,L|80:256,1,71.2499980974198
224,192,54308,2,0,L|256:256,1,71.2499980974198
348,116,54503,2,0,L|440:160,1,71.2499980974198
80,236,55482,2,0,L|80:160,1,71.2499980974198
252,56,55873,6,0,L|252:128,1,71.2499980974198
416,244,56264,2,0,L|416:168,1,71.2499980974198
96,60,57145,2,0,L|96:136,1,71.2499980974198
256,336,57487,1,0,0:0:0:0:
372,64,58221,2,0,L|372:136,1,71.2499980974198
112,72,58905,1,0,0:0:0:0:
224,88,59199,2,0,L|296:84,1,71.2499980974198
216,216,59786,2,0,L|288:212,1,71.2499980974198
200,332,60275,2,0,L|284:328,1,71.2499980974198
56,68,60568,2,0,L|56:148,1,71.2499980974198
248,76,60959,2,0,L|244:152,1,71.2499980974198
380,64,61351,2,0,L|388:152,2,71.2499980974198
