osu file format v14

[General]
AudioFilename: audio.mp3
AudioLeadIn: 0
PreviewTime: -1
Countdown: 1
SampleSet: None
StackLeniency: 0.9
Mode: 0
LetterboxInBreaks: 0
WidescreenStoryboard: 1

[Editor]
DistanceSpacing: 1
BeatDivisor: 4
GridSize: 4
TimelineZoom: 0.5

[Metadata]
Title:Stay Alive
TitleUnicode:Stay Alive
Artist:dont know
ArtistUnicode:dont know
Creator:nuvasek
Version:EXTRASHIT
Source:
Tags:re:zero
BeatmapID:1027751
BeatmapSetID:481565

[Difficulty]
HPDrainRate:7
CircleSize:7
OverallDifficulty:6
ApproachRate:9
SliderMultiplier:1.5
SliderTickRate:1

[Events]
//Background and Video events
//Break Periods
2,36162,41590
//Storyboard Layer 0 (Background)
//Storyboard Layer 1 (Fail)
//Storyboard Layer 2 (Pass)
//Storyboard Layer 3 (Foreground)
//Storyboard Sound Samples

[TimingPoints]
529.36230756006,429.491768074445,4,3,0,100,1,0
48042,-100,4,3,0,100,0,1
76492,-100,4,3,0,100,0,0

[HitObjects]
132,60,3565,6,0,P|220:60|220:60,1,75
280,64,3997,1,0,0:0:0:0:
280,64,4428,1,0,0:0:0:0:
280,64,4860,1,10,0:0:0:0:
164,88,7030,2,2,L|252:104,6,75,10|2|10|2|10|2|10,0:0|0:0|0:0|0:0|0:0|0:0|0:0,0:0:0:0:
412,112,8961,1,8,0:0:0:0:
124,184,10407,2,0,L|200:184,2,75
216,140,11266,1,0,0:0:0:0:
48,28,11481,1,8,0:0:0:0:
444,164,11696,1,8,0:0:0:0:
248,188,13843,1,8,0:0:0:0:
176,112,14702,2,4,B|232:92|292:88|328:88|452:64,1,262.5,8|8,0:0|0:0,0:0:0:0:
88,72,16026,1,0,0:0:0:0:
97,87,16133,1,0,0:0:0:0:
109,100,16240,1,0,0:0:0:0:
124,110,16348,1,0,0:0:0:0:
140,118,16455,1,0,0:0:0:0:
158,123,16562,1,0,0:0:0:0:
175,126,16670,1,0,0:0:0:0:
193,129,16777,1,0,0:0:0:0:
211,131,16884,1,0,0:0:0:0:
229,133,16992,1,0,0:0:0:0:
246,136,17099,1,0,0:0:0:0:
264,141,17207,1,0,0:0:0:0:
280,149,17314,1,0,0:0:0:0:
292,162,17421,1,0,0:0:0:0:
293,180,17529,1,0,0:0:0:0:
286,196,17636,1,0,0:0:0:0:
275,210,17743,1,0,0:0:0:0:
262,223,17851,1,0,0:0:0:0:
248,234,17958,1,0,0:0:0:0:
243,241,18066,1,0,0:0:0:0:
259,232,18173,1,0,0:0:0:0:
274,223,18280,1,0,0:0:0:0:
289,213,18388,1,0,0:0:0:0:
304,203,18495,1,0,0:0:0:0:
318,192,18602,1,0,0:0:0:0:
331,179,18710,1,0,0:0:0:0:
343,165,18817,1,0,0:0:0:0:
351,149,18925,1,0,0:0:0:0:
347,133,19032,1,0,0:0:0:0:
329,130,19139,1,0,0:0:0:0:
312,134,19247,1,0,0:0:0:0:
296,143,19354,1,0,0:0:0:0:
281,153,19461,1,0,0:0:0:0:
269,166,19569,1,0,0:0:0:0:
259,181,19676,1,0,0:0:0:0:
254,198,19784,1,0,0:0:0:0:
257,216,19891,1,0,0:0:0:0:
267,231,19998,1,0,0:0:0:0:
282,241,20106,1,0,0:0:0:0:
299,247,20213,1,0,0:0:0:0:
316,249,20320,1,0,0:0:0:0:
329,243,20428,1,0,0:0:0:0:
313,235,20535,1,0,0:0:0:0:
296,231,20643,1,0,0:0:0:0:
278,227,20750,1,0,0:0:0:0:
260,225,20857,1,0,0:0:0:0:
242,222,20965,1,0,0:0:0:0:
224,220,21072,1,0,0:0:0:0:
206,219,21179,1,0,0:0:0:0:
188,217,21287,1,0,0:0:0:0:
171,216,21394,1,0,0:0:0:0:
153,215,21502,1,0,0:0:0:0:
135,214,21609,1,0,0:0:0:0:
117,213,21716,1,0,0:0:0:0:
99,212,21824,1,0,0:0:0:0:
81,212,21931,1,0,0:0:0:0:
114,211,22862,1,8,0:0:0:0:
309,59,23077,1,8,0:0:0:0:
343,304,23292,1,8,0:0:0:0:
114,211,23507,1,8,0:0:0:0:
309,59,23721,1,8,0:0:0:0:
343,304,23936,1,8,0:0:0:0:
114,211,24151,1,8,0:0:0:0:
309,59,24366,1,8,0:0:0:0:
343,304,24580,1,8,0:0:0:0:
114,211,24795,1,8,0:0:0:0:
309,59,25010,1,8,0:0:0:0:
343,304,25225,1,8,0:0:0:0:
114,211,25439,1,8,0:0:0:0:
309,59,25654,1,8,0:0:0:0:
343,304,25869,1,8,0:0:0:0:
160,298,28446,1,0,0:0:0:0:
149,96,28661,1,0,0:0:0:0:
351,85,28875,1,0,0:0:0:0:
362,287,29090,1,0,0:0:0:0:
160,298,29305,1,0,0:0:0:0:
149,96,29520,1,0,0:0:0:0:
351,85,29734,1,0,0:0:0:0:
362,287,29949,1,0,0:0:0:0:
160,298,30164,1,0,0:0:0:0:
149,96,30379,1,0,0:0:0:0:
351,85,30593,1,0,0:0:0:0:
362,287,30808,1,0,0:0:0:0:
160,298,31023,1,0,0:0:0:0:
149,96,31238,1,0,0:0:0:0:
351,85,31452,1,0,0:0:0:0:
362,287,31667,1,0,0:0:0:0:
160,298,31882,1,0,0:0:0:0:
149,96,32097,1,0,0:0:0:0:
351,85,32311,1,0,0:0:0:0:
362,287,32526,1,0,0:0:0:0:
160,298,32741,1,0,0:0:0:0:
149,96,32955,1,0,0:0:0:0:
351,85,33170,1,0,0:0:0:0:
362,287,33385,1,0,0:0:0:0:
160,298,33600,1,0,0:0:0:0:
149,96,33814,1,0,0:0:0:0:
351,85,34029,1,0,0:0:0:0:
362,287,34244,1,0,0:0:0:0:
160,298,34459,1,0,0:0:0:0:
149,96,34673,1,0,0:0:0:0:
351,85,34888,1,0,0:0:0:0:
362,287,35103,1,0,0:0:0:0:
160,298,35318,1,0,0:0:0:0:
149,96,35532,1,0,0:0:0:0:
351,85,35747,1,0,0:0:0:0:
362,287,35962,1,0,0:0:0:0:
104,160,42190,6,0,B|312:144|304:144,4,150
72,88,48095,1,0,0:0:0:0:
81,95,48202,1,0,0:0:0:0:
91,101,48309,1,0,0:0:0:0:
101,108,48417,1,0,0:0:0:0:
111,115,48524,1,0,0:0:0:0:
121,121,48631,1,0,0:0:0:0:
132,127,48739,1,0,0:0:0:0:
142,133,48846,1,0,0:0:0:0:
153,138,48953,1,0,0:0:0:0:
164,144,49061,1,0,0:0:0:0:
174,149,49168,1,0,0:0:0:0:
185,153,49276,1,0,0:0:0:0:
197,158,49383,1,0,0:0:0:0:
208,162,49490,1,0,0:0:0:0:
219,165,49598,1,0,0:0:0:0:
231,169,49705,1,0,0:0:0:0:
243,172,49812,1,0,0:0:0:0:
254,174,49920,1,0,0:0:0:0:
266,176,50027,1,0,0:0:0:0:
278,177,50135,1,0,0:0:0:0:
290,177,50242,1,0,0:0:0:0:
302,177,50349,1,0,0:0:0:0:
314,176,50457,1,0,0:0:0:0:
326,173,50564,1,0,0:0:0:0:
337,170,50671,1,0,0:0:0:0:
348,164,50779,1,0,0:0:0:0:
356,156,50886,1,0,0:0:0:0:
359,144,50994,1,0,0:0:0:0:
351,135,51101,1,0,0:0:0:0:
340,131,51208,1,0,0:0:0:0:
328,130,51316,1,0,0:0:0:0:
316,132,51423,1,0,0:0:0:0:
306,137,51530,1,0,0:0:0:0:
296,145,51638,1,0,0:0:0:0:
289,154,51745,1,0,0:0:0:0:
284,165,51853,1,0,0:0:0:0:
282,177,51960,1,0,0:0:0:0:
282,189,52067,1,0,0:0:0:0:
284,201,52175,1,0,0:0:0:0:
288,213,52282,1,0,0:0:0:0:
291,224,52389,1,0,0:0:0:0:
293,236,52497,1,0,0:0:0:0:
287,245,52604,1,0,0:0:0:0:
275,246,52712,1,0,0:0:0:0:
263,244,52819,1,0,0:0:0:0:
251,242,52926,1,0,0:0:0:0:
240,238,53034,1,0,0:0:0:0:
228,234,53141,1,0,0:0:0:0:
217,229,53248,1,0,0:0:0:0:
207,223,53356,1,0,0:0:0:0:
197,217,53463,1,0,0:0:0:0:
187,209,53571,1,0,0:0:0:0:
179,201,53678,1,0,0:0:0:0:
172,191,53785,1,0,0:0:0:0:
168,180,53893,1,0,0:0:0:0:
167,168,54000,1,0,0:0:0:0:
171,157,54107,1,0,0:0:0:0:
179,148,54215,1,0,0:0:0:0:
189,141,54322,1,0,0:0:0:0:
200,137,54430,1,0,0:0:0:0:
212,135,54537,1,0,0:0:0:0:
224,135,54644,1,0,0:0:0:0:
236,137,54752,1,0,0:0:0:0:
247,140,54859,1,0,0:0:0:0:
258,146,54966,1,0,0:0:0:0:
268,153,55074,1,0,0:0:0:0:
276,161,55181,1,0,0:0:0:0:
282,172,55288,1,0,0:0:0:0:
285,183,55396,1,0,0:0:0:0:
285,195,55503,1,0,0:0:0:0:
283,207,55611,1,0,0:0:0:0:
278,218,55718,1,0,0:0:0:0:
271,228,55825,1,0,0:0:0:0:
262,236,55933,1,0,0:0:0:0:
253,243,56040,1,0,0:0:0:0:
242,249,56147,1,0,0:0:0:0:
231,254,56255,1,0,0:0:0:0:
220,257,56362,1,0,0:0:0:0:
208,260,56470,1,0,0:0:0:0:
196,260,56577,1,0,0:0:0:0:
184,260,56684,1,0,0:0:0:0:
172,257,56792,1,0,0:0:0:0:
162,251,56899,1,0,0:0:0:0:
155,241,57006,1,0,0:0:0:0:
154,230,57114,1,0,0:0:0:0:
158,218,57221,1,0,0:0:0:0:
165,209,57329,1,0,0:0:0:0:
173,200,57436,1,0,0:0:0:0:
182,192,57543,1,0,0:0:0:0:
191,185,57651,1,0,0:0:0:0:
201,178,57758,1,0,0:0:0:0:
211,171,57865,1,0,0:0:0:0:
222,165,57973,1,0,0:0:0:0:
233,160,58080,1,0,0:0:0:0:
243,155,58188,1,0,0:0:0:0:
254,150,58295,1,0,0:0:0:0:
266,146,58402,1,0,0:0:0:0:
277,141,58510,1,0,0:0:0:0:
288,138,58617,1,0,0:0:0:0:
300,134,58724,1,0,0:0:0:0:
311,131,58832,1,0,0:0:0:0:
323,129,58939,1,0,0:0:0:0:
335,126,59047,1,0,0:0:0:0:
347,125,59154,1,0,0:0:0:0:
359,124,59261,1,0,0:0:0:0:
371,124,59369,1,0,0:0:0:0:
383,125,59476,1,0,0:0:0:0:
394,127,59583,1,0,0:0:0:0:
406,130,59691,1,0,0:0:0:0:
417,135,59798,1,0,0:0:0:0:
427,142,59906,1,0,0:0:0:0:
435,151,60013,1,0,0:0:0:0:
441,161,60120,1,0,0:0:0:0:
444,173,60228,1,0,0:0:0:0:
446,185,60335,1,0,0:0:0:0:
446,197,60442,1,0,0:0:0:0:
445,208,60550,1,0,0:0:0:0:
443,220,60657,1,0,0:0:0:0:
439,232,60765,1,0,0:0:0:0:
434,243,60872,1,0,0:0:0:0:
429,253,60979,1,0,0:0:0:0:
422,263,61087,1,0,0:0:0:0:
414,272,61194,1,0,0:0:0:0:
406,281,61301,1,0,0:0:0:0:
396,288,61409,1,0,0:0:0:0:
387,296,61516,1,0,0:0:0:0:
388,306,61623,1,0,0:0:0:0:
381,315,61731,1,0,0:0:0:0:
371,321,61838,1,0,0:0:0:0:
359,326,61946,1,0,0:0:0:0:
348,330,62053,1,0,0:0:0:0:
336,333,62160,1,0,0:0:0:0:
325,335,62268,1,0,0:0:0:0:
313,337,62375,1,0,0:0:0:0:
301,339,62482,1,0,0:0:0:0:
289,340,62590,1,0,0:0:0:0:
277,341,62697,1,0,0:0:0:0:
265,341,62805,1,0,0:0:0:0:
253,340,62912,1,0,0:0:0:0:
241,339,63019,1,0,0:0:0:0:
229,336,63127,1,0,0:0:0:0:
218,333,63234,1,0,0:0:0:0:
207,329,63341,1,0,0:0:0:0:
196,324,63449,1,0,0:0:0:0:
185,318,63556,1,0,0:0:0:0:
176,310,63664,1,0,0:0:0:0:
167,302,63771,1,0,0:0:0:0:
160,293,63878,1,0,0:0:0:0:
153,283,63986,1,0,0:0:0:0:
149,272,64093,1,0,0:0:0:0:
145,260,64200,1,0,0:0:0:0:
143,248,64308,1,0,0:0:0:0:
142,236,64415,1,0,0:0:0:0:
143,224,64523,1,0,0:0:0:0:
145,213,64630,1,0,0:0:0:0:
148,201,64737,1,0,0:0:0:0:
152,190,64845,1,0,0:0:0:0:
157,179,64952,1,0,0:0:0:0:
163,168,65059,1,0,0:0:0:0:
170,158,65167,1,0,0:0:0:0:
177,149,65274,1,0,0:0:0:0:
185,140,65382,1,0,0:0:0:0:
193,131,65489,1,0,0:0:0:0:
201,123,65596,1,0,0:0:0:0:
211,115,65704,1,0,0:0:0:0:
220,107,65811,1,0,0:0:0:0:
230,101,65918,1,0,0:0:0:0:
240,94,66026,1,0,0:0:0:0:
250,88,66133,1,0,0:0:0:0:
261,82,66241,1,0,0:0:0:0:
272,77,66348,1,0,0:0:0:0:
283,72,66455,1,0,0:0:0:0:
294,68,66563,1,0,0:0:0:0:
305,64,66670,1,0,0:0:0:0:
317,60,66777,1,0,0:0:0:0:
328,57,66885,1,0,0:0:0:0:
340,54,66992,1,0,0:0:0:0:
352,52,67100,1,0,0:0:0:0:
364,50,67207,1,0,0:0:0:0:
375,49,67314,1,0,0:0:0:0:
387,49,67422,1,0,0:0:0:0:
399,49,67529,1,0,0:0:0:0:
256,189,68603,1,0,0:0:0:0:
258,192,68711,1,0,0:0:0:0:
256,194,68818,1,0,0:0:0:0:
253,192,68925,1,0,0:0:0:0:
256,189,69033,1,0,0:0:0:0:
258,192,69140,1,0,0:0:0:0:
256,194,69248,1,0,0:0:0:0:
253,192,69355,1,0,0:0:0:0:
256,189,69462,1,0,0:0:0:0:
258,192,69570,1,0,0:0:0:0:
256,194,69677,1,0,0:0:0:0:
253,192,69784,1,0,0:0:0:0:
256,189,69892,1,0,0:0:0:0:
258,192,69999,1,0,0:0:0:0:
256,194,70107,1,0,0:0:0:0:
253,192,70214,1,0,0:0:0:0:
256,189,70321,1,0,0:0:0:0:
258,192,70429,1,0,0:0:0:0:
256,194,70536,1,0,0:0:0:0:
253,192,70643,1,0,0:0:0:0:
256,189,70751,1,0,0:0:0:0:
258,192,70858,1,0,0:0:0:0:
256,194,70966,1,0,0:0:0:0:
253,192,71073,1,0,0:0:0:0:
256,189,71180,1,0,0:0:0:0:
258,192,71288,1,0,0:0:0:0:
256,194,71395,1,0,0:0:0:0:
253,192,71502,1,0,0:0:0:0:
256,189,71610,1,0,0:0:0:0:
258,192,71717,1,0,0:0:0:0:
256,194,71824,1,0,0:0:0:0:
253,192,71932,1,0,0:0:0:0:
256,189,72039,1,0,0:0:0:0:
258,192,72147,1,0,0:0:0:0:
368,132,72254,1,0,0:0:0:0:
112,128,72361,1,0,0:0:0:0:
96,332,72469,1,0,0:0:0:0:
372,336,72576,1,0,0:0:0:0:
336,196,73005,1,0,0:0:0:0:
128,200,73113,1,0,0:0:0:0:
68,324,73220,1,0,0:0:0:0:
424,316,73328,1,0,0:0:0:0:
400,60,73435,1,0,0:0:0:0:
44,44,73542,1,0,0:0:0:0:
280,132,73650,1,0,0:0:0:0:
260,228,73757,1,0,0:0:0:0:
272,104,73864,1,0,0:0:0:0:
152,96,73972,1,0,0:0:0:0:
164,220,74079,1,0,0:0:0:0:
344,224,74187,1,0,0:0:0:0:
332,336,74294,1,0,0:0:0:0:
80,344,74401,1,0,0:0:0:0:
64,212,74509,1,0,0:0:0:0:
260,188,74616,1,0,0:0:0:0:
256,192,75905,12,0,78052,0:0:0:0:
