osu file format v14

[General]
AudioFilename: audio.mp3
AudioLeadIn: 0
PreviewTime: 12497
Countdown: 0
SampleSet: Normal
StackLeniency: 0.7
Mode: 0
LetterboxInBreaks: 0
WidescreenStoryboard: 1

[Editor]
Bookmarks: 12160,12217
DistanceSpacing: 0.8
BeatDivisor: 7
GridSize: 8
TimelineZoom: 1

[Metadata]
Title:doli x shuster - nie pacz za mna
TitleUnicode:nie płacz za mną
Artist:doli x shuster
ArtistUnicode:doli x shuster
Creator:YT XksentraksX
Version:Hard
Source:
Tags:
BeatmapID:3691833
BeatmapSetID:1800761

[Difficulty]
HPDrainRate:3
CircleSize:3
OverallDifficulty:2
ApproachRate:6
SliderMultiplier:1.4
SliderTickRate:1

[Events]
//Background and Video events
0,0,"artworks-000533281446-wkbofw-t500x500.jpg",0,0
//Break Periods
//Storyboard Layer 0 (Background)
//Storyboard Layer 1 (Fail)
//Storyboard Layer 2 (Pass)
//Storyboard Layer 3 (Foreground)
//Storyboard Layer 4 (Overlay)
//Storyboard Sound Samples

[TimingPoints]
12647.035971223,431.654676258993,4,1,0,100,1,0

[HitObjects]
64,76,12539,5,0,0:0:0:0:
112,103,12754,1,0,0:0:0:0:
150,143,12970,1,0,0:0:0:0:
156,198,13186,1,0,0:0:0:0:
185,243,13402,2,0,P|268:313|426:235,1,280
235,300,13618,1,0,0:0:0:0:
299,320,13834,1,0,0:0:0:0:
356,290,14049,2,0,P|389:262|411:233,1,70
425,145,14697,5,0,0:0:0:0:
327,89,15129,1,0,0:0:0:0:
226,137,15560,5,0,0:0:0:0:
217,192,15776,1,0,0:0:0:0:
160,190,15992,1,0,0:0:0:0:
169,245,16208,1,0,0:0:0:0:
193,295,16424,6,0,P|265:321|423:208,1,280
259,322,16639,1,0,0:0:0:0:
329,315,16855,1,0,0:0:0:0:
372,271,17071,2,0,P|412:201|416:190,1,70
429,196,17395,5,0,0:0:0:0:
429,178,17456,1,0,0:0:0:0:
432,160,17518,1,0,0:0:0:0:
434,145,17580,1,0,0:0:0:0:
434,129,17641,1,0,0:0:0:0:
418,100,17765,2,0,P|324:69|201:90,1,220
373,111,17888,2,0,L|364:135,1,20
313,97,18073,2,0,L|307:125,1,20
256,102,18258,2,0,L|265:138,1,20
131,143,18566,1,0,0:0:0:0:
124,153,18628,1,0,0:0:0:0:
121,161,18690,1,0,0:0:0:0:
116,173,18751,1,0,0:0:0:0:
112,183,18813,1,0,0:0:0:0:
100,265,18936,6,0,P|133:303|309:312,1,240
175,331,19245,1,0,0:0:0:0:
274,331,19553,1,0,0:0:0:0:
364,260,19800,6,0,L|390:238,4,20
417,174,20232,1,0,0:0:0:0:
376,92,20416,2,0,L|354:74,1,20
341,156,20663,2,0,L|317:139,1,20
313,220,20910,2,0,L|282:201,1,20
293,290,21095,2,0,L|259:274,1,20
213,346,21342,5,0,0:0:0:0:
139,322,21527,1,0,0:0:0:0:
171,342,21712,1,0,0:0:0:0:
115,293,21897,1,0,0:0:0:0:
93,256,22081,1,0,0:0:0:0:
66,197,22266,6,0,B|73:167|259:90|459:303,1,440
97,177,22451,1,0,0:0:0:0:
179,158,22636,1,0,0:0:0:0:
233,166,22821,1,0,0:0:0:0:
294,190,23006,2,0,P|308:218|309:221,1,20
360,224,23253,2,0,L|371:248,1,20
424,272,23500,2,0,L|430:295,1,20
