osu file format v14

[General]
AudioFilename: audio.mp3
AudioLeadIn: 0
PreviewTime: 0
Countdown: 0
SampleSet: Normal
StackLeniency: 0.7
Mode: 1
LetterboxInBreaks: 0
WidescreenStoryboard: 0

[Editor]
DistanceSpacing: 3.1
BeatDivisor: 2
GridSize: 4
TimelineZoom: 1.7

[Metadata]
Title:The Beginning of Time
TitleUnicode:The Beginning of Time
Artist:dj-Nate
ArtistUnicode:dj-Nate
Creator:realy0_
Version:Kantan
Source:
Tags:instrumental trance electronic newgrounds piano
BeatmapID:2102862
BeatmapSetID:1004778

[Difficulty]
HPDrainRate:7
CircleSize:5
OverallDifficulty:3
ApproachRate:5
SliderMultiplier:1.4
SliderTickRate:1

[Events]
//Background and Video events
0,0,"cropped-1920-1200-409987.jpg",0,-125
//Break Periods
//Storyboard Layer 0 (Background)
//Storyboard Layer 1 (Fail)
//Storyboard Layer 2 (Pass)
//Storyboard Layer 3 (Foreground)
//Storyboard Layer 4 (Overlay)
//Storyboard Sound Samples

[TimingPoints]
20,352.941176470588,4,1,0,60,1,0
20,-117.647058823529,4,1,0,60,0,0
22608,352.941176470588,4,1,0,60,1,8
22608,-117.647058823529,4,1,0,60,0,8
22961,352.941176470588,4,1,0,50,1,0
22961,-117.647058823529,4,1,0,50,0,0
34255,352.941176470588,4,1,0,50,1,8
34255,-117.647058823529,4,1,0,50,0,8
35313,352.941176470588,4,1,0,80,1,1
35313,-117.647058823529,4,1,0,80,0,1
57901,-117.647058823529,4,1,0,60,0,0
86136,352.941176470588,4,1,0,60,1,8
86136,-117.647058823529,4,1,0,60,0,8
86842,352.941176470588,4,1,0,80,1,1
86842,-117.647058823529,4,1,0,80,0,1
109253,-117.647058823529,4,1,0,50,0,0
115077,-117.647058823529,4,1,0,60,0,0
126371,352.941176470588,4,1,0,60,1,8
126371,-117.647058823529,4,1,0,60,0,8
126723,352.941176470588,4,1,0,60,1,0
126723,-117.647058823529,4,1,0,60,0,0
138017,-117.647058823529,4,1,0,70,0,0
149311,-117.647058823529,4,1,0,50,0,0

[Colours]
Combo1 : 255,192,0
Combo2 : 0,202,0
Combo3 : 18,124,255
Combo4 : 242,24,57

[HitObjects]
107,209,20,5,0,1:0:0:0:
125,141,1431,1,8,1:0:0:0:
217,1,2843,1,0,1:0:0:0:
125,141,4255,1,0,1:0:0:0:
127,140,5667,1,12,1:0:0:0:
249,70,7078,1,8,1:0:0:0:
259,29,8490,1,0,1:0:0:0:
313,74,9902,1,0,1:0:0:0:
171,79,11314,1,4,1:0:0:0:
192,158,12019,1,0,1:0:0:0:
234,39,12725,1,8,1:0:0:0:
254,125,13784,1,0,1:0:0:0:
309,156,14137,1,8,1:0:0:0:
217,173,14843,1,8,1:0:0:0:
308,151,15549,1,0,1:0:0:0:
165,152,16608,1,0,1:0:0:0:
308,151,16961,1,12,1:0:0:0:
256,112,17667,1,0,1:0:0:0:
256,112,18372,1,8,1:0:0:0:
254,102,19078,1,0,1:0:0:0:
254,102,19431,1,0,1:0:0:0:
254,102,19784,1,8,1:0:0:0:
254,102,20490,1,0,1:0:0:0:
254,102,21196,1,8,1:0:0:0:
254,102,21549,1,0,1:0:0:0:
254,102,21902,1,0,1:0:0:0:
114,181,22431,1,8,1:0:0:0:
247,9,22961,1,4,1:0:0:0:
272,114,24372,1,8,1:0:0:0:
272,103,25078,1,8,1:0:0:0:
272,103,25431,1,0,1:0:0:0:
272,103,25784,1,8,1:0:0:0:
272,102,26490,1,8,1:0:0:0:
272,102,27196,1,0,1:0:0:0:
272,102,28608,1,8,1:0:0:0:
272,102,29313,1,8,1:0:0:0:
272,102,29666,1,8,1:0:0:0:
272,102,30019,1,0,1:0:0:0:
272,102,30725,1,8,1:0:0:0:
272,102,31078,1,0,1:0:0:0:
272,102,31431,1,8,1:0:0:0:
272,102,32137,1,8,1:0:0:0:
272,102,32843,1,0,1:0:0:0:
272,102,33196,1,8,1:0:0:0:
272,102,33549,1,8,1:0:0:0:
272,105,33902,1,0,1:0:0:0:
272,105,35313,1,12,1:0:0:0:
188,270,35665,1,0,1:0:0:0:
184,274,36018,1,8,1:0:0:0:
244,126,36371,1,8,1:0:0:0:
184,274,36724,1,0,1:0:0:0:
184,274,37430,1,8,1:0:0:0:
245,126,37783,1,0,1:0:0:0:
184,274,38136,1,8,1:0:0:0:
184,274,38842,1,8,1:0:0:0:
186,77,39548,1,0,1:0:0:0:
260,159,39901,1,0,1:0:0:0:
185,77,40960,1,8,1:0:0:0:
240,208,41312,1,0,1:0:0:0:
185,77,41665,1,8,1:0:0:0:
241,134,42018,1,8,1:0:0:0:
185,77,42371,1,0,1:0:0:0:
260,69,43077,1,8,1:0:0:0:
425,138,43430,1,0,1:0:0:0:
185,77,43783,1,8,1:0:0:0:
185,77,44489,1,8,1:0:0:0:
185,77,45195,1,0,1:0:0:0:
185,77,45548,1,0,1:0:0:0:
234,125,46607,1,8,1:0:0:0:
234,125,46960,1,8,1:0:0:0:
174,186,47312,1,0,1:0:0:0:
162,191,47665,1,8,1:0:0:0:
85,178,48018,1,0,1:0:0:0:
218,118,48724,1,8,1:0:0:0:
207,164,49430,1,8,1:0:0:0:
236,145,49783,1,0,1:0:0:0:
236,145,50136,1,8,1:0:0:0:
236,145,50489,1,8,1:0:0:0:
236,145,50842,1,0,1:0:0:0:
236,145,51195,1,0,1:0:0:0:
236,145,52254,1,8,1:0:0:0:
276,228,52607,1,8,1:0:0:0:
278,224,52960,1,0,1:0:0:0:
207,164,53312,1,8,1:0:0:0:
207,164,53665,1,0,1:0:0:0:
321,117,54371,1,8,1:0:0:0:
278,224,55077,1,8,1:0:0:0:
278,224,55430,1,0,1:0:0:0:
278,224,55783,1,8,1:0:0:0:
278,224,56489,1,0,1:0:0:0:
318,24,56842,1,8,1:0:0:0:
278,224,57901,1,4,1:0:0:0:
258,124,59312,1,0,1:0:0:0:
258,124,60724,1,8,1:0:0:0:
258,124,62136,1,0,1:0:0:0:
258,124,63548,1,8,1:0:0:0:
264,116,64960,1,0,1:0:0:0:
258,124,66371,1,8,1:0:0:0:
235,42,67783,1,8,1:0:0:0:
107,209,69195,1,4,1:0:0:0:
213,93,69901,1,0,1:0:0:0:
125,141,70607,1,8,1:0:0:0:
217,1,71312,1,8,1:0:0:0:
217,1,71665,1,8,1:0:0:0:
217,1,72018,1,0,1:0:0:0:
216,92,72724,1,8,1:0:0:0:
125,141,73430,1,0,1:0:0:0:
125,141,74136,1,0,1:0:0:0:
123,214,74842,1,8,1:0:0:0:
176,367,76254,1,0,1:0:0:0:
176,367,77312,1,0,1:0:0:0:
245,241,77665,1,8,1:0:0:0:
176,367,78724,1,8,1:0:0:0:
245,243,79077,1,0,1:0:0:0:
234,250,80489,1,8,1:0:0:0:
229,252,81195,1,0,1:0:0:0:
229,252,81901,1,8,1:0:0:0:
169,77,82607,1,8,1:0:0:0:
169,77,82960,1,0,1:0:0:0:
229,252,83312,1,8,1:0:0:0:
229,252,84018,1,8,1:0:0:0:
174,68,84724,1,0,1:0:0:0:
229,252,86136,1,4,1:0:0:0:
262,119,86842,1,12,1:0:0:0:
151,99,87194,1,8,1:0:0:0:
151,99,87547,1,0,1:0:0:0:
247,115,88253,1,8,1:0:0:0:
157,92,88606,1,0,1:0:0:0:
157,92,88959,1,0,1:0:0:0:
157,92,89312,1,8,1:0:0:0:
157,92,89665,1,0,1:0:0:0:
157,92,90371,1,0,1:0:0:0:
157,92,91077,1,8,1:0:0:0:
151,99,91430,1,8,1:0:0:0:
262,119,92489,1,8,1:0:0:0:
151,99,92842,1,0,1:0:0:0:
151,99,93194,1,0,1:0:0:0:
247,115,93900,1,8,1:0:0:0:
157,92,94253,1,8,1:0:0:0:
157,92,94606,1,0,1:0:0:0:
157,92,94959,1,8,1:0:0:0:
157,92,95312,1,0,1:0:0:0:
157,92,96018,1,0,1:0:0:0:
157,92,96724,1,8,1:0:0:0:
319,221,97077,1,0,1:0:0:0:
245,160,98136,1,0,1:0:0:0:
219,79,98489,1,8,1:0:0:0:
219,79,98841,1,0,1:0:0:0:
219,79,99194,1,8,1:0:0:0:
219,79,99547,1,8,1:0:0:0:
219,78,100253,1,0,1:0:0:0:
219,78,100959,1,8,1:0:0:0:
219,78,101312,1,8,1:0:0:0:
219,78,101665,1,0,1:0:0:0:
219,78,102371,1,8,1:0:0:0:
286,164,102724,1,0,1:0:0:0:
245,160,103783,1,0,1:0:0:0:
219,79,104136,1,8,1:0:0:0:
219,79,104489,1,0,1:0:0:0:
219,79,104841,1,8,1:0:0:0:
219,79,105194,1,8,1:0:0:0:
219,78,105900,1,0,1:0:0:0:
219,78,106606,1,8,1:0:0:0:
219,78,106959,1,8,1:0:0:0:
219,78,107312,1,0,1:0:0:0:
219,78,108018,1,8,1:0:0:0:
286,164,108371,1,0,1:0:0:0:
286,164,108724,1,0,1:0:0:0:
272,71,109253,1,0,1:0:0:0:
249,50,110665,1,0,1:0:0:0:
208,151,112077,1,8,1:0:0:0:
233,79,113489,1,8,1:0:0:0:
233,79,115077,1,4,1:0:0:0:
262,341,115430,1,8,1:0:0:0:
262,341,115783,1,0,1:0:0:0:
262,341,116489,1,0,1:0:0:0:
279,74,117194,1,8,1:0:0:0:
279,79,117547,1,8,1:0:0:0:
255,92,117900,1,0,1:0:0:0:
279,74,118606,1,8,1:0:0:0:
279,74,119312,1,0,1:0:0:0:
186,97,119665,1,8,1:0:0:0:
233,79,120724,1,0,1:0:0:0:
262,341,121077,1,8,1:0:0:0:
262,341,121430,1,0,1:0:0:0:
262,341,122136,1,0,1:0:0:0:
279,74,122841,1,8,1:0:0:0:
279,79,123194,1,8,1:0:0:0:
255,92,123547,1,0,1:0:0:0:
279,74,124253,1,8,1:0:0:0:
279,74,124959,1,0,1:0:0:0:
257,181,126371,1,4,1:0:0:0:
179,63,126723,1,8,1:0:0:0:
320,40,127075,1,0,1:0:0:0:
166,83,128134,1,0,1:0:0:0:
166,83,128487,1,8,1:0:0:0:
179,63,129546,1,8,1:0:0:0:
200,56,129899,1,0,1:0:0:0:
180,63,130958,1,0,1:0:0:0:
180,63,131664,1,0,1:0:0:0:
180,63,132370,1,8,1:0:0:0:
203,64,132723,1,0,1:0:0:0:
203,64,133781,1,0,1:0:0:0:
203,64,134134,1,8,1:0:0:0:
203,64,135193,1,8,1:0:0:0:
203,64,135546,1,0,1:0:0:0:
203,64,136605,1,0,1:0:0:0:
203,64,137311,1,8,1:0:0:0:
203,64,137664,1,8,1:0:0:0:
107,209,138017,1,0,1:0:0:0:
213,93,138723,1,0,1:0:0:0:
125,141,139428,1,8,1:0:0:0:
311,157,139781,1,0,1:0:0:0:
217,1,140134,1,8,1:0:0:0:
217,1,140840,1,0,1:0:0:0:
216,92,141193,1,8,1:0:0:0:
125,141,142252,1,0,1:0:0:0:
217,92,142958,1,8,1:0:0:0:
173,0,143311,1,0,1:0:0:0:
107,209,143664,1,8,1:0:0:0:
311,157,144370,1,0,1:0:0:0:
125,141,145075,1,8,1:0:0:0:
217,1,145781,1,8,1:0:0:0:
217,1,146134,1,8,1:0:0:0:
217,1,146487,1,0,1:0:0:0:
216,92,147546,1,8,1:0:0:0:
125,141,147899,1,0,1:0:0:0:
217,92,148605,1,8,1:0:0:0:
173,0,148958,1,0,1:0:0:0:
215,260,149311,1,12,1:0:0:0:
131,209,150722,1,0,1:0:0:0:
195,157,151781,1,0,1:0:0:0:
195,157,152134,1,8,1:0:0:0:
195,157,153193,1,8,1:0:0:0:
195,157,153546,1,0,1:0:0:0:
195,157,154252,1,0,1:0:0:0:
215,260,154958,1,8,1:0:0:0:
131,209,156370,1,0,1:0:0:0:
195,157,157428,1,0,1:0:0:0:
195,157,157781,1,8,1:0:0:0:
195,157,158840,1,8,1:0:0:0:
195,157,159193,1,0,1:0:0:0:
195,157,159899,1,0,1:0:0:0:
260,163,160605,1,4,1:0:0:0:
