osu file format v14

[General]
AudioFilename: audio.mp3
AudioLeadIn: 0
PreviewTime: 0
Countdown: 0
SampleSet: Normal
StackLeniency: 0.7
Mode: 1
LetterboxInBreaks: 0
WidescreenStoryboard: 0

[Editor]
DistanceSpacing: 3.1
BeatDivisor: 4
GridSize: 4
TimelineZoom: 1.6

[Metadata]
Title:The Beginning of Time
TitleUnicode:The Beginning of Time
Artist:dj-Nate
ArtistUnicode:dj-Nate
Creator:realy0_
Version:Futsuu
Source:
Tags:instrumental trance electronic newgrounds piano
BeatmapID:2103921
BeatmapSetID:1004778

[Difficulty]
HPDrainRate:6
CircleSize:5
OverallDifficulty:4
ApproachRate:5
SliderMultiplier:1.4
SliderTickRate:1

[Events]
//Background and Video events
0,0,"cropped-1920-1200-409987.jpg",0,-125
//Break Periods
//Storyboard Layer 0 (Background)
//Storyboard Layer 1 (Fail)
//Storyboard Layer 2 (Pass)
//Storyboard Layer 3 (Foreground)
//Storyboard Layer 4 (Overlay)
//Storyboard Sound Samples

[TimingPoints]
20,352.941176470588,4,1,0,60,1,0
20,-108.108108108108,4,1,0,60,0,0
22608,352.941176470588,4,1,0,60,1,8
22608,-108.108108108108,4,1,0,60,0,8
22961,352.941176470588,4,1,0,50,1,0
22961,-108.108108108108,4,1,0,50,0,0
34255,352.941176470588,4,1,0,50,1,8
34255,-108.108108108108,4,1,0,50,0,8
35313,352.941176470588,4,1,0,80,1,1
35313,-108.108108108108,4,1,0,80,0,1
57901,-108.108108108108,4,1,0,60,0,0
86136,352.941176470588,4,1,0,60,1,8
86136,-108.108108108108,4,1,0,60,0,8
86842,352.941176470588,4,1,0,80,1,1
86842,-108.108108108108,4,1,0,80,0,1
109253,-108.108108108108,4,1,0,50,0,0
115077,-108.108108108108,4,1,0,60,0,0
126371,352.941176470588,4,1,0,60,1,8
126371,-108.108108108108,4,1,0,60,0,8
126723,352.941176470588,4,1,0,60,1,0
126723,-108.108108108108,4,1,0,60,0,0
138017,-108.108108108108,4,1,0,70,0,0
149311,-108.108108108108,4,1,0,50,0,0

[Colours]
Combo1 : 255,192,0
Combo2 : 0,202,0
Combo3 : 18,124,255
Combo4 : 242,24,57

[HitObjects]
107,209,20,5,0,1:0:0:0:
343,90,1078,1,8,1:0:0:0:
345,90,1255,1,8,1:0:0:0:
345,90,1431,1,0,1:0:0:0:
325,115,1784,1,0,1:0:0:0:
211,235,2137,1,8,1:0:0:0:
366,131,2843,1,0,1:0:0:0:
211,235,3549,1,8,1:0:0:0:
329,73,3902,1,8,1:0:0:0:
125,141,4255,1,0,1:0:0:0:
211,235,4961,1,8,1:0:0:0:
127,140,5667,1,12,1:0:0:0:
343,90,6725,1,8,1:0:0:0:
345,90,6902,1,8,1:0:0:0:
345,90,7078,1,0,1:0:0:0:
325,115,7431,1,0,1:0:0:0:
211,235,7784,1,8,1:0:0:0:
366,131,8490,1,0,1:0:0:0:
211,235,9196,1,8,1:0:0:0:
329,73,9549,1,8,1:0:0:0:
125,141,9902,1,0,1:0:0:0:
211,235,10608,1,8,1:0:0:0:
171,79,11314,1,4,1:0:0:0:
212,229,12019,1,0,1:0:0:0:
234,39,12372,1,8,1:0:0:0:
296,43,12725,1,0,1:0:0:0:
275,38,13431,1,0,1:0:0:0:
220,205,14137,1,8,1:0:0:0:
284,124,14843,1,8,1:0:0:0:
308,151,15196,1,8,1:0:0:0:
308,151,15549,1,0,1:0:0:0:
171,126,16255,1,0,1:0:0:0:
308,151,16961,1,12,1:0:0:0:
181,204,17314,1,8,1:0:0:0:
177,211,17490,1,8,1:0:0:0:
256,112,17667,1,0,1:0:0:0:
216,236,18019,1,0,1:0:0:0:
256,112,18372,1,8,1:0:0:0:
216,236,18725,1,8,1:0:0:0:
216,236,18902,1,0,1:0:0:0:
254,102,19078,1,8,1:0:0:0:
228,231,19431,1,0,1:0:0:0:
238,228,19608,1,0,1:0:0:0:
254,102,19784,1,8,1:0:0:0:
391,150,20137,1,8,1:0:0:0:
254,102,20490,1,0,1:0:0:0:
391,150,20843,1,0,1:0:0:0:
335,139,21019,1,0,1:0:0:0:
254,102,21196,1,8,1:0:0:0:
254,102,21549,1,8,1:0:0:0:
254,102,21725,1,8,1:0:0:0:
254,102,21902,1,0,1:0:0:0:
114,181,22431,1,8,1:0:0:0:
247,9,22961,1,4,1:0:0:0:
346,80,23666,1,8,1:0:0:0:
346,80,24019,1,8,1:0:0:0:
250,172,24196,1,8,1:0:0:0:
346,80,24372,1,0,1:0:0:0:
250,172,24725,1,0,1:0:0:0:
336,74,25078,1,8,1:0:0:0:
250,172,25608,1,0,1:0:0:0:
336,74,25784,1,8,1:0:0:0:
336,74,26490,1,8,1:0:0:0:
336,74,26843,1,8,1:0:0:0:
189,63,27019,1,8,1:0:0:0:
336,74,27196,1,0,1:0:0:0:
189,63,27549,1,0,1:0:0:0:
336,74,27902,1,8,1:0:0:0:
272,102,28608,1,8,1:0:0:0:
272,102,29313,1,8,1:0:0:0:
272,102,29666,1,8,1:0:0:0:
382,31,29843,1,8,1:0:0:0:
272,102,30019,1,0,1:0:0:0:
382,31,30372,1,0,1:0:0:0:
272,102,30725,1,8,1:0:0:0:
257,170,31255,1,0,1:0:0:0:
272,102,31431,1,8,1:0:0:0:
272,102,32137,1,8,1:0:0:0:
271,132,32490,1,8,1:0:0:0:
319,78,32666,1,8,1:0:0:0:
272,102,32843,1,0,1:0:0:0:
319,78,33196,1,8,1:0:0:0:
272,102,33549,1,8,1:0:0:0:
319,78,33902,1,0,1:0:0:0:
272,105,35313,5,12,1:0:0:0:
188,270,35665,1,0,1:0:0:0:
172,191,35842,1,8,1:0:0:0:
241,62,36195,1,8,1:0:0:0:
268,97,36548,1,8,1:0:0:0:
184,274,36724,1,0,1:0:0:0:
412,123,37077,1,8,1:0:0:0:
184,274,37430,1,8,1:0:0:0:
314,65,37607,1,8,1:0:0:0:
245,126,37783,1,0,1:0:0:0:
184,274,38136,1,8,1:0:0:0:
354,118,38489,1,0,1:0:0:0:
326,101,38665,1,8,1:0:0:0:
223,24,39018,1,8,1:0:0:0:
223,24,39371,1,8,1:0:0:0:
186,77,39548,1,0,1:0:0:0:
260,159,39901,1,0,1:0:0:0:
185,77,40254,1,8,1:0:0:0:
185,77,40960,1,8,1:0:0:0:
240,208,41312,1,0,1:0:0:0:
295,89,41489,1,8,1:0:0:0:
260,56,41842,1,8,1:0:0:0:
299,185,42195,1,8,1:0:0:0:
185,77,42371,1,0,1:0:0:0:
296,182,42724,1,8,1:0:0:0:
260,69,43077,1,8,1:0:0:0:
289,99,43254,1,8,1:0:0:0:
289,99,43430,1,0,1:0:0:0:
185,77,43783,1,8,1:0:0:0:
317,109,44136,1,0,1:0:0:0:
317,109,44312,1,8,1:0:0:0:
261,83,44665,1,8,1:0:0:0:
261,83,45018,1,8,1:0:0:0:
185,77,45195,1,0,1:0:0:0:
275,88,45548,1,0,1:0:0:0:
275,88,45901,1,8,1:0:0:0:
373,173,46607,1,8,1:0:0:0:
188,270,46960,1,0,1:0:0:0:
172,191,47136,1,8,1:0:0:0:
323,143,47312,1,0,1:0:0:0:
241,62,47489,1,8,1:0:0:0:
268,97,47842,1,8,1:0:0:0:
184,274,48018,1,0,1:0:0:0:
412,123,48371,1,8,1:0:0:0:
184,274,48724,1,8,1:0:0:0:
314,65,48901,1,8,1:0:0:0:
245,126,49077,1,0,1:0:0:0:
329,143,49254,1,0,1:0:0:0:
184,274,49430,1,8,1:0:0:0:
354,118,49783,1,0,1:0:0:0:
326,101,49960,1,8,1:0:0:0:
333,144,50136,1,0,1:0:0:0:
223,24,50312,1,8,1:0:0:0:
223,24,50665,1,8,1:0:0:0:
186,77,50842,1,0,1:0:0:0:
260,159,51195,1,0,1:0:0:0:
185,77,51548,1,8,1:0:0:0:
185,77,52254,1,8,1:0:0:0:
240,208,52607,1,0,1:0:0:0:
295,89,52783,1,8,1:0:0:0:
333,144,52960,1,0,1:0:0:0:
260,56,53136,1,8,1:0:0:0:
299,185,53489,1,8,1:0:0:0:
185,77,53665,1,0,1:0:0:0:
296,182,54018,1,8,1:0:0:0:
260,69,54371,1,8,1:0:0:0:
372,100,54548,1,8,1:0:0:0:
372,100,54724,1,0,1:0:0:0:
372,100,54901,1,0,1:0:0:0:
185,77,55077,1,8,1:0:0:0:
317,109,55430,1,0,1:0:0:0:
317,109,55607,1,8,1:0:0:0:
334,143,55783,1,0,1:0:0:0:
261,83,55960,1,8,1:0:0:0:
261,83,56312,1,8,1:0:0:0:
185,77,56489,1,0,1:0:0:0:
275,88,56842,1,0,1:0:0:0:
275,88,57195,1,8,1:0:0:0:
278,224,57901,1,4,1:0:0:0:
368,53,58430,1,8,1:0:0:0:
368,53,58783,1,8,1:0:0:0:
258,124,59312,1,0,1:0:0:0:
368,53,59842,1,0,1:0:0:0:
368,53,60195,1,0,1:0:0:0:
258,124,60724,1,8,1:0:0:0:
368,53,61254,1,8,1:0:0:0:
368,53,61607,1,8,1:0:0:0:
258,124,62136,1,0,1:0:0:0:
258,124,62842,1,0,1:0:0:0:
258,124,63548,1,8,1:0:0:0:
368,53,64077,1,8,1:0:0:0:
368,53,64430,1,8,1:0:0:0:
264,116,64960,1,0,1:0:0:0:
368,53,65489,1,0,1:0:0:0:
368,53,65842,1,0,1:0:0:0:
258,124,66371,1,8,1:0:0:0:
368,53,66901,1,8,1:0:0:0:
368,53,67254,1,8,1:0:0:0:
235,42,67783,1,0,1:0:0:0:
368,53,68312,1,8,1:0:0:0:
368,53,68665,1,8,1:0:0:0:
107,209,69195,1,4,1:0:0:0:
203,268,69901,1,0,1:0:0:0:
343,90,70254,1,8,1:0:0:0:
345,90,70430,1,8,1:0:0:0:
345,90,70607,1,0,1:0:0:0:
325,115,70960,1,0,1:0:0:0:
211,235,71312,1,8,1:0:0:0:
217,1,72018,1,0,1:0:0:0:
211,235,72724,1,8,1:0:0:0:
294,101,73077,1,0,1:0:0:0:
329,73,73254,1,8,1:0:0:0:
125,141,73430,1,0,1:0:0:0:
211,235,74136,1,8,1:0:0:0:
345,76,74489,1,0,1:0:0:0:
127,140,74842,1,8,1:0:0:0:
340,151,75548,1,0,1:0:0:0:
176,367,76254,1,8,1:0:0:0:
176,367,76607,1,8,1:0:0:0:
271,72,76960,1,0,1:0:0:0:
200,166,77312,1,8,1:0:0:0:
129,43,77489,1,0,1:0:0:0:
257,64,77665,1,8,1:0:0:0:
307,39,78371,1,0,1:0:0:0:
245,243,79077,1,8,1:0:0:0:
245,243,79430,1,8,1:0:0:0:
173,124,79783,1,0,1:0:0:0:
140,169,80136,1,0,1:0:0:0:
140,169,80312,1,0,1:0:0:0:
234,250,80489,1,8,1:0:0:0:
268,228,80842,1,8,1:0:0:0:
293,104,81195,1,0,1:0:0:0:
309,100,81548,1,8,1:0:0:0:
294,101,81724,1,0,1:0:0:0:
176,367,81901,1,8,1:0:0:0:
274,48,82254,1,8,1:0:0:0:
271,72,82607,1,0,1:0:0:0:
257,64,82960,1,0,1:0:0:0:
129,43,83136,1,0,1:0:0:0:
257,64,83312,1,8,1:0:0:0:
307,39,84018,1,0,1:0:0:0:
245,243,84724,1,8,1:0:0:0:
167,134,85077,1,8,1:0:0:0:
309,195,85254,1,0,1:0:0:0:
173,124,85430,1,8,1:0:0:0:
309,195,85783,1,0,1:0:0:0:
309,195,85960,1,8,1:0:0:0:
229,252,86136,1,4,1:0:0:0:
262,119,86842,1,12,1:0:0:0:
151,99,87194,1,0,1:0:0:0:
177,322,87371,1,8,1:0:0:0:
151,99,87547,1,0,1:0:0:0:
177,322,87900,1,8,1:0:0:0:
189,273,88077,1,0,1:0:0:0:
247,115,88253,1,8,1:0:0:0:
189,273,88430,1,8,1:0:0:0:
236,184,88606,1,0,1:0:0:0:
157,92,88959,1,0,1:0:0:0:
307,149,89312,1,8,1:0:0:0:
307,149,89489,1,0,1:0:0:0:
307,149,89665,1,8,1:0:0:0:
242,35,90018,1,8,1:0:0:0:
242,35,90371,1,0,1:0:0:0:
242,35,90724,1,0,1:0:0:0:
157,92,91077,1,8,1:0:0:0:
151,99,91430,1,8,1:0:0:0:
157,92,91606,1,8,1:0:0:0:
151,99,91783,1,0,1:0:0:0:
262,119,92489,1,8,1:0:0:0:
151,99,92842,1,0,1:0:0:0:
177,322,93018,1,8,1:0:0:0:
151,99,93194,1,0,1:0:0:0:
177,322,93547,1,8,1:0:0:0:
189,273,93724,1,0,1:0:0:0:
247,115,93900,1,8,1:0:0:0:
189,273,94077,1,8,1:0:0:0:
236,184,94253,1,0,1:0:0:0:
157,92,94606,1,0,1:0:0:0:
307,149,94959,1,8,1:0:0:0:
307,149,95136,1,0,1:0:0:0:
307,149,95312,1,8,1:0:0:0:
242,35,95665,1,8,1:0:0:0:
242,35,96018,1,0,1:0:0:0:
242,35,96371,1,0,1:0:0:0:
302,147,96547,1,0,1:0:0:0:
157,92,96724,1,8,1:0:0:0:
151,99,97077,1,8,1:0:0:0:
151,99,97430,1,0,1:0:0:0:
107,209,98136,1,0,1:0:0:0:
261,123,98489,1,8,1:0:0:0:
261,123,98665,1,0,1:0:0:0:
203,268,98841,1,0,1:0:0:0:
343,90,99194,1,8,1:0:0:0:
345,90,99371,1,8,1:0:0:0:
345,90,99547,1,0,1:0:0:0:
343,114,99724,1,8,1:0:0:0:
325,115,99900,1,0,1:0:0:0:
211,235,100253,1,8,1:0:0:0:
366,131,100606,1,8,1:0:0:0:
366,131,100783,1,8,1:0:0:0:
217,1,100959,1,0,1:0:0:0:
270,78,101312,1,8,1:0:0:0:
211,235,101665,1,8,1:0:0:0:
125,141,102371,1,0,1:0:0:0:
238,46,102724,1,8,1:0:0:0:
211,235,103077,1,8,1:0:0:0:
310,43,103253,1,8,1:0:0:0:
310,43,103430,1,0,1:0:0:0:
310,43,103606,1,0,1:0:0:0:
428,186,103783,1,8,1:0:0:0:
261,123,104136,1,8,1:0:0:0:
261,123,104312,1,0,1:0:0:0:
203,268,104489,1,0,1:0:0:0:
343,90,104841,1,8,1:0:0:0:
345,90,105018,1,8,1:0:0:0:
345,90,105194,1,0,1:0:0:0:
343,114,105371,1,8,1:0:0:0:
325,115,105547,1,0,1:0:0:0:
211,235,105900,1,8,1:0:0:0:
366,131,106253,1,8,1:0:0:0:
366,131,106430,1,8,1:0:0:0:
217,1,106606,1,0,1:0:0:0:
270,78,106959,1,8,1:0:0:0:
211,235,107312,1,8,1:0:0:0:
125,141,108018,1,0,1:0:0:0:
238,46,108371,1,8,1:0:0:0:
211,235,108724,1,8,1:0:0:0:
310,43,108900,1,8,1:0:0:0:
310,43,109077,1,0,1:0:0:0:
310,43,109253,1,0,1:0:0:0:
282,310,109783,1,8,1:0:0:0:
282,310,110136,1,0,1:0:0:0:
249,50,110665,1,0,1:0:0:0:
282,310,111194,1,0,1:0:0:0:
282,310,111547,1,8,1:0:0:0:
208,151,112077,1,8,1:0:0:0:
269,309,112606,1,8,1:0:0:0:
269,309,112959,1,8,1:0:0:0:
233,79,113489,1,8,1:0:0:0:
299,288,114018,1,0,1:0:0:0:
269,303,114371,1,0,1:0:0:0:
233,79,115077,1,4,1:0:0:0:
262,341,115430,1,8,1:0:0:0:
298,180,115606,1,8,1:0:0:0:
262,341,115783,1,0,1:0:0:0:
303,244,116136,1,8,1:0:0:0:
262,341,116489,1,0,1:0:0:0:
303,244,116841,1,0,1:0:0:0:
303,244,117018,1,0,1:0:0:0:
279,74,117194,1,8,1:0:0:0:
279,79,117547,1,8,1:0:0:0:
255,92,117900,1,0,1:0:0:0:
349,97,118253,1,8,1:0:0:0:
279,74,118606,1,8,1:0:0:0:
349,96,118959,1,0,1:0:0:0:
349,96,119136,1,8,1:0:0:0:
279,74,119312,1,0,1:0:0:0:
349,96,119665,1,8,1:0:0:0:
349,96,120018,1,8,1:0:0:0:
163,171,120724,1,0,1:0:0:0:
262,341,121077,1,8,1:0:0:0:
298,180,121253,1,8,1:0:0:0:
262,341,121430,1,0,1:0:0:0:
303,244,121783,1,8,1:0:0:0:
262,341,122136,1,0,1:0:0:0:
303,244,122489,1,0,1:0:0:0:
303,244,122665,1,0,1:0:0:0:
279,74,122841,1,8,1:0:0:0:
279,79,123194,1,8,1:0:0:0:
255,92,123547,1,0,1:0:0:0:
349,97,123900,1,8,1:0:0:0:
279,74,124253,1,8,1:0:0:0:
349,96,124606,1,0,1:0:0:0:
349,96,124783,1,8,1:0:0:0:
279,74,124959,1,0,1:0:0:0:
349,96,125312,1,8,1:0:0:0:
349,96,125665,1,8,1:0:0:0:
257,181,126371,1,4,1:0:0:0:
179,63,126723,1,8,1:0:0:0:
320,40,127075,1,0,1:0:0:0:
166,83,128134,1,0,1:0:0:0:
166,83,128487,1,8,1:0:0:0:
179,63,129546,1,8,1:0:0:0:
200,56,129899,1,0,1:0:0:0:
409,148,130605,1,8,1:0:0:0:
180,63,130958,1,0,1:0:0:0:
294,222,131311,1,8,1:0:0:0:
180,63,131664,1,0,1:0:0:0:
180,63,132017,1,8,1:0:0:0:
180,63,132370,1,8,1:0:0:0:
203,64,132723,1,0,1:0:0:0:
203,64,133781,1,0,1:0:0:0:
203,64,134134,1,8,1:0:0:0:
203,64,135193,1,8,1:0:0:0:
203,64,135546,1,0,1:0:0:0:
329,96,136252,1,0,1:0:0:0:
203,64,136605,1,0,1:0:0:0:
203,64,136958,1,8,1:0:0:0:
203,64,137311,1,8,1:0:0:0:
356,171,138017,1,0,1:0:0:0:
288,167,138370,1,8,1:0:0:0:
288,167,138546,1,0,1:0:0:0:
203,268,138723,1,0,1:0:0:0:
343,90,139075,1,8,1:0:0:0:
345,90,139252,1,8,1:0:0:0:
345,90,139428,1,0,1:0:0:0:
325,115,139781,1,0,1:0:0:0:
211,235,140134,1,8,1:0:0:0:
300,149,140311,1,0,1:0:0:0:
366,131,140487,1,8,1:0:0:0:
366,131,140664,1,8,1:0:0:0:
217,1,140840,1,0,1:0:0:0:
268,235,141193,1,8,1:0:0:0:
211,235,141546,1,8,1:0:0:0:
285,163,141899,1,0,1:0:0:0:
285,163,142075,1,8,1:0:0:0:
125,141,142252,1,0,1:0:0:0:
285,163,142605,1,8,1:0:0:0:
211,235,142958,1,8,1:0:0:0:
356,171,143664,1,0,1:0:0:0:
288,167,144017,1,8,1:0:0:0:
288,167,144193,1,0,1:0:0:0:
203,268,144370,1,0,1:0:0:0:
343,90,144723,1,8,1:0:0:0:
345,90,144899,1,8,1:0:0:0:
345,90,145075,1,0,1:0:0:0:
325,115,145428,1,0,1:0:0:0:
211,235,145781,1,8,1:0:0:0:
300,149,145958,1,0,1:0:0:0:
366,131,146134,1,8,1:0:0:0:
366,131,146311,1,8,1:0:0:0:
217,1,146487,1,0,1:0:0:0:
268,235,146840,1,8,1:0:0:0:
211,235,147193,1,8,1:0:0:0:
285,163,147546,1,0,1:0:0:0:
285,163,147723,1,8,1:0:0:0:
125,141,147899,1,0,1:0:0:0:
285,163,148252,1,8,1:0:0:0:
211,235,148605,1,8,1:0:0:0:
215,260,149311,1,12,1:0:0:0:
368,301,150017,1,0,1:0:0:0:
276,85,150370,1,0,1:0:0:0:
367,289,150722,1,8,1:0:0:0:
367,289,151428,1,0,1:0:0:0:
231,44,151781,1,8,1:0:0:0:
195,157,152134,1,8,1:0:0:0:
367,289,152840,1,0,1:0:0:0:
316,176,153546,1,8,1:0:0:0:
302,118,154605,1,0,1:0:0:0:
215,260,154958,1,8,1:0:0:0:
368,301,155664,1,0,1:0:0:0:
302,60,156017,1,0,1:0:0:0:
367,289,156370,1,8,1:0:0:0:
367,289,157075,1,0,1:0:0:0:
247,61,157428,1,8,1:0:0:0:
195,157,157781,1,8,1:0:0:0:
367,289,158487,1,0,1:0:0:0:
316,176,159193,1,8,1:0:0:0:
195,157,159899,1,0,1:0:0:0:
280,21,160252,1,8,1:0:0:0:
280,21,160605,1,4,1:0:0:0:
