osu file format v14

[General]
AudioFilename: audio.mp3
AudioLeadIn: 0
PreviewTime: 22500
Countdown: 0
SampleSet: Soft
StackLeniency: 0.5
Mode: 0
LetterboxInBreaks: 0
WidescreenStoryboard: 1

[Editor]
Bookmarks: 22500,52500,60937,66562,72187,103125,135000,150000
DistanceSpacing: 0.16
BeatDivisor: 4
GridSize: 8
TimelineZoom: 1.9

[Metadata]
Title:Clubstep
TitleUnicode:Clubstep
Artist:dj-Nate
ArtistUnicode:dj-Nate
Creator:ADoorNob
Version:Hard
Source:Geometry Dash
Tags:Electronic House Instrumental Dance Demon Sightread LosPedros Corne2Plum3 Ixcors
BeatmapID:3920715
BeatmapSetID:1857624

[Difficulty]
HPDrainRate:4
CircleSize:3.9
OverallDifficulty:5
ApproachRate:7.5
SliderMultiplier:1.4
SliderTickRate:1

[Events]
//Background and Video events
0,0,"86158508_p0.jpg",0,0
//Break Periods
2,13324,19331
2,52582,60112
//Storyboard Layer 0 (Background)
//Storyboard Layer 1 (Fail)
//Storyboard Layer 2 (Pass)
//Storyboard Layer 3 (Foreground)
//Storyboard Layer 4 (Overlay)
//Storyboard Sound Samples

[TimingPoints]
0,468.75,4,2,1,75,1,0
0,-100,4,2,1,75,0,0
11250,-111.111111111111,4,2,1,75,0,0
22500,-71.4285714285714,4,2,1,85,0,1
35625,-71.4285714285714,4,2,1,85,0,0
37500,-66.6666666666667,4,2,1,90,0,1
43125,-76.9230769230769,4,2,1,90,0,0
45000,-66.6666666666667,4,2,1,90,0,1
50625,-66.6666666666667,4,2,1,75,0,0
55312,468.75,4,2,1,75,1,0
60937,-200,4,2,1,60,0,0
64687,-200,4,2,1,65,0,0
66562,-200,4,2,1,70,0,0
72187,-71.4285714285714,4,2,1,85,0,1
85312,-81.1688311688312,4,2,1,85,0,0
86366,-71.4285714285714,4,2,1,85,0,0
87187,-71.4285714285714,4,2,1,85,0,1
100312,-81.3008130081301,4,2,1,85,0,0
101366,-71.4285714285714,4,2,1,85,0,0
103124,468.75,4,2,1,75,1,0
103125,-200,4,2,1,75,0,0
104062,-133.333333333333,4,2,1,75,0,0
105000,-200,4,2,1,75,0,0
105937,-133.333333333333,4,2,1,75,0,0
106875,-200,4,2,1,75,0,0
107812,-133.333333333333,4,2,1,75,0,0
108750,-200,4,2,1,75,0,0
109687,-133.333333333333,4,2,1,75,0,0
110625,-200,4,2,1,75,0,0
111562,-133.333333333333,4,2,1,75,0,0
112500,-200,4,2,1,75,0,0
113437,-133.333333333333,4,2,1,75,0,0
114375,-200,4,2,1,75,0,0
115312,-133.333333333333,4,2,1,75,0,0
118125,-200,4,2,1,75,0,0
119062,-133.333333333333,4,2,1,75,0,0
120000,-200,4,2,1,75,0,0
120937,-133.333333333333,4,2,1,75,0,0
121875,-200,4,2,1,75,0,0
122811,-133.333333333333,4,2,1,75,0,0
123750,-200,4,2,1,75,0,0
124687,-133.333333333333,4,2,1,75,0,0
125625,-200,4,2,1,75,0,0
126561,-133.333333333333,4,2,1,75,0,0
127500,-200,4,2,1,75,0,0
128437,-133.333333333333,4,2,1,75,0,0
129375,-200,4,2,1,75,0,0
130312,-133.333333333333,4,2,1,75,0,0
135000,-100,4,2,1,80,0,0

[Colours]
Combo1 : 166,166,166
Combo2 : 255,210,119

[HitObjects]
407,270,0,6,0,P|398:316|376:340,2,70,2|2|2,0:0|0:0|0:0,0:0:0:0:
490,219,703,1,2,0:0:0:0:
490,219,820,2,0,P|469:185|462:140,2,70,2|2|2,0:0|0:0|0:0,0:0:0:0:
435,79,1523,2,0,P|418:72|401:71,2,35,2|2|2,0:0|0:0|0:0,0:0:0:0:
454,74,1874,6,0,P|478:98|512:103,2,70,2|2|2,0:0|0:0|0:0,0:0:0:0:
359,0,2578,1,2,0:0:0:0:
359,0,2695,2,0,P|372:53|375:91,2,70,2|2|2,0:0|0:0|0:0,0:0:0:0:
242,41,3398,2,0,P|267:38|294:14,2,35,2|2|2,0:0|0:0|0:0,0:0:0:0:
227,53,3750,6,0,B|189:37|161:73|168:76|173:78|152:118|106:102,1,140,2|2,0:0|0:0,0:0:0:0:
39,68,4453,1,2,0:0:0:0:
39,68,4570,2,0,P|35:27|19:-2,2,70,2|2|2,0:0|0:0|0:0,0:0:0:0:
57,201,5273,2,0,P|56:218|49:234,2,35,2|2|2,0:0|0:0|0:0,0:0:0:0:
69,191,5625,6,0,P|101:132|168:129,1,140,2|2,0:0|0:0,0:0:0:0:
222,196,6328,1,2,0:0:0:0:
222,196,6445,2,0,P|253:211|287:214,2,70,2|2|2,0:0|0:0|0:0,0:0:0:0:
62,231,7148,2,0,P|79:230|95:223,2,35,2|2|2,0:0|0:0|0:0,0:0:0:0:
49,244,7500,6,0,P|106:259|108:342,1,140,2|2,0:0|0:0,0:0:0:0:
206,278,8203,5,2,0:0:0:0:
206,278,8320,2,0,P|237:262|271:259,2,70,2|2|2,0:0|0:0|0:0,0:0:0:0:
432,256,9023,2,0,P|414:255|398:248,2,35,2|2|2,0:0|0:0|0:0,0:0:0:0:
445,272,9375,6,0,B|407:256|379:292|386:295|391:297|370:337|324:321,1,140,2|2,0:0|0:0,0:0:0:0:
264,268,10078,5,2,0:0:0:0:
264,268,10195,2,0,P|233:252|199:249,2,70,2|2|2,0:0|0:0|0:0,0:0:0:0:
138,110,10898,2,0,P|137:127|130:143,2,35,2|2|2,0:0|0:0|0:0,0:0:0:0:
148,93,11250,6,0,P|162:144|233:156,1,125.999996154785,2|2,0:0|0:0,0:0:0:0:
326,84,11953,1,2,0:0:0:0:
326,84,12070,2,0,P|311:111|306:142,2,62.9999980773926,2|2|2,0:0|0:0|0:0,0:0:0:0:
397,39,12773,5,2,0:0:0:0:
397,40,12890,2,0,P|412:47|429:52,2,31.4999990386963,2|2|2,0:0|0:0|0:0,0:0:0:0:
256,192,20156,12,0,21562,0:0:0:0:
100,39,21796,5,2,0:0:0:0:
100,39,21914,1,2,0:0:0:0:
100,39,22031,2,0,P|85:78|83:117,1,62.9999980773926,2|2,0:0|0:0,0:0:0:0:
2,176,22500,6,0,P|49:173|82:207,2,97.9999970092774,4|2|0,3:1|0:0|1:0,0:0:0:0:
167,278,23203,1,2,0:0:0:0:
167,278,23320,2,0,P|169:229|180:182,1,97.9999970092774,2|2,0:0|0:0,0:0:0:0:
98,156,23789,2,0,P|96:107|85:59,1,97.9999970092774,2|2,0:0|0:0,0:0:0:0:
94,45,24140,5,2,0:0:0:0:
94,45,24257,1,2,0:0:0:0:
94,44,24375,2,0,P|51:23|9:44,2,97.9999970092774,0|2|0,3:0|0:0|1:0,0:0:0:0:
155,100,25078,1,2,0:0:0:0:
155,100,25195,2,0,P|213:88|277:90,1,97.9999970092774,2|2,0:0|0:0,0:0:0:0:
301,25,25664,2,0,P|359:37|423:35,1,97.9999970092774,2|2,0:0|0:0,0:0:0:0:
426,57,26015,5,2,0:0:0:0:
426,57,26132,1,2,0:0:0:0:
427,57,26250,2,0,P|447:99|426:141,2,97.9999970092774,0|2|0,3:0|0:0|1:0,0:0:0:0:
337,152,26953,1,2,0:0:0:0:
337,152,27070,2,0,P|349:210|347:274,1,97.9999970092774,2|2,0:0|0:0,0:0:0:0:
443,224,27539,2,0,P|431:282|433:346,1,97.9999970092774,2|2,0:0|0:0,0:0:0:0:
428,351,27890,5,2,0:0:0:0:
428,351,28007,1,2,0:0:0:0:
428,352,28125,2,0,P|470:372|512:351,2,97.9999970092774,0|2|0,3:0|0:0|1:0,0:0:0:0:
356,296,28828,1,2,0:0:0:0:
356,296,28945,2,0,B|316:292|316:292|299:299|299:299|259:295,1,97.9999970092774,2|2,0:0|0:0,0:0:0:0:
181,322,29414,5,2,0:0:0:0:
181,322,29648,2,0,B|169:342|169:342|173:367,2,48.9999985046387,2|2|2,0:0|0:0|0:0,0:0:0:0:
165,304,30000,6,0,P|122:283|80:304,2,97.9999970092774,0|2|0,3:0|0:0|1:0,0:0:0:0:
0,273,30703,1,2,0:0:0:0:
0,273,30820,2,0,P|12:215|10:151,1,97.9999970092774,2|2,0:0|0:0,0:0:0:0:
110,204,31289,2,0,P|98:146|100:82,1,97.9999970092774,2|2,0:0|0:0,0:0:0:0:
84,85,31640,5,2,0:0:0:0:
84,85,31757,1,2,0:0:0:0:
84,85,31875,2,0,P|41:64|0:85,2,97.9999970092774,0|2|0,3:0|0:0|1:0,0:0:0:0:
96,171,32578,1,2,0:0:0:0:
96,171,32695,2,0,P|154:159|218:161,1,97.9999970092774,2|2,0:0|0:0,0:0:0:0:
165,61,33164,2,0,P|223:73|287:71,1,97.9999970092774,2|2,0:0|0:0,0:0:0:0:
280,69,33515,5,2,0:0:0:0:
280,69,33632,1,2,0:0:0:0:
280,69,33750,2,0,P|322:48|364:69,2,97.9999970092774,0|2|0,3:0|0:0|1:0,0:0:0:0:
455,82,34453,1,2,0:0:0:0:
455,82,34570,2,0,P|443:140|445:204,1,97.9999970092774,2|2,0:0|0:0,0:0:0:0:
345,151,35039,2,0,P|357:209|355:273,1,97.9999970092774,2|2,0:0|0:0,0:0:0:0:
379,275,35390,5,2,0:0:0:0:
379,275,35507,1,2,0:0:0:0:
379,276,35625,2,0,P|421:296|463:275,2,97.9999970092774,0|2|0,3:0|0:0|1:0,0:0:0:0:
296,260,36328,1,2,0:0:0:0:
296,260,36445,2,0,B|256:263|256:263|240:272|240:272|200:276,1,97.9999970092774,2|2,0:0|0:0,0:0:0:0:
186,359,36914,5,2,0:0:0:0:
186,359,37031,1,2,0:0:0:0:
186,359,37148,2,0,B|136:352,1,48.9999985046387,2|2,0:0|0:0,0:0:0:0:
73,303,37500,5,4,3:1:0:0:
73,303,37617,1,2,0:0:0:0:
73,303,37734,2,0,B|55:252|55:252|87:211,1,105.000004005432,2|0,0:0|1:0,0:0:0:0:
160,167,38203,1,2,0:0:0:0:
160,167,38320,2,0,B|207:171|207:171|223:180|223:180|262:184,2,105.000004005432,2|2|2,0:0|0:0|0:0,0:0:0:0:
86,130,39023,5,2,0:0:0:0:
86,130,39140,1,2,0:0:0:0:
86,130,39257,1,2,0:0:0:0:
86,130,39375,2,0,L|23:135,2,52.5000020027161,0|2|2,3:0|0:0|0:0,0:0:0:0:
126,56,39843,2,0,B|170:26|170:26|217:46,1,105.000004005432,0|2,1:0|0:0,0:0:0:0:
242,66,40195,2,0,B|289:70|289:70|305:79|305:79|344:83,1,105.000004005432,2|2,0:0|0:0,0:0:0:0:
411,32,40664,5,2,0:0:0:0:
411,32,40898,2,0,B|431:18|431:18|458:23,2,52.5000020027161,2|2|2,0:0|0:0|0:0,0:0:0:0:
400,21,41250,6,0,B|404:68|404:68|413:84|413:84|417:123,1,105.000004005432,0|2,3:0|0:0,0:0:0:0:
373,192,41718,1,0,1:0:0:0:
455,203,41953,1,2,0:0:0:0:
455,203,42070,2,0,B|474:252|474:252|444:293,1,105.000004005432,2|2,0:0|0:0,0:0:0:0:
363,284,42539,2,0,B|343:234|343:234|373:193,1,105.000004005432,2|2,0:0|0:0,0:0:0:0:
384,175,42890,5,2,0:0:0:0:
384,175,43007,1,2,0:0:0:0:
384,175,43125,2,0,L|378:128,2,45.4999979171754,0|2|2,3:0|0:0|0:0,0:0:0:0:
462,197,43593,2,0,B|458:237|458:237|463:253|463:253|461:287,1,90.9999958343508,0|2,1:0|0:0,0:0:0:0:
469,305,43945,1,2,0:0:0:0:
395,339,44179,2,0,L|401:386,2,45.4999979171754,2|2|2,0:0|0:0|0:0,0:0:0:0:
339,280,44648,5,2,0:0:0:0:
339,280,44765,1,2,0:0:0:0:
339,280,44882,1,2,0:0:0:0:
339,280,45000,2,0,B|327:255|327:255|335:231,2,52.5000020027161,0|2|2,3:0|0:0|0:0,0:0:0:0:
267,322,45468,6,0,B|220:318|220:318|204:309|204:309|165:305,1,105.000004005432,0|2,1:0|0:0,0:0:0:0:
153,294,45820,2,0,B|119:332|119:332|135:383,2,105.000004005432,2|2|2,0:0|0:0|0:0,0:0:0:0:
201,228,46523,5,2,0:0:0:0:
201,228,46640,1,2,0:0:0:0:
201,228,46757,1,2,0:0:0:0:
201,228,46875,2,0,L|196:165,2,52.5000020027161,0|2|2,3:0|0:0|0:0,0:0:0:0:
153,294,47343,6,0,B|101:309|101:309|63:276,1,105.000004005432,0|2,1:0|0:0,0:0:0:0:
50,276,47695,2,0,B|54:229|54:229|63:213|63:213|67:174,1,105.000004005432,2|2,0:0|0:0,0:0:0:0:
47,94,48164,5,2,0:0:0:0:
47,94,48398,2,0,B|26:80|26:80|0:85,2,52.5000020027161,2|2|2,0:0|0:0|0:0,0:0:0:0:
69,105,48750,6,0,B|116:101|116:101|132:92|132:92|171:88,1,105.000004005432,0|2,3:0|0:0,0:0:0:0:
253,112,49218,1,0,1:0:0:0:
235,30,49453,1,2,0:0:0:0:
235,30,49570,2,0,B|277:-4|277:-4|325:12,1,105.000004005432,2|2,0:0|0:0,0:0:0:0:
344,95,50039,2,0,B|302:129|302:129|254:113,1,105.000004005432,2|2,0:0|0:0,0:0:0:0:
243,133,50390,5,2,0:0:0:0:
243,133,50507,1,2,0:0:0:0:
243,133,50625,2,0,P|195:152|134:149,2,105.000004005432,2|2|2,0:0|0:0|0:0,0:0:0:0:
310,82,51328,1,2,0:0:0:0:
310,82,51445,2,0,P|361:76|395:115,1,105.000004005432,2|2,0:0|0:0,0:0:0:0:
450,183,51914,1,2,0:0:0:0:
450,183,52031,1,2,0:0:0:0:
450,183,52148,1,2,0:0:0:0:
450,183,52265,2,0,P|441:210|440:242,1,52.5000020027161,2|2,0:0|0:0,0:0:0:0:
417,319,60937,6,0,P|450:327|478:348,2,70,0|0|0,3:0|1:0|3:0,0:0:0:0:
361,256,62109,1,0,0:0:0:0:
361,256,62343,2,0,P|341:262|312:260,2,35,0|2|2,1:0|0:0|0:0,0:0:0:0:
87,137,64687,6,0,P|51:133|29:99,2,70,0|0|0,3:0|1:0|3:0,0:0:0:0:
154,91,65859,1,0,0:0:0:0:
154,91,66093,2,0,P|156:72|164:56,2,35,0|2|2,1:0|0:0|0:0,0:0:0:0:
256,192,68437,5,2,0:0:0:0:
256,192,68671,12,0,71250,0:0:0:0:
0,14,72187,6,0,P|64:19|74:137,1,195.999994018555,4|0,3:1|1:0,0:0:0:0:
30,197,72890,1,2,0:0:0:0:
30,197,73007,2,0,P|43:243|44:292,1,97.9999970092774,2|2,0:0|0:0,0:0:0:0:
129,361,73476,2,0,P|130:312|144:264,1,97.9999970092774,2|2,0:0|0:0,0:0:0:0:
148,255,73827,5,2,0:0:0:0:
148,255,73944,1,2,0:0:0:0:
148,255,74062,2,0,B|200:233|238:282|228:286|221:289|250:343|313:322,1,195.999994018555,0|0,3:0|1:0,0:0:0:0:
356,253,74765,1,2,0:0:0:0:
356,253,74882,2,0,P|398:232|441:252,1,97.9999970092774,2|2,0:0|0:0,0:0:0:0:
491,323,75351,1,2,0:0:0:0:
491,323,75585,2,0,P|484:351|483:374,2,48.9999985046387,2|2|2,0:0|0:0|0:0,0:0:0:0:
478,309,75937,6,0,P|476:249|430:113,1,195.999994018555,0|0,3:0|1:0,0:0:0:0:
479,23,76640,1,2,0:0:0:0:
479,23,76757,2,0,P|426:42|365:46,1,97.9999970092774,2|2,0:0|0:0,0:0:0:0:
372,69,77108,1,2,0:0:0:0:
372,69,77225,2,0,P|319:50|258:46,1,97.9999970092774,2|2,0:0|0:0,0:0:0:0:
271,38,77577,5,2,0:0:0:0:
271,38,77694,1,2,0:0:0:0:
271,38,77812,2,0,B|218:16|180:65|190:69|197:72|168:126|105:105,1,195.999994018555,0|0,3:0|1:0,0:0:0:0:
31,98,78515,1,2,0:0:0:0:
31,98,78632,2,0,P|24:44|13:1,2,97.9999970092774,2|2|2,0:0|0:0|0:0,0:0:0:0:
82,203,79335,6,0,P|83:178|90:155,2,48.9999985046387,2|2|2,0:0|0:0|0:0,0:0:0:0:
67,222,79687,2,0,P|78:269|79:318,1,97.9999970092774,0|2,3:0|0:0,0:0:0:0:
131,383,80155,1,0,1:0:0:0:
194,329,80390,1,2,0:0:0:0:
194,329,80507,2,0,P|237:309|279:330,1,97.9999970092774,2|2,0:0|0:0,0:0:0:0:
374,361,80976,5,2,0:0:0:0:
374,361,81210,2,0,B|394:373|394:373|419:369,2,48.9999985046387,2|2|2,0:0|0:0|0:0,0:0:0:0:
361,344,81562,6,0,P|363:295|350:248,1,97.9999970092774,0|2,3:0|0:0,0:0:0:0:
315,170,82030,1,0,1:0:0:0:
405,185,82265,1,2,0:0:0:0:
405,185,82382,2,0,P|448:165|490:186,1,97.9999970092774,2|2,0:0|0:0,0:0:0:0:
493,267,82851,2,0,P|450:287|408:266,1,97.9999970092774,2|2,0:0|0:0,0:0:0:0:
391,261,83202,5,2,0:0:0:0:
391,261,83319,1,2,0:0:0:0:
391,261,83437,2,0,P|381:142|357:66,1,195.999994018555,0|0,3:0|1:0,0:0:0:0:
502,33,84141,1,2,0:0:0:0:
502,33,84258,2,0,P|483:86|479:147,1,97.9999970092774,2|2,0:0|0:0,0:0:0:0:
456,140,84609,1,0,0:0:0:0:
456,140,84726,2,0,P|475:193|479:254,1,97.9999970092774,2|2,0:0|0:0,0:0:0:0:
500,265,85078,5,2,0:0:0:0:
500,265,85195,1,2,0:0:0:0:
500,265,85312,2,0,P|502:296|483:321,2,64.6800002368652,0|2|2,3:0|0:0|0:0,0:0:0:0:
470,359,85839,2,0,P|443:377|412:372,2,64.6800002368652,2|2|2,0:0|0:0|0:0,0:0:0:0:
373,380,86366,2,0,P|308:360|262:360,1,97.9999970092774,2|0,0:0|0:0,0:0:0:0:
175,300,86835,2,0,P|199:301|223:296,2,48.9999985046387,2|0|0,0:0|0:0|0:0,0:0:0:0:
159,319,87187,5,0,3:0:0:0:
159,319,87304,1,0,0:0:0:0:
158,319,87421,2,0,P|112:331|74:303,1,97.9999970092774,2|0,0:0|1:0,0:0:0:0:
13,230,87890,1,2,0:0:0:0:
13,230,88007,2,0,P|11:175|-6:121,1,97.9999970092774,2|2,0:0|0:0,0:0:0:0:
98,175,88476,2,0,P|100:120|117:66,1,97.9999970092774,2|2,0:0|0:0,0:0:0:0:
103,65,88827,5,2,0:0:0:0:
103,65,88944,1,2,0:0:0:0:
103,65,89062,2,0,B|82:54|82:54|57:60,2,48.9999985046387,0|2|2,3:0|0:0|0:0,0:0:0:0:
185,64,89530,6,0,P|231:73|267:42,1,97.9999970092774,0|2,1:0|0:0,0:0:0:0:
287,28,89882,2,0,P|322:-2|369:6,1,97.9999970092774,2|2,0:0|0:0,0:0:0:0:
448,32,90351,1,2,0:0:0:0:
448,32,90585,2,0,B|469:43|469:43|494:37,2,48.9999985046387,2|2|2,0:0|0:0|0:0,0:0:0:0:
434,20,90937,5,0,3:0:0:0:
365,72,91171,1,2,0:0:0:0:
445,103,91405,2,0,P|432:150|430:199,1,97.9999970092774,0|2,1:0|0:0,0:0:0:0:
414,217,91757,2,0,P|426:264|428:313,1,97.9999970092774,2|2,0:0|0:0,0:0:0:0:
420,336,92108,1,2,0:0:0:0:
420,336,92226,2,0,P|381:364|336:351,1,97.9999970092774,2|2,0:0|0:0,0:0:0:0:
336,336,92577,5,2,0:0:0:0:
336,336,92694,1,2,0:0:0:0:
336,336,92812,2,0,B|283:358|245:309|255:305|262:302|233:248|170:269,1,195.999994018555,0|0,3:0|1:0,0:0:0:0:
97,289,93515,1,2,0:0:0:0:
97,289,93632,2,0,P|113:350|112:392,2,97.9999970092774,2|2|2,0:0|0:0|0:0,0:0:0:0:
45,189,94335,6,0,P|36:211|35:237,2,48.9999985046387,2|2|2,0:0|0:0|0:0,0:0:0:0:
57,173,94687,2,0,P|55:124|45:76,1,97.9999970092774,0|2,3:0|0:0,0:0:0:0:
7,0,95155,1,0,1:0:0:0:
96,12,95390,1,2,0:0:0:0:
96,12,95507,2,0,P|140:-3|181:22,1,97.9999970092774,2|2,0:0|0:0,0:0:0:0:
225,91,95976,5,2,0:0:0:0:
225,91,96210,2,0,B|231:116|231:116|217:136,2,48.9999985046387,2|2|2,0:0|0:0|0:0,0:0:0:0:
245,83,96562,6,0,P|287:62|330:80,1,97.9999970092774,0|2,3:0|0:0,0:0:0:0:
329,162,97030,1,0,1:0:0:0:
404,201,97265,1,2,0:0:0:0:
404,201,97382,2,0,P|408:160|425:103,1,97.9999970092774,2|2,0:0|0:0,0:0:0:0:
495,62,97851,5,2,0:0:0:0:
495,62,98085,2,0,P|493:38|483:14,2,48.9999985046387,2|2|2,0:0|0:0|0:0,0:0:0:0:
512,82,98437,6,0,P|500:129|498:178,1,97.9999970092774,0|2,3:0|0:0,0:0:0:0:
512,258,98905,1,0,1:0:0:0:
446,308,99140,1,2,0:0:0:0:
446,308,99257,2,0,P|403:329|360:311,1,97.9999970092774,2|2,0:0|0:0,0:0:0:0:
351,293,99608,1,2,0:0:0:0:
351,293,99725,2,0,P|308:275|266:297,1,97.9999970092774,2|2,0:0|0:0,0:0:0:0:
249,322,100077,5,2,0:0:0:0:
249,322,100194,1,2,0:0:0:0:
249,322,100312,2,0,P|228:345|197:349,2,64.5750009853363,0|2|2,3:0|0:0|0:0,0:0:0:0:
161,367,100839,2,0,P|129:360|110:335,2,64.5750009853363,2|2|2,0:0|0:0|0:0,0:0:0:0:
78,313,101366,2,0,P|74:245|58:201,1,97.9999970092774,2|0,0:0|0:0,0:0:0:0:
23,146,101835,5,2,0:0:0:0:
23,146,101952,1,2,0:0:0:0:
23,146,102069,1,2,0:0:0:0:
48,58,103125,6,0,P|77:111|82:172,1,122.5,0|2,3:0|0:0,0:0:0:0:
97,199,104062,2,0,P|118:229|165:233,2,78.7500030040742,0|2|2,1:0|0:0|0:0,0:0:0:0:
168,331,105000,6,0,P|221:301|282:296,1,122.5,0|2,3:0|0:0,0:0:0:0:
303,277,105937,2,0,P|336:298|378:301,2,78.7500030040742,0|2|2,1:0|0:0|0:0,0:0:0:0:
390,379,106875,6,0,P|396:320|450:296,1,122.5,0|2,3:0|0:0,0:0:0:0:
465,284,107812,2,0,P|495:263|499:216,2,78.7500030040742,0|2|2,1:0|0:0|0:0,0:0:0:0:
461,152,108750,6,0,P|407:122|346:117,1,122.5,0|2,3:0|0:0,0:0:0:0:
326,98,109687,2,0,P|293:119|251:122,2,78.7500030040742,0|2|2,1:0|0:0|0:0,0:0:0:0:
199,60,110625,6,0,P|141:71|120:126,1,122.5,0|2,3:0|0:0,0:0:0:0:
174,187,111562,2,0,P|141:166|99:163,2,78.7500030040742,0|2|2,1:0|0:0|0:0,0:0:0:0:
0,139,112500,6,0,P|29:192|34:253,1,122.5,0|2,3:0|0:0,0:0:0:0:
54,274,113437,2,0,P|33:307|30:349,2,78.7500030040742,0|2|2,1:0|0:0|0:0,0:0:0:0:
129,203,114375,6,0,P|135:261|189:285,1,122.5,0|2,3:0|0:0,0:0:0:0:
204,298,115312,2,0,P|234:319|238:366,2,78.7500030040742,0|2|2,1:0|0:0|0:0,0:0:0:0:
199,206,116250,6,0,P|220:218|243:221,2,39.3750015020371,0|2|2,3:0|0:0|0:0,0:0:0:0:
295,271,116777,2,0,P|316:259|339:256,2,39.3750015020371,2|2|2,0:0|0:0|0:0,0:0:0:0:
282,286,117187,1,0,1:0:0:0:
282,286,117304,2,0,P|323:298|337:314,1,52.5000020027161,2|2,0:0|0:0,0:0:0:0:
394,384,117773,1,2,0:0:0:0:
394,384,117890,2,0,P|390:371|388:358,1,26.2500010013581,2|2,0:0|0:0,0:0:0:0:
370,338,118125,6,0,P|370:277|346:221,1,122.5,0|2,3:0|0:0,0:0:0:0:
356,201,119062,2,0,P|365:163|394:132,2,78.7500030040742,0|2|2,1:0|0:0|0:0,0:0:0:0:
470,121,120000,6,0,P|411:114|387:60,1,122.5,0|2,3:0|0:0,0:0:0:0:
375,46,120937,2,0,P|354:16|307:12,2,78.7500030040742,0|2|2,1:0|0:0|0:0,0:0:0:0:
251,59,121875,6,0,P|197:88|136:93,1,122.5,0|2,3:0|0:0,0:0:0:0:
116,113,122811,2,0,P|83:92|41:89,2,78.7500030040742,0|2|2,1:0|0:0|0:0,0:0:0:0:
158,181,123750,6,0,P|151:239|97:263,1,122.5,0|2,3:0|0:0,0:0:0:0:
83,276,124687,2,0,P|53:297|49:344,2,78.7500030040742,0|2|2,1:0|0:0|0:0,0:0:0:0:
89,183,125625,6,0,P|142:212|203:217,1,122.5,0|2,3:0|0:0,0:0:0:0:
224,237,126561,2,0,P|257:216|299:213,2,78.7500030040742,0|2|2,1:0|0:0|0:0,0:0:0:0:
123,307,127500,6,0,P|183:308|238:334,1,122.5,0|2,3:0|0:0,0:0:0:0:
266,327,128437,2,0,P|284:361|318:385,2,78.7500030040742,0|2|2,1:0|0:0|0:0,0:0:0:0:
188,304,129375,6,0,P|246:297|270:243,1,122.5,0|2,3:0|0:0,0:0:0:0:
283,229,130312,2,0,P|304:199|351:195,2,78.7500030040742,0|2|2,1:0|0:0|0:0,0:0:0:0:
180,253,131250,6,0,P|201:265|224:268,2,39.3750015020371,0|2|2,3:0|0:0|0:0,0:0:0:0:
276,318,131777,2,0,P|297:306|320:303,2,39.3750015020371,2|2|2,0:0|0:0|0:0,0:0:0:0:
264,329,132187,1,0,1:0:0:0:
264,329,132304,2,0,P|305:341|319:357,1,52.5000020027161,2|2,0:0|0:0,0:0:0:0:
407,373,132773,1,2,0:0:0:0:
407,372,132890,2,0,P|394:375|383:382,1,26.2500010013581,2|2,0:0|0:0,0:0:0:0:
472,81,135000,6,0,B|398:96|398:96|382:120,1,105,0|0,3:0|0:0,0:0:0:0:
298,126,135468,1,2,0:0:0:0:
298,126,135585,1,0,0:0:0:0:
298,126,135703,2,0,L|383:140,2,70,2|0|2,0:0|1:0|0:0,0:0:0:0:
422,198,136406,2,0,B|437:222|437:222|511:237,1,105,0|0,3:0|0:0,0:0:0:0:
482,146,136875,6,0,L|458:293,1,140,0|2,3:0|0:0,0:0:0:0:
478,362,137578,2,0,B|431:367|431:367|414:351,2,70,2|0|2,0:0|1:0|0:0,0:0:0:0:
373,284,138281,2,0,B|326:279|326:279|309:294,1,70,0|0,3:0|0:0,0:0:0:0:
244,347,138750,5,0,3:0:0:0:
244,347,138984,2,0,L|163:332,1,70,2|0,0:0|0:0,0:0:0:0:
41,290,139453,2,0,L|122:275,1,70,0|0,0:0|1:0,0:0:0:0:
191,251,139921,1,2,0:0:0:0:
168,167,140156,5,0,3:0:0:0:
156,165,140273,1,2,0:0:0:0:
144,163,140390,2,0,L|63:148,1,70,2|0,0:0|0:0,0:0:0:0:
71,28,141562,5,0,1:0:0:0:
71,28,141679,2,0,B|99:59|99:59|92:128,2,105,0|0|0,0:0|3:0|0:0,0:0:0:0:
6,93,142500,2,0,L|183:71,1,175,0|2,3:0|0:0,0:0:0:0:
208,86,143203,5,2,0:0:0:0:
208,86,143320,1,0,0:0:0:0:
208,86,143437,2,0,B|220:59|220:59|259:51,1,70,0|2,1:0|0:0,0:0:0:0:
285,64,143906,2,0,B|297:91|297:91|372:103,1,105,0|0,3:0|0:0,0:0:0:0:
324,0,144375,6,0,L|346:177,1,175,0|2,3:0|0:0,0:0:0:0:
365,203,145078,1,2,0:0:0:0:
365,203,145195,1,0,0:0:0:0:
365,203,145312,2,0,B|377:176|377:176|416:168,1,70,0|2,1:0|0:0,0:0:0:0:
426,145,145781,2,0,B|438:172|438:172|513:184,1,105,0|0,3:0|0:0,0:0:0:0:
480,84,146250,6,0,L|458:261,1,175,0|2,3:0|0:0,0:0:0:0:
477,289,146953,1,2,0:0:0:0:
477,289,147070,1,0,0:0:0:0:
477,289,147187,2,0,B|465:262|465:262|426:254,1,70,0|2,1:0|0:0,0:0:0:0:
416,231,147656,2,0,B|404:258|404:258|329:270,1,105,0|0,3:0|0:0,0:0:0:0:
304,344,148125,6,0,B|224:337|224:337|215:344|215:344|132:337,1,175,0|2,3:0|0:0,0:0:0:0:
110,339,148828,1,2,0:0:0:0:
110,339,148945,1,0,0:0:0:0:
110,339,149062,2,0,B|122:312|122:312|161:304,1,70,0|2,1:0|0:0,0:0:0:0:
171,281,149531,2,0,B|183:308|183:308|258:320,1,105,0|0,3:0|0:0,0:0:0:0:
233,232,150000,5,0,3:0:0:0:
233,232,150234,2,0,L|182:240,1,35,2|2,0:0|0:0,0:0:0:0:
122,251,150585,2,0,L|71:259,1,35,2|2,0:0|0:0,0:0:0:0:
83,159,150937,2,0,L|152:170,2,70,0|2|0,1:0|0:0|3:0,0:0:0:0:
25,99,151640,1,2,0:0:0:0:
160,51,151875,5,0,3:0:0:0:
160,51,152109,2,0,L|168:102,1,35,2|2,0:0|0:0,0:0:0:0:
179,162,152460,2,0,L|187:213,1,35,2|2,0:0|0:0,0:0:0:0:
94,263,152812,2,0,L|105:193,2,70,0|2|0,1:0|0:0|3:0,0:0:0:0:
79,344,153515,1,2,0:0:0:0:
183,313,153750,5,0,3:0:0:0:
183,313,153984,2,0,L|234:321,1,35,2|2,0:0|0:0,0:0:0:0:
294,332,154335,2,0,L|345:340,1,35,2|2,0:0|0:0,0:0:0:0:
406,249,154687,2,0,L|336:260,2,70,0|2|0,1:0|0:0|3:0,0:0:0:0:
483,236,155390,1,2,0:0:0:0:
470,159,155625,6,0,B|386:148|386:148|378:155|378:155|298:146,1,175,0|2,3:0|0:0,0:0:0:0:
285,122,156328,1,2,0:0:0:0:
285,122,156445,1,0,0:0:0:0:
285,122,156562,2,0,B|273:149|273:149|234:157,1,70,0|2,1:0|0:0,0:0:0:0:
224,180,157031,2,0,B|212:153|212:153|137:141,1,105,0|0,3:0|0:0,0:0:0:0:
124,126,157500,5,0,3:0:0:0:
124,126,157734,2,0,L|116:177,1,35,2|2,0:0|0:0,0:0:0:0:
105,237,158085,2,0,L|97:288,1,35,2|2,0:0|0:0,0:0:0:0:
23,207,158437,2,0,L|11:137,2,70,0|2|0,1:0|0:0|3:0,0:0:0:0:
40,286,159140,1,2,0:0:0:0:
5,360,159375,5,0,3:0:0:0:
5,360,159609,2,0,L|56:368,1,35,2|2,0:0|0:0,0:0:0:0:
116,379,159960,2,0,L|167:387,1,35,2|2,0:0|0:0,0:0:0:0:
164,286,160312,2,0,L|94:297,2,70,0|2|0,1:0|0:0|3:0,0:0:0:0:
243,275,161015,1,2,0:0:0:0:
332,337,161250,5,0,3:0:0:0:
332,337,161484,2,0,L|324:286,1,35,2|2,0:0|0:0,0:0:0:0:
313,226,161835,2,0,L|305:175,1,35,2|2,0:0|0:0,0:0:0:0:
405,186,162187,2,0,L|393:255,2,70,0|2|0,1:0|0:0|3:0,0:0:0:0:
417,107,162890,1,2,0:0:0:0:
482,33,163125,5,0,3:0:0:0:
482,33,163359,2,0,L|431:25,1,35,2|2,0:0|0:0,0:0:0:0:
371,14,163710,2,0,L|320:6,1,35,2|2,0:0|0:0,0:0:0:0:
270,99,164062,2,0,L|339:87,2,70,0|2|0,1:0|0:0|3:0,0:0:0:0:
191,115,164765,1,2,0:0:0:0:
