osu file format v14

[General]
AudioFilename: audio.mp3
AudioLeadIn: 0
PreviewTime: 22500
Countdown: 0
SampleSet: Soft
StackLeniency: 0.5
Mode: 0
LetterboxInBreaks: 0
WidescreenStoryboard: 0

[Editor]
DistanceSpacing: 1
BeatDivisor: 8
GridSize: 8
TimelineZoom: 1.5

[Metadata]
Title:Clubstep
TitleUnicode:Clubstep
Artist:dj-Nate
ArtistUnicode:dj-Nate
Creator:ADoorNob
Version:Demon
Source:Geometry Dash
Tags:Electronic House Instrumental Dance Demon Sightread LosPedros Corne2Plum3 Ixcors
BeatmapID:3920717
BeatmapSetID:1857624

[Difficulty]
HPDrainRate:5
CircleSize:4.3
OverallDifficulty:8.6
ApproachRate:9.4
SliderMultiplier:1.4
SliderTickRate:1

[Events]
//Background and Video events
0,0,"86158508_p0.jpg",0,0
//Break Periods
2,13325,19616
2,52582,60397
2,63012,64147
2,66762,67897
//Storyboard Layer 0 (Background)
//Storyboard Layer 1 (Fail)
//Storyboard Layer 2 (Pass)
//Storyboard Layer 3 (Foreground)
//Storyboard Layer 4 (Overlay)
//Storyboard Sound Samples

[TimingPoints]
0,468.75,4,2,1,75,1,0
0,-57.1428571428571,4,2,1,75,0,0
12539,-66.6666666666667,4,2,1,75,0,0
12890,-80,4,2,1,75,0,0
13125,-100,4,2,1,75,0,0
22500,-43.4782608695652,4,2,1,85,0,1
28593,-33.3333333333333,4,2,1,85,0,1
28945,-25,4,2,1,85,0,1
30000,-41.6666666666667,4,2,1,85,0,1
35625,-41.6666666666666,4,2,1,85,0,0
37500,-41.6666666666667,4,2,1,90,0,1
37734,-40,4,2,1,90,0,1
40664,-36.3636363636349,4,2,1,90,0,1
43125,-36.3636363636364,4,2,1,90,0,0
43359,-55.5555555555556,4,2,1,90,0,0
45000,-36.3636363636364,4,2,1,90,0,1
48164,-33.3333333333334,4,2,1,90,0,1
50625,-40,4,2,1,75,0,0
55312,468.75,4,2,1,75,1,0
60937,-100,4,2,1,60,0,0
64687,-90.9090909090909,4,2,1,65,0,0
66562,-90.9090909090909,4,2,1,70,0,0
72187,-41.6666666666667,4,2,1,85,0,1
85312,-41.6666666666667,4,2,1,85,0,0
87187,-41.6666666666667,4,2,1,85,0,1
100312,-41.6666666666667,4,2,1,85,0,0
103124,468.75,4,2,1,75,1,0
103124,-66.6666666666667,4,2,1,75,0,0
134999,-37.037037037037,4,2,1,80,0,0
136170,-74.0740740740741,4,2,1,80,0,0
136874,-40.8163265306122,4,2,1,80,0,0
137108,-41.6666666666667,4,2,1,80,0,0
137342,-47.6190476190476,4,2,1,80,0,0
137811,-27.7777777777778,4,2,1,80,0,0
138045,-45.4545454545455,4,2,1,80,0,0
138280,-100,4,2,1,80,0,0
138983,-29.4117647058824,4,2,1,80,0,0
139393,-57.1428571428571,4,2,1,80,0,0
139627,-27.027027027027,4,2,1,80,0,0
139862,-50,4,2,1,80,0,0
141561,-25,4,2,1,80,0,0
141678,-33.3333333333333,4,2,1,80,0,0
142030,-52.6315789473684,4,2,1,80,0,0
142499,-26.5560165975104,4,2,1,80,0,0
143436,-37.037037037037,4,2,1,80,0,0
143670,-50,4,2,1,80,0,0
143905,-100,4,2,1,80,0,0
144374,-25.2167060677699,4,2,1,80,0,0
145311,-33.3333333333333,4,2,1,80,0,0
145545,-50,4,2,1,80,0,0
145780,-100,4,2,1,80,0,0
146249,-23.4432234432234,4,2,1,80,0,0
147186,-33.3333333333333,4,2,1,80,0,0
147420,-43.4782608695652,4,2,1,80,0,0
147655,-100,4,2,1,80,0,0
148124,-22.6950354609929,4,2,1,80,0,0
149061,-33.3333333333333,4,2,1,80,0,0
149295,-50,4,2,1,80,0,0
149530,-100,4,2,1,80,0,0
152811,-100,4,2,1,80,0,0
153045,-80,4,2,1,80,0,0
153280,-66.6666666666667,4,2,1,80,0,0
153749,-26.5560165975104,4,2,1,80,0,0
154686,-50,4,2,1,80,0,0
154920,-40,4,2,1,80,0,0
155155,-100,4,2,1,80,0,0
155624,-22.6950354609929,4,2,1,80,0,0
156561,-33.3333333333333,4,2,1,80,0,0
156795,-50,4,2,1,80,0,0
157030,-100,4,2,1,80,0,0

[Colours]
Combo1 : 166,166,166
Combo2 : 255,210,119

[HitObjects]
512,132,0,6,0,B|472:124|472:124|440:148,1,61.2500005841255,2|0,0:0|0:0,0:0:0:0:
347,213,234,2,0,B|387:208|387:208|410:175,1,61.2500005841255,2|0,0:0|0:0,0:0:0:0:
363,0,468,2,0,B|384:28|384:28|375:81|375:81|381:140,1,122.500001168251,2|2,0:0|0:0,0:0:0:0:
347,213,820,2,0,B|326:180|326:180|267:175|267:175|244:160,2,122.500001168251,2|2|2,0:0|0:0|0:0,0:0:0:0:
347,213,1523,6,0,L|416:227,1,61.2500005841255,2|2,0:0|0:0,0:0:0:0:
446,292,1757,1,2,0:0:0:0:
363,361,1875,1,2,0:0:0:0:
360,336,1992,1,2,0:0:0:0:
375,317,2109,6,0,B|334:331|334:331|284:338|284:338|254:365,2,122.500001168251,2|2|2,0:0|0:0|0:0,0:0:0:0:
446,292,2695,1,2,0:0:0:0:
409,224,2929,1,2,0:0:0:0:
334,202,3164,1,2,0:0:0:0:
154,296,3398,5,2,0:0:0:0:
154,296,3515,2,0,B|177:286|177:286|228:306,1,61.2500005841255,2|2,0:0|0:0,0:0:0:0:
128,365,3750,2,0,B|129:310|129:310|106:270|106:270|110:249,2,122.500001168251,2|2|2,0:0|0:0|0:0,0:0:0:0:
126,241,4453,1,2,0:0:0:0:
126,241,4570,2,0,L|113:178,1,61.2500005841255,2|0,0:0|0:0,0:0:0:0:
6,104,4804,6,0,B|47:128|47:128|60:123,1,61.2500005841255,2|0,0:0|0:0,0:0:0:0:
222,123,5038,2,0,B|175:112|175:112|164:119,1,61.2500005841255,2|0,0:0|0:0,0:0:0:0:
46,221,5273,1,2,0:0:0:0:
32,229,5390,1,2,0:0:0:0:
16,224,5508,1,2,0:0:0:0:
113,181,5625,6,0,B|157:202|157:202|206:209|206:209|232:227,2,122.500001168251,2|2|2,0:0|0:0|0:0,0:0:0:0:
60,123,6328,1,2,0:0:0:0:
60,123,6445,2,0,B|57:86|57:86|48:63,1,61.2500005841255,2|0,0:0|0:0,0:0:0:0:
149,0,6679,2,0,B|140:23|140:23|137:59,1,61.2500005841255,2|0,0:0|0:0,0:0:0:0:
113,181,6914,2,0,B|123:166|123:166|162:147,1,61.2500005841255,2|0,0:0|0:0,0:0:0:0:
223,97,7148,1,2,0:0:0:0:
215,83,7265,1,2,0:0:0:0:
220,67,7383,1,2,0:0:0:0:
284,28,7500,6,0,B|259:33|259:33|242:50|242:50|169:44,2,122.500001168251,2|2|2,0:0|0:0|0:0,0:0:0:0:
358,58,8203,1,2,0:0:0:0:
358,58,8320,2,0,B|366:103|366:103|351:130,1,61.2500005841255,2|0,0:0|0:0,0:0:0:0:
421,199,8554,2,0,B|398:189|398:189|360:203,1,61.2500005841255,2|0,0:0|0:0,0:0:0:0:
231,150,8789,2,0,B|272:152|272:152|296:172,1,61.2500005841255,2|0,0:0|0:0,0:0:0:0:
331,269,9023,1,2,0:0:0:0:
339,283,9140,1,2,0:0:0:0:
334,299,9258,1,2,0:0:0:0:
263,336,9375,6,0,B|315:323|315:323|344:339|344:339|398:339,2,122.500001168251,2|2|2,0:0|0:0|0:0,0:0:0:0:
480,261,10078,1,2,0:0:0:0:
480,261,10196,2,0,B|461:282|461:282|452:333,1,61.2500005841255,2|0,0:0|0:0,0:0:0:0:
365,260,10430,2,0,B|378:241|378:241|373:202,1,61.2500005841255,2|0,0:0|0:0,0:0:0:0:
301,113,10664,2,0,L|384:132,1,61.2500005841255,2|0,0:0|0:0,0:0:0:0:
429,244,10898,1,2,0:0:0:0:
437,230,11015,1,2,0:0:0:0:
432,214,11133,1,2,0:0:0:0:
485,162,11250,6,0,B|456:187|456:187|403:193|403:193|358:207,2,122.500001168251,2|2|2,0:0|0:0|0:0,0:0:0:0:
324,262,11953,1,2,0:0:0:0:
310,254,12070,1,2,0:0:0:0:
294,259,12187,2,0,B|252:254|252:254|237:244,1,61.2500005841255,0|2,0:0|0:0,0:0:0:0:
236,243,12539,2,0,B|196:250|196:250|178:269,1,52.5000020027161,2|0,0:0|0:0,0:0:0:0:
187,258,12890,2,0,B|152:251|152:251|138:236,1,43.75,2|2,0:0|0:0,0:0:0:0:
109,183,13125,1,2,0:0:0:0:
256,192,20156,12,0,21562,0:0:0:0:
137,254,21796,5,2,0:0:0:0:
69,205,21914,1,2,0:0:0:0:
125,276,22031,1,2,0:0:0:0:
236,181,22265,5,2,0:0:0:0:
371,101,22500,2,0,B|315:110|315:110|292:143,1,80.5000015354157,4|0,3:1|0:0,0:0:0:0:
236,181,22734,2,0,B|180:172|180:172|157:139,1,80.5000015354157,2|0,0:0|0:0,0:0:0:0:
112,0,22968,2,0,B|97:44|97:44|102:76|102:76|97:131,1,120.750002303124,0|0,1:0|0:0,0:0:0:0:
90,132,23203,1,2,0:0:0:0:
15,204,23320,6,0,B|1:150|1:150|18:113,1,80.5000015354157,2|0,0:0|3:0,0:0:0:0:
67,323,23554,2,0,B|13:307|13:307|-9:274,1,80.5000015354157,2|0,0:0|0:0,0:0:0:0:
197,336,23789,2,0,B|157:374|157:374|116:378,1,80.5000015354157,2|0,0:0|1:0,0:0:0:0:
130,283,24023,5,2,0:0:0:0:
211,236,24140,1,2,0:0:0:0:
138,276,24257,1,2,0:0:0:0:
226,225,24375,6,0,B|281:236|281:236|292:257,1,80.5000015354157,0|2,3:0|0:0,0:0:0:0:
425,334,24609,2,0,B|374:309|374:309|369:285,1,80.5000015354157,2|0,0:0|0:0,0:0:0:0:
479,183,24843,2,0,B|414:200|414:200|387:191|387:191|365:207,1,120.750002303124,0|0,1:0|0:0,0:0:0:0:
356,216,25078,1,2,0:0:0:0:
303,152,25195,2,0,B|285:122|285:122|240:111,1,80.5000015354157,2|0,0:0|3:0,0:0:0:0:
432,60,25429,2,0,B|384:73|384:73|366:101,1,80.5000015354157,2|0,0:0|0:0,0:0:0:0:
191,173,25664,2,0,B|173:203|173:203|128:214,1,80.5000015354157,2|0,0:0|1:0,0:0:0:0:
41,92,25898,5,2,0:0:0:0:
58,170,26015,1,2,0:0:0:0:
30,88,26133,1,2,0:0:0:0:
51,182,26250,6,0,B|29:205|29:205|27:253,1,80.5000015354157,0|0,3:0|0:0,0:0:0:0:
0,359,26484,2,0,B|19:336|19:336|98:322,1,80.5000015354157,2|0,0:0|0:0,0:0:0:0:
255,292,26718,2,0,B|215:297|215:297|123:275,1,120.750002303124,0|0,1:0|0:0,0:0:0:0:
124,266,26953,1,2,0:0:0:0:
80,189,27070,2,0,B|53:165|53:165|8:169,1,80.5000015354157,2|0,0:0|3:0,0:0:0:0:
195,246,27304,2,0,B|168:270|168:270|123:265,1,80.5000015354157,2|0,0:0|0:0,0:0:0:0:
317,138,27539,2,0,B|290:114|290:114|245:118,1,80.5000015354157,2|0,0:0|1:0,0:0:0:0:
255,292,27773,5,2,0:0:0:0:
336,339,27890,1,2,0:0:0:0:
263,299,28007,1,2,0:0:0:0:
351,350,28125,6,0,B|406:339|406:339|417:318,1,80.5000015354157,0|0,3:0|0:0,0:0:0:0:
440,237,28359,2,0,B|495:248|495:248|506:269,1,80.5000015354157,2|0,0:0|0:0,0:0:0:0:
294,276,28593,2,0,B|235:286|235:286|215:269|215:269|90:249,1,210.000008010865,0|2,1:0|0:0,0:0:0:0:
0,214,28945,2,0,B|36:197|36:197|80:33,1,210,2|0,0:0|0:0,0:0:0:0:
101,10,29180,2,0,B|137:26|137:26|181:190,1,210,2|0,0:0|0:0,0:0:0:0:
176,210,29414,5,2,0:0:0:0:
158,248,29531,1,0,1:0:0:0:
118,262,29648,1,2,0:0:0:0:
176,210,29765,1,2,0:0:0:0:
254,215,29882,1,2,0:0:0:0:
305,273,30000,6,0,B|318:299|318:299|371:310,1,83.9999974365235,0|0,3:0|0:0,0:0:0:0:
187,252,30234,2,0,B|200:226|200:226|253:214,1,83.9999974365235,2|0,0:0|0:0,0:0:0:0:
15,349,30468,2,0,B|43:345|43:345|68:327|68:327|137:336,1,125.999996154785,0|0,1:0|0:0,0:0:0:0:
155,325,30703,1,2,0:0:0:0:
47,253,30820,2,0,B|31:215|31:215|55:180,1,83.9999974365235,2|0,0:0|3:0,0:0:0:0:
105,64,31054,2,0,B|62:60|62:60|38:93,1,83.9999974365235,2|0,0:0|0:0,0:0:0:0:
172,6,31289,2,0,B|212:11|212:11|230:49,1,83.9999974365235,2|0,0:0|1:0,0:0:0:0:
222,134,31523,5,2,0:0:0:0:
208,221,31640,1,2,0:0:0:0:
138,165,31757,1,2,0:0:0:0:
240,131,31875,5,0,3:0:0:0:
292,195,31992,1,0,0:0:0:0:
374,203,32109,2,1,B|395:183|395:183|474:171,1,84.0000000000001,2|0,0:0|0:0,0:0:0:0:
283,8,32343,2,1,B|318:46|318:46|313:70|313:70|330:145,1,126.000000000002,0|0,1:0|0:0,0:0:0:0:
335,130,32578,1,2,0:0:0:0:
246,259,32695,2,1,B|225:279|225:279|146:291,1,84.0000000000027,2|0,0:0|3:0,0:0:0:0:
292,195,32929,2,1,B|347:204|347:204|368:224,1,84.0000000000001,2|0,0:0|0:0,0:0:0:0:
427,285,33164,2,1,B|482:277|482:277|503:257,1,84.0000000000001,2|0,0:0|1:0,0:0:0:0:
452,84,33398,5,2,0:0:0:0:
392,143,33515,1,2,0:0:0:0:
474,166,33632,1,2,0:0:0:0:
437,74,33750,6,1,B|416:94|416:94|362:103,1,84.0000000000001,0|0,3:0|0:0,0:0:0:0:
217,25,33984,2,1,B|272:34|272:34|293:54,1,84.0000000000001,2|0,0:0|0:0,0:0:0:0:
163,92,34218,2,1,B|135:96|135:96|110:114|110:114|41:105,1,126,0|0,1:0|0:0,0:0:0:0:
23,116,34453,1,2,0:0:0:0:
122,197,34570,2,1,B|131:252|131:252|151:273,1,84.0000000000001,2|0,0:0|3:0,0:0:0:0:
87,334,34804,2,1,B|32:325|32:325|11:305,1,84.0000000000001,2|0,0:0|0:0,0:0:0:0:
299,208,35039,2,1,B|244:217|244:217|223:237,1,84.0000000000001,2|0,0:0|1:0,0:0:0:0:
306,373,35273,5,2,0:0:0:0:
284,291,35390,1,2,0:0:0:0:
223,351,35507,1,2,0:0:0:0:
320,366,35625,6,1,B|349:326|349:326|395:334|395:334|408:343|408:343|465:331,2,168,0|2|0,3:0|0:0|1:0,0:0:0:0:
449,173,36328,1,2,0:0:0:0:
431,265,36445,2,1,B|437:206|437:206|454:188,1,84.0000000000001,2|0,0:0|3:0,0:0:0:0:
374,34,36679,2,1,B|380:93|380:93|397:110,1,84.0000000000001,2|0,0:0|0:0,0:0:0:0:
291,192,36914,5,2,0:0:0:0:
356,240,37031,1,2,0:0:0:0:
313,162,37148,1,2,0:0:0:0:
227,137,37265,1,2,0:0:0:0:
148,180,37382,1,2,0:0:0:0:
205,264,37500,5,4,3:1:0:0:
212,252,37617,1,2,0:0:0:0:
218,240,37734,2,1,B|233:214|233:214|221:179|221:179|219:138,1,87.5,2|0,0:0|0:0,0:0:0:0:
101,73,37968,2,1,B|131:103|131:103|173:92,2,87.5,0|0|2,1:0|0:0|0:0,0:0:0:0:
28,4,38320,2,1,B|15:75|15:75|20:101,1,87.5,2|0,0:0|3:0,0:0:0:0:
78,240,38554,2,1,B|65:169|65:169|70:143,1,87.5,2|0,0:0|0:0,0:0:0:0:
163,274,38789,2,1,B|127:262|127:262|83:270|83:270|74:276|74:276|36:276,1,131.25,2|0,0:0|0:0,0:0:0:0:
23,266,39023,1,2,0:0:0:0:
111,329,39140,1,2,0:0:0:0:
218,339,39257,1,2,0:0:0:0:
315,294,39375,5,0,3:0:0:0:
310,275,39492,1,2,0:0:0:0:
305,256,39609,1,2,0:0:0:0:
358,196,39726,5,0,0:0:0:0:
381,272,39843,2,1,B|400:296|400:296|406:352,1,87.5,0|0,1:0|0:0,0:0:0:0:
469,133,40078,1,2,0:0:0:0:
469,133,40195,2,1,B|449:157|449:157|443:213,1,87.5,2|0,0:0|3:0,0:0:0:0:
406,80,40429,2,1,B|412:25|412:25|431:0,1,87.5,2|0,0:0|0:0,0:0:0:0:
261,86,40664,6,1,B|233:110|233:110|178:117|178:117|171:115|171:115|127:127,1,144.375000000006,2|0,0:0|0:0,0:0:0:0:
116,115,40898,1,2,0:0:0:0:
55,180,41015,1,2,0:0:0:0:
120,241,41132,1,2,0:0:0:0:
43,170,41250,5,0,3:0:0:0:
43,151,41367,1,2,0:0:0:0:
45,134,41484,1,2,0:0:0:0:
0,72,41601,5,0,0:0:0:0:
59,22,41718,2,1,B|117:30|117:30|149:10,1,96.25,0|0,1:0|0:0,0:0:0:0:
332,86,41953,1,2,0:0:0:0:
260,112,42070,2,1,B|228:92|228:92|170:99,1,96.25,2|0,0:0|3:0,0:0:0:0:
386,18,42304,2,1,B|354:38|354:38|296:30,1,96.25,2|0,0:0|0:0,0:0:0:0:
443,172,42539,6,1,B|456:126|456:126|423:90,2,96.250000000003,2|0|2,0:0|1:0|0:0,0:0:0:0:
367,209,42890,1,2,0:0:0:0:
340,289,43007,1,2,0:0:0:0:
420,316,43125,5,0,3:0:0:0:
436,313,43242,1,2,0:0:0:0:
452,310,43359,2,1,B|428:315|428:315|390:308,1,63,2|0,0:0|0:0,0:0:0:0:
311,214,43593,2,1,B|329:243|329:243|318:282,2,63,0|0|2,1:0|0:0|0:0,0:0:0:0:
216,357,43945,2,1,B|231:338|231:338|291:325,1,63.0000000000039,2|0,0:0|3:0,0:0:0:0:
166,286,44179,1,2,0:0:0:0:
151,290,44296,1,2,0:0:0:0:
136,294,44414,2,1,B|120:275|120:275|61:262,1,63,2|0,0:0|1:0,0:0:0:0:
10,177,44648,1,2,0:0:0:0:
95,190,44765,1,2,0:0:0:0:
175,158,44882,1,2,0:0:0:0:
228,90,45000,6,1,B|209:117|209:117|132:134,1,96.25,0|2,3:0|0:0,0:0:0:0:
0,100,45234,2,1,B|41:68|41:68|84:76,1,96.25,2|0,0:0|0:0,0:0:0:0:
50,257,45468,2,1,B|36:195|36:195|9:176,2,96.25,0|0|2,1:0|0:0|0:0,0:0:0:0:
117,304,45820,6,1,B|136:331|136:331|197:344,1,96.25,2|0,0:0|3:0,0:0:0:0:
332,257,46054,2,1,B|283:248|283:248|247:280,1,96.25,2|0,0:0|0:0,0:0:0:0:
431,347,46289,2,1,B|408:324|408:324|408:277|408:277|413:263|413:263|401:210,1,144.375000000006,2|0,0:0|0:0,0:0:0:0:
417,204,46523,5,2,0:0:0:0:
495,174,46640,1,2,0:0:0:0:
481,258,46757,1,2,0:0:0:0:
401,191,46875,5,0,3:0:0:0:
402,171,46992,1,2,0:0:0:0:
404,151,47109,1,2,0:0:0:0:
456,89,47226,5,0,0:0:0:0:
424,17,47343,2,1,B|405:44|405:44|413:106,1,96.25,0|0,1:0|0:0,0:0:0:0:
307,124,47578,1,2,0:0:0:0:
313,25,47695,2,1,B|331:52|331:52|321:124,1,96.25,2|0,0:0|3:0,0:0:0:0:
148,169,47929,2,1,B|197:178|197:178|233:146,1,96.25,2|0,0:0|0:0,0:0:0:0:
48,43,48164,6,1,B|35:89|35:89|59:140|59:140|67:194,1,157.5,2|0,0:0|0:0,0:0:0:0:
81,212,48398,1,2,0:0:0:0:
71,298,48515,1,2,0:0:0:0:
0,248,48632,1,2,0:0:0:0:
93,198,48750,5,0,3:0:0:0:
112,198,48867,1,2,0:0:0:0:
129,200,48984,1,2,0:0:0:0:
171,272,49101,5,0,0:0:0:0:
213,199,49218,2,1,B|195:226|195:226|207:299,1,105,0|0,1:0|0:0,0:0:0:0:
361,302,49453,1,2,0:0:0:0:
274,347,49570,2,1,B|327:356|327:356|364:323,1,105,2|0,0:0|3:0,0:0:0:0:
478,208,49804,2,1,B|489:257|489:257|454:299,1,105,2|0,0:0|0:0,0:0:0:0:
502,119,50039,2,1,B|483:68|483:68|436:52,1,105,2|0,0:0|1:0,0:0:0:0:
280,18,50273,5,2,0:0:0:0:
358,44,50390,1,2,0:0:0:0:
394,117,50507,1,2,0:0:0:0:
332,170,50625,6,1,B|306:144|306:144|242:131|242:131|229:143|229:143|170:157,2,175,2|2|2,0:0|0:0|0:0,0:0:0:0:
179,30,51328,1,2,0:0:0:0:
137,98,51445,2,1,B|153:126|153:126|155:196,1,87.5,2|0,0:0|0:0,0:0:0:0:
5,27,51679,2,1,B|48:15|48:15|83:41,1,87.5,2|0,0:0|0:0,0:0:0:0:
137,98,51914,5,2,0:0:0:0:
113,178,52031,1,2,0:0:0:0:
234,224,52148,5,2,0:0:0:0:
210,144,52265,1,2,0:0:0:0:
153,265,52382,5,2,0:0:0:0:
28,138,60937,6,0,B|110:148|110:148|126:170,1,105,0|0,3:0|0:0,0:0:0:0:
173,228,61406,2,0,L|168:271,1,35,0|0,1:0|0:0,0:0:0:0:
250,320,61640,1,2,0:0:0:0:
250,320,61757,2,0,L|245:285,1,35,2|0,0:0|3:0,0:0:0:0:
57,329,61992,2,0,B|90:343|90:343|119:325,2,70,2|2|2,0:0|0:0|0:0,0:0:0:0:
21,256,62578,1,2,0:0:0:0:
0,384,62812,1,2,0:0:0:0:
512,24,64687,6,0,B|487:53|487:53|410:67,1,115.50000352478,0|0,3:0|0:0,0:0:0:0:
270,6,65156,2,0,L|355:23,1,77.0000023498536,0|0,1:0|0:0,0:0:0:0:
411,66,65507,2,0,L|415:110,1,38.5000011749268,2|0,0:0|3:0,0:0:0:0:
334,143,65741,2,0,L|337:104,1,38.5000011749268,2|0,0:0|0:0,0:0:0:0:
421,60,65976,2,0,L|425:104,1,38.5000011749268,2|0,0:0|1:0,0:0:0:0:
322,147,66210,1,2,0:0:0:0:
322,147,66328,2,0,L|325:108,1,38.5000011749268,2|0,0:0|0:0,0:0:0:0:
371,1,66562,1,2,0:0:0:0:
256,192,68437,5,2,0:0:0:0:
256,192,68554,12,0,71953,0:0:0:0:
55,0,72187,6,0,B|87:23|87:23|77:109|77:109|60:127|60:127|80:228,1,251.999992309571,4|0,3:1|0:0,0:0:0:0:
75,328,72656,2,0,B|58:310|58:310|-4:298,1,83.9999974365235,0|0,1:0|0:0,0:0:0:0:
158,221,72890,1,2,0:0:0:0:
158,221,73007,2,0,B|179:234|179:234|242:224,1,83.9999974365235,2|0,0:0|3:0,0:0:0:0:
358,15,73242,2,0,B|315:5|315:5|283:30,1,83.9999974365235,2|0,0:0|0:0,0:0:0:0:
206,150,73476,2,0,B|196:91|196:91|209:70,1,83.9999974365235,2|0,0:0|1:0,0:0:0:0:
391,216,73710,5,2,0:0:0:0:
335,275,73827,1,2,0:0:0:0:
312,196,73944,1,2,0:0:0:0:
400,201,74062,6,0,B|372:171|372:171|313:156|313:156|300:166|300:166|227:174,1,167.999994873047,0|0,3:0|0:0,0:0:0:0:
177,125,74414,1,0,0:0:0:0:
177,125,74531,2,0,B|116:117|116:117|100:101,1,83.9999974365235,0|0,1:0|0:0,0:0:0:0:
82,192,74765,1,2,0:0:0:0:
82,192,74882,2,0,B|90:253|90:253|105:268,1,83.9999974365235,2|0,0:0|3:0,0:0:0:0:
19,102,75116,2,0,B|27:41|27:41|42:25,1,83.9999974365235,2|0,0:0|0:0,0:0:0:0:
193,22,75351,2,0,B|158:0|158:0|118:16,1,83.9999974365235,2|0,0:0|1:0,0:0:0:0:
134,226,75585,5,2,0:0:0:0:
213,203,75702,1,2,0:0:0:0:
153,146,75819,1,2,0:0:0:0:
143,235,75937,6,0,B|221:216|221:216|233:226|233:226|302:247,1,167.999994873047,0|0,3:0|0:0,0:0:0:0:
92,299,76289,1,0,0:0:0:0:
92,299,76406,2,0,B|76:284|76:284|15:276,1,83.9999974365235,0|0,1:0|0:0,0:0:0:0:
143,235,76640,1,2,0:0:0:0:
155,163,76757,2,0,B|171:148|171:148|232:140,1,83.9999974365235,2|0,0:0|3:0,0:0:0:0:
326,50,76992,1,2,0:0:0:0:
308,81,77109,1,2,0:0:0:0:
326,112,77226,2,0,B|311:128|311:128|305:204,1,83.9999974365235,2|0,0:0|1:0,0:0:0:0:
385,311,77460,5,2,0:0:0:0:
451,262,77577,1,2,0:0:0:0:
375,229,77694,1,2,0:0:0:0:
373,322,77812,6,0,B|345:301|345:301|263:283|263:283|237:312|237:312|132:330,1,251.999992309571,0|0,3:0|0:0,0:0:0:0:
6,290,78281,2,0,B|30:271|30:271|93:281,2,83.9999974365235,0|0|2,1:0|0:0|0:0,0:0:0:0:
144,327,78632,2,0,B|163:303|163:303|153:240,1,83.9999974365235,2|0,0:0|3:0,0:0:0:0:
261,132,78867,2,0,B|234:148|234:148|222:210,1,83.9999974365235,2|0,0:0|0:0,0:0:0:0:
223,354,79101,2,0,B|259:377|259:377|298:366,2,83.9999974365235,2|0|2,0:0|1:0|0:0,0:0:0:0:
144,327,79453,1,2,0:0:0:0:
242,271,79570,1,2,0:0:0:0:
131,348,79687,6,0,B|107:367|107:367|44:357,1,83.9999974365235,0|2,3:0|0:0,0:0:0:0:
185,210,79921,2,0,B|166:234|166:234|176:297,1,83.9999974365235,2|0,0:0|0:0,0:0:0:0:
321,331,80156,2,0,B|297:312|297:312|234:322,1,83.9999974365235,0|0,1:0|0:0,0:0:0:0:
387,374,80390,1,2,0:0:0:0:
444,321,80507,2,0,B|463:297|463:297|453:234,1,83.9999974365235,2|0,0:0|3:0,0:0:0:0:
396,100,80742,2,0,B|415:124|415:124|405:187,1,83.9999974365235,2|0,0:0|0:0,0:0:0:0:
335,217,80976,2,0,B|296:228|296:228|260:205,1,83.9999974365235,2|0,0:0|1:0,0:0:0:0:
395,21,81210,5,2,0:0:0:0:
362,96,81327,1,2,0:0:0:0:
312,30,81444,1,2,0:0:0:0:
406,16,81562,6,0,B|441:40|441:40|445:81,1,83.9999974365235,0|2,3:0|0:0,0:0:0:0:
458,216,81796,2,0,B|492:192|492:192|496:150,1,83.9999974365235,2|0,0:0|0:0,0:0:0:0:
424,294,82031,2,0,B|385:312|385:312|347:294,1,83.9999974365235,0|0,1:0|0:0,0:0:0:0:
203,179,82265,1,2,0:0:0:0:
203,179,82382,2,0,B|218:206|218:206|208:258,1,83.9999974365235,2|0,0:0|3:0,0:0:0:0:
268,384,82617,2,0,B|258:332|258:332|273:305,1,83.9999974365235,2|2,0:0|0:0,0:0:0:0:
372,219,82851,2,0,B|330:206|330:206|281:233,2,83.9999974365235,2|0|2,0:0|1:0|0:0,0:0:0:0:
167,322,83203,5,2,0:0:0:0:
134,336,83320,1,2,0:0:0:0:
100,322,83437,2,0,B|60:285|60:285|71:207|71:207|91:193|91:193|76:94,1,251.999992309571,0|0,3:0|0:0,0:0:0:0:
89,5,83906,6,0,B|110:29|110:29|160:41,1,83.9999974365235,0|0,1:0|0:0,0:0:0:0:
265,55,84140,1,2,0:0:0:0:
290,66,84257,2,0,B|239:78|239:78|218:102,1,83.9999974365235,2|0,0:0|3:0,0:0:0:0:
209,189,84492,1,2,0:0:0:0:
196,214,84609,1,0,0:0:0:0:
204,240,84726,2,0,B|179:219|179:219|171:152,1,83.9999974365235,2|0,0:0|1:0,0:0:0:0:
347,14,84960,1,2,0:0:0:0:
380,83,85078,2,0,B|401:107|401:107|451:119,1,83.9999974365235,2|2,0:0|0:0,0:0:0:0:
512,237,85312,5,0,3:0:0:0:
466,217,85487,1,2,0:0:0:0:
504,187,85663,1,2,0:0:0:0:
362,331,85839,5,2,0:0:0:0:
335,265,86015,1,2,0:0:0:0:
402,274,86190,1,2,0:0:0:0:
247,278,86366,5,2,0:0:0:0:
0,336,86601,6,0,B|58:323|58:323|75:334|75:334|125:348,1,125.999996154785,2|0,0:0|0:0,0:0:0:0:
141,346,86835,1,2,0:0:0:0:
216,335,86953,1,2,0:0:0:0:
129,361,87070,1,2,0:0:0:0:
229,321,87187,6,0,B|284:314|284:314|300:290,1,83.9999974365235,0|0,3:0|0:0,0:0:0:0:
297,147,87421,2,0,B|273:163|273:163|266:218,1,83.9999974365235,2|0,0:0|0:0,0:0:0:0:
355,346,87656,2,0,B|390:371|390:371|428:358,2,83.9999974365235,0|0|2,1:0|0:0|0:0,0:0:0:0:
190,243,88007,6,0,B|173:219|173:219|118:212,1,83.9999974365235,2|0,0:0|3:0,0:0:0:0:
0,309,88242,2,0,B|54:302|54:302|71:279,1,83.9999974365235,2|0,0:0|0:0,0:0:0:0:
21,50,88476,2,0,B|2:99|2:99|24:131|24:131|26:178,1,125.999996154785,2|0,0:0|0:0,0:0:0:0:
34,174,88710,5,2,0:0:0:0:
100,217,88828,1,2,0:0:0:0:
15,179,88945,1,2,0:0:0:0:
117,211,89062,6,0,B|172:204|172:204|189:181,1,83.9999974365235,0|2,3:0|0:0,0:0:0:0:
197,37,89296,2,0,B|173:53|173:53|166:108,1,83.9999974365235,2|0,0:0|0:0,0:0:0:0:
333,240,89531,2,0,B|316:216|316:216|261:209,1,83.9999974365235,0|0,1:0|0:0,0:0:0:0:
371,147,89765,1,2,0:0:0:0:
422,205,89882,2,0,B|477:198|477:198|493:174,1,83.9999974365235,2|0,0:0|3:0,0:0:0:0:
320,89,90117,2,0,B|265:96|265:96|248:119,1,83.9999974365235,2|0,0:0|0:0,0:0:0:0:
462,40,90351,2,0,B|421:28|421:28|386:52,2,83.9999974365235,2|0|2,0:0|1:0|0:0,0:0:0:0:
304,175,90703,1,2,0:0:0:0:
320,89,90820,1,2,0:0:0:0:
279,189,90937,6,0,B|257:217|257:217|199:227,1,83.9999974365235,0|2,3:0|0:0,0:0:0:0:
63,196,91172,2,0,B|93:177|93:177|151:187,1,83.9999974365235,2|0,0:0|0:0,0:0:0:0:
235,297,91406,2,0,B|259:332|259:332|248:373,2,83.9999974365235,0|0|2,1:0|0:0|0:0,0:0:0:0:
0,341,91757,2,0,B|30:360|30:360|88:350,1,83.9999974365235,2|0,0:0|3:0,0:0:0:0:
159,295,91992,1,2,0:0:0:0:
132,274,92109,1,2,0:0:0:0:
99,278,92226,2,0,B|80:248|80:248|86:187|86:187|71:161,1,125.999996154785,2|0,0:0|0:0,0:0:0:0:
50,148,92460,5,2,0:0:0:0:
112,101,92578,1,2,0:0:0:0:
29,141,92695,1,2,0:0:0:0:
131,106,92812,6,0,B|226:74|226:74|241:89|241:89|320:109|320:109|373:73,1,251.999992309571,0|0,3:0|0:0,0:0:0:0:
280,184,93281,2,0,B|254:216|254:216|266:258,2,83.9999974365235,0|0|2,1:0|0:0|0:0,0:0:0:0:
359,178,93632,2,0,B|389:197|389:197|436:188,1,83.9999974365235,2|0,0:0|3:0,0:0:0:0:
487,42,93866,2,0,B|468:72|468:72|476:119,1,83.9999974365235,2|0,0:0|0:0,0:0:0:0:
415,301,94101,2,0,B|438:274|438:274|424:212|424:212|439:184,1,125.999996154785,2|0,0:0|0:0,0:0:0:0:
457,179,94335,5,2,0:0:0:0:
393,128,94453,1,2,0:0:0:0:
475,175,94570,1,2,0:0:0:0:
374,131,94687,6,0,B|344:150|344:150|296:141,1,83.9999974365235,0|2,3:0|0:0,0:0:0:0:
223,9,94921,2,0,B|242:39|242:39|233:86,1,83.9999974365235,2|0,0:0|0:0,0:0:0:0:
147,198,95156,2,0,B|170:171|170:171|218:164,1,83.9999974365235,0|0,1:0|0:0,0:0:0:0:
132,69,95390,1,2,0:0:0:0:
93,135,95507,2,0,B|64:157|64:157|14:143,1,83.9999974365235,2|0,0:0|3:0,0:0:0:0:
0,0,95742,2,0,B|27:23|27:23|34:71,1,83.9999974365235,2|0,0:0|0:0,0:0:0:0:
50,231,95976,2,0,B|27:258|27:258|41:320|41:320|26:348,1,125.999996154785,2|0,0:0|0:0,0:0:0:0:
18,357,96210,5,2,0:0:0:0:
82,306,96328,1,2,0:0:0:0:
0,353,96445,1,2,0:0:0:0:
101,309,96562,6,0,B|131:328|131:328|179:319,1,83.9999974365235,0|2,3:0|0:0,0:0:0:0:
307,240,96796,2,0,B|259:231|259:231|229:250,1,83.9999974365235,2|0,0:0|0:0,0:0:0:0:
343,384,97031,2,0,B|334:336|334:336|353:306,1,83.9999974365235,0|0,1:0|0:0,0:0:0:0:
463,222,97265,1,2,0:0:0:0:
463,222,97382,2,0,B|433:241|433:241|385:232,1,83.9999974365235,2|0,0:0|3:0,0:0:0:0:
304,96,97617,2,0,B|331:118|331:118|337:167,1,83.9999974365235,2|0,0:0|0:0,0:0:0:0:
256,344,97851,2,0,B|276:330|276:330|286:254|286:254|306:240,1,125.999996154785,2|0,0:0|0:0,0:0:0:0:
318,241,98085,5,2,0:0:0:0:
253,191,98203,1,2,0:0:0:0:
336,237,98320,1,2,0:0:0:0:
235,194,98437,6,0,B|205:213|205:213|157:204,1,83.9999974365235,0|2,3:0|0:0,0:0:0:0:
38,112,98671,2,0,B|57:142|57:142|48:190,1,83.9999974365235,2|0,0:0|0:0,0:0:0:0:
83,328,98906,2,0,B|102:298|102:298|93:250,1,83.9999974365235,0|0,1:0|0:0,0:0:0:0:
128,87,99140,1,2,0:0:0:0:
128,87,99257,2,0,B|158:68|158:68|206:77,1,83.9999974365235,2|0,0:0|3:0,0:0:0:0:
363,167,99492,1,2,0:0:0:0:
336,146,99609,1,2,0:0:0:0:
303,150,99726,2,0,B|284:120|284:120|290:59|290:59|275:33,1,125.999996154785,2|0,0:0|0:0,0:0:0:0:
258,24,99960,1,2,0:0:0:0:
365,68,100078,2,0,B|395:87|395:87|443:78,1,83.9999974365235,2|2,0:0|0:0,0:0:0:0:
426,192,100312,5,0,3:0:0:0:
379,211,100487,1,2,0:0:0:0:
418,243,100663,1,2,0:0:0:0:
268,93,100839,5,2,0:0:0:0:
241,159,101015,1,2,0:0:0:0:
312,150,101190,1,2,0:0:0:0:
146,123,101366,5,2,0:0:0:0:
68,0,101601,6,0,B|81:58|81:58|70:75|70:75|56:125,1,125.999996154785,2|0,0:0|0:0,0:0:0:0:
47,135,101835,1,2,0:0:0:0:
134,239,101953,1,2,0:0:0:0:
115,165,102070,1,2,0:0:0:0:
512,88,103124,6,0,B|478:112|478:112|416:96,2,105.000004005432,0|2|2,3:0|0:0|0:0,0:0:0:0:
355,44,103827,5,2,0:0:0:0:
355,44,103944,2,0,B|318:54|318:54|304:51,1,52.5000020027161,2|0,0:0|1:0,0:0:0:0:
185,2,104178,2,0,B|222:11|222:11|232:21,1,52.5000020027161,2|0,0:0|0:0,0:0:0:0:
289,129,104413,2,0,B|250:142|250:142|242:150|242:150|189:151,1,105.000004005432,2|2,0:0|0:0,0:0:0:0:
86,102,104764,1,2,0:0:0:0:
91,89,104881,1,2,0:0:0:0:
101,63,104999,6,0,B|109:121|109:121|102:142|102:142|109:165,2,105.000004005432,0|2|2,3:0|0:0|0:0,0:0:0:0:
44,221,105702,1,2,0:0:0:0:
44,221,105819,2,0,B|29:238|29:238|0:243,1,52.5000020027161,2|0,0:0|1:0,0:0:0:0:
163,269,106053,2,0,B|148:252|148:252|118:246,1,52.5000020027161,2|0,0:0|0:0,0:0:0:0:
12,321,106288,2,0,B|35:350|35:350|101:364,1,105.000004005432,2|2,0:0|0:0,0:0:0:0:
214,329,106639,1,2,0:0:0:0:
201,334,106756,1,2,0:0:0:0:
175,344,106874,6,0,B|233:352|233:352|254:345|254:345|277:352,2,105.000004005432,0|2|2,3:0|0:0|0:0,0:0:0:0:
374,384,107577,1,2,0:0:0:0:
374,384,107695,2,0,B|357:369|357:369|351:339,1,52.5000020027161,2|0,0:0|1:0,0:0:0:0:
299,241,107928,5,2,0:0:0:0:
328,248,108045,1,2,0:0:0:0:
357,255,108163,2,0,B|287:265|287:265|256:243,1,105.000004005432,2|2,0:0|0:0,0:0:0:0:
418,205,108514,5,2,0:0:0:0:
449,236,108631,1,2,0:0:0:0:
437,278,108749,2,0,B|465:244|465:244|414:81|414:81|437:39,1,262.500010013581,0|0,3:0|0:0,0:0:0:0:
504,107,109452,5,2,0:0:0:0:
504,107,109569,2,0,B|483:138|483:138|407:148,2,105.000004005432,2|2|2,0:0|0:0|0:0,0:0:0:0:
512,95,110155,5,0,3:0:0:0:
247,11,110389,5,2,0:0:0:0:
260,16,110506,1,2,0:0:0:0:
286,26,110624,6,0,B|228:34|228:34|207:27|207:27|184:34,2,105.000004005432,0|2|2,3:0|0:0|0:0,0:0:0:0:
69,86,111327,1,2,0:0:0:0:
69,86,111445,2,0,B|90:74|90:74|118:77,1,52.5000020027161,2|0,0:0|1:0,0:0:0:0:
242,116,111678,2,0,B|218:109|218:109|192:120,1,52.5000020027161,2|0,0:0|0:0,0:0:0:0:
52,217,111913,1,2,0:0:0:0:
52,217,112147,5,2,0:0:0:0:
47,230,112264,1,2,0:0:0:0:
42,243,112381,1,2,0:0:0:0:
32,269,112499,6,0,B|26:237|26:237|37:222|37:222|49:164,2,105.000004005432,0|2|2,3:0|0:0|0:0,0:0:0:0:
233,292,113202,1,2,0:0:0:0:
233,292,113319,2,0,B|204:288|204:288|183:300,1,52.5000020027161,2|0,0:0|1:0,0:0:0:0:
73,341,113553,2,0,B|94:353|94:353|122:349,1,52.5000020027161,2|0,0:0|0:0,0:0:0:0:
175,213,113788,1,2,0:0:0:0:
175,213,114022,5,2,0:0:0:0:
162,208,114139,1,2,0:0:0:0:
149,203,114256,1,2,0:0:0:0:
123,193,114374,6,0,B|155:187|155:187|170:198|170:198|228:210,2,105.000004005432,0|2|2,3:0|0:0|0:0,0:0:0:0:
278,271,115077,1,2,0:0:0:0:
278,271,115194,2,0,B|299:283|299:283|327:279,1,52.5000020027161,2|0,0:0|1:0,0:0:0:0:
400,195,115428,5,2,0:0:0:0:
393,166,115545,1,2,0:0:0:0:
386,137,115663,2,0,B|376:207|376:207|398:238,1,105.000004005432,2|2,0:0|0:0,0:0:0:0:
438,326,116014,5,2,0:0:0:0:
469,357,116131,1,2,0:0:0:0:
511,345,116249,2,0,B|474:342|474:342|440:367,2,78.7500030040742,0|2|2,3:0|0:0|0:0,0:0:0:0:
305,294,116776,2,0,B|347:293|347:293|375:316,2,78.7500030040742,2|2|2,0:0|0:0|0:0,0:0:0:0:
293,310,117186,2,0,B|255:329|255:329|193:316,1,105.000004005432,0|0,1:0|0:0,0:0:0:0:
136,255,117538,1,2,0:0:0:0:
136,255,117772,5,2,0:0:0:0:
149,250,117889,1,2,0:0:0:0:
162,245,118006,1,2,0:0:0:0:
188,235,118124,6,0,B|156:229|156:229|141:240|141:240|83:252,2,105.000004005432,0|2|2,3:0|0:0|0:0,0:0:0:0:
34,307,118827,1,2,0:0:0:0:
34,307,118944,2,0,B|22:334|22:334|29:355,1,52.5000020027161,2|0,0:0|1:0,0:0:0:0:
150,364,119178,2,0,B|162:337|162:337|154:315,1,52.5000020027161,2|0,0:0|0:0,0:0:0:0:
11,219,119413,2,0,B|83:231|83:231|108:212,1,105.000004005432,2|2,0:0|0:0,0:0:0:0:
86,86,119764,1,2,0:0:0:0:
81,73,119881,1,2,0:0:0:0:
71,47,119999,6,0,B|63:105|63:105|70:126|70:126|63:149,2,105.000004005432,0|2|2,3:0|0:0|0:0,0:0:0:0:
130,218,120702,1,2,0:0:0:0:
130,218,120819,2,0,B|157:230|157:230|178:222,1,52.5000020027161,2|0,0:0|1:0,0:0:0:0:
188,100,121053,2,0,B|161:88|161:88|139:95,1,52.5000020027161,2|0,0:0|0:0,0:0:0:0:
238,165,121288,2,0,B|263:184|263:184|335:171,1,105.000004005432,2|2,0:0|0:0,0:0:0:0:
305,39,121639,1,2,0:0:0:0:
300,26,121756,1,2,0:0:0:0:
290,0,121874,6,0,B|282:58|282:58|275:80|275:80|282:102,2,105.000004005432,0|2|2,3:0|0:0|0:0,0:0:0:0:
326,172,122577,1,2,0:0:0:0:
326,172,122694,2,0,B|353:184|353:184|374:176,1,52.5000020027161,2|0,0:0|1:0,0:0:0:0:
429,72,122928,5,2,0:0:0:0:
422,43,123045,1,2,0:0:0:0:
415,14,123163,2,0,B|405:84|405:84|427:115,1,105.000004005432,2|2,0:0|0:0,0:0:0:0:
481,229,123514,5,2,0:0:0:0:
512,198,123631,1,2,0:0:0:0:
500,156,123749,2,0,B|460:195|460:195|495:345|495:345|457:383,1,262.500010013581,0|0,3:0|0:0,0:0:0:0:
308,318,124452,5,2,0:0:0:0:
308,318,124569,2,0,B|334:301|334:301|415:316,2,105.000004005432,2|2|2,0:0|0:0|0:0,0:0:0:0:
295,315,125155,1,0,3:0:0:0:
41,355,125389,5,2,0:0:0:0:
28,350,125506,1,2,0:0:0:0:
2,340,125624,6,0,B|60:332|60:332|81:339|81:339|104:332,2,105.000004005432,0|2|2,3:0|0:0|0:0,0:0:0:0:
183,222,126327,1,2,0:0:0:0:
183,222,126444,2,0,B|166:237|166:237|161:266,1,52.5000020027161,2|0,0:0|1:0,0:0:0:0:
168,384,126679,2,0,B|185:369|185:369|190:340,1,52.5000020027161,2|0,0:0|0:0,0:0:0:0:
96,203,126913,1,2,0:0:0:0:
96,203,127147,5,2,0:0:0:0:
82,206,127264,1,2,0:0:0:0:
69,210,127381,1,2,0:0:0:0:
42,218,127499,6,0,B|74:212|74:212|88:223|88:223|146:236,2,105.000004005432,0|2|2,3:0|0:0|0:0,0:0:0:0:
203,188,128202,1,2,0:0:0:0:
203,188,128319,2,0,B|215:165|215:165|207:139,1,52.5000020027161,2|0,0:0|1:0,0:0:0:0:
168,27,128553,2,0,B|156:50|156:50|163:75,1,52.5000020027161,2|0,0:0|0:0,0:0:0:0:
292,158,128788,1,2,0:0:0:0:
292,158,129022,5,2,0:0:0:0:
305,153,129139,1,2,0:0:0:0:
318,148,129256,1,2,0:0:0:0:
344,138,129374,6,0,B|312:132|312:132|297:143|297:143|239:155,2,105.000004005432,0|2|2,3:0|0:0|0:0,0:0:0:0:
495,217,130077,1,2,0:0:0:0:
495,217,130194,2,0,B|507:194|507:194|499:168,1,52.5000020027161,2|0,0:0|1:0,0:0:0:0:
461,69,130428,5,2,0:0:0:0:
432,76,130545,1,2,0:0:0:0:
403,83,130663,2,0,B|473:93|473:93|504:71,1,105.000004005432,2|2,0:0|0:0,0:0:0:0:
331,4,131014,5,2,0:0:0:0:
300,35,131131,1,2,0:0:0:0:
312,77,131249,2,0,B|315:40|315:40|289:6,2,78.7500030040742,0|2|2,3:0|0:0|0:0,0:0:0:0:
339,157,131776,2,0,B|369:178|369:178|411:172,2,78.7500030040742,2|2|2,0:0|0:0|0:0,0:0:0:0:
327,143,132186,2,0,B|289:124|289:124|227:136,1,105.000004005432,0|0,1:0|0:0,0:0:0:0:
178,206,132538,1,2,0:0:0:0:
178,206,132772,5,2,0:0:0:0:
215,214,132889,1,2,0:0:0:0:
253,222,133006,1,2,0:0:0:0:
445,152,134999,6,0,B|438:104|438:104|380:79|380:79|338:88|338:88|340:122,1,189.000000720978,0|0,3:0|0:0,0:0:0:0:
301,204,135350,1,0,0:0:0:0:
435,173,135467,2,0,B|466:207|466:207|510:193,1,94.5000003604889,2|0,0:0|0:0,0:0:0:0:
467,290,135702,6,0,L|314:272,1,141.750000540733,2|0,0:0|0:0,0:0:0:0:
384,247,135936,2,0,L|242:261,1,141.750000540733,0|0,1:0|0:0,0:0:0:0:
239,278,136170,6,0,L|168:270,1,70.8750002703667,2|0,0:0|0:0,0:0:0:0:
180,249,136405,2,0,B|68:269|68:269|115:281,1,141.750000540733,0|0,3:0|0:0,0:0:0:0:
113,292,136874,6,0,B|141:243|141:243|95:187,1,128.625001226664,0|0,3:0|0:0,0:0:0:0:
98,163,137108,2,0,B|236:183,1,125.999996154785,2|0,0:0|0:0,0:0:0:0:
129,152,137342,2,0,B|20:137,1,110.249996635437,2|0,0:0|0:0,0:0:0:0:
3,154,137577,1,2,0:0:0:0:
77,116,137694,1,0,0:0:0:0:
39,42,137811,6,0,B|46:90|46:90|104:115|104:115|146:106|146:106|144:72,1,188.999994232178,0|0,1:0|0:0,0:0:0:0:
122,65,138045,2,0,B|81:91|81:91|82:162,1,115.50000352478,2|0,0:0|0:0,0:0:0:0:
91,181,138280,2,0,B|165:206|165:206|146:186,1,105,0|0,3:0|0:0,0:0:0:0:
144,176,138749,5,0,3:0:0:0:
61,38,138983,6,0,B|59:57|59:57|41:66|41:66|24:54|24:54|26:34|26:34|44:26|44:26|60:38,1,119.000002269745,2|0,0:0|0:0,0:0:0:0:
76,160,139159,2,0,B|78:130|78:130|104:117|104:117|130:135|130:135|127:164|127:164|99:176|99:176|76:159,1,178.500003404617,2|0,0:0|0:0,0:0:0:0:
232,151,139393,2,0,B|221:143|221:143|206:150|206:150|204:166|204:166|218:175|218:175|233:168|233:168|234:152,1,91.8750008761883,2|0,0:0|0:0,0:0:0:0:
213,33,139627,2,0,B|210:65|210:65|181:79|181:79|153:60|153:60|156:28|156:28|186:14|186:14|212:33,1,194.249999258995,2|0,0:0|0:0,0:0:0:0:
316,91,139862,2,0,B|317:74|317:74|303:64|303:64|286:71|286:71|284:89|284:89|299:100|299:100|313:94,1,105
328,92,140155,5,0,3:0:0:0:
395,136,140272,1,2,0:0:0:0:
467,102,140389,1,2,0:0:0:0:
401,57,140506,1,2,0:0:0:0:
156,150,141561,6,0,B|139:130|139:130|76:134,1,70,0|0,1:0|0:0,0:0:0:0:
81,150,141678,2,0,B|88:198|88:198|130:243|130:243|230:212|230:212|191:180,1,262.500010013581
181,175,142030,2,0,B|149:201|149:201|308:225,1,199.499994672775,0|0,3:0|0:0,0:0:0:0:
447,155,142499,6,0,B|443:160|443:160|447:155|447:155|422:135|422:135|425:130|425:130|422:135|422:135|396:116|396:116|392:121|392:121|396:116|396:116|371:97|371:97|375:91|375:91|371:97|371:97|363:90|363:90|369:111|369:111|375:109|375:109|369:111|369:111|377:142|377:142|371:144|371:144|377:142|377:142|386:172|386:172|392:171|392:171|386:172|386:172|394:203|394:203|388:205|388:205|394:203|394:203|403:234|403:234|409:232|409:232|403:234|403:234|410:259,2,395.390620168741,0|2|2,3:0|0:0|0:0,0:0:0:0:
484,238,143319,1,0,0:0:0:0:
291,316,143436,2,0,B|278:272|278:272|325:284,1,94.5000003604889,0|0,1:0|0:0,0:0:0:0:
460,337,143670,2,0,B|399:371|399:371|365:355,1,105,2|0,0:0|0:0,0:0:0:0:
360,350,143905,2,0,B|342:325|342:325|432:347,1,122.5,0|0,3:0|0:0,0:0:0:0:
387,329,144374,6,0,B|389:323|389:323|387:329|387:329|355:316|355:316|352:322|352:322|355:316|355:316|324:302|324:302|327:296|327:296|324:302|324:302|293:290|293:290|291:296|291:296|293:290|293:290|283:286|283:286|305:280|305:280|307:287|307:287|305:280|305:280|338:271|338:271|336:264|336:264|338:271|338:271|370:263|370:263|372:270|372:270|370:263|370:263|404:254|404:254|402:247|402:247|404:254|404:254|437:246|437:246|438:253|438:253|437:246|437:246|463:239,2,416.390637310133,0|2|2,3:0|0:0|0:0,0:0:0:0:
287,372,145194,1,0,0:0:0:0:
226,224,145311,2,0,B|116:207|116:207|152:239,1,157.500006008148,0|0,1:0|0:0,0:0:0:0:
181,333,145545,2,0,B|210:357|210:357|197:266,1,105,2|0,0:0|0:0,0:0:0:0:
189,269,145780,2,0,B|168:291|168:291|171:376,1,105,0|0,3:0|0:0,0:0:0:0:
116,212,146249,6,0,B|119:218|119:218|116:212|116:212|83:225|83:225|80:219|80:219|83:225|83:225|50:240|50:240|53:246|53:246|50:240|50:240|17:253|17:253|15:246|15:246|17:253|17:253|7:257|7:257|30:263|30:263|32:256|32:256|30:263|30:263|65:273|65:273|63:280|63:280|65:273|65:273|99:281|99:281|101:274|101:274|99:281|99:281|134:291|134:291|132:298|132:298|134:291|134:291|169:299|169:299|170:292|170:292|169:299|169:299|197:306,2,447.890642085672,0|2|2,3:0|0:0|0:0,0:0:0:0:
150,138,147069,1,0,0:0:0:0:
226,109,147186,2,0,B|203:71|203:71|134:54|134:54|98:75,1,157.500006008148,0|0,1:0|0:0,0:0:0:0:
92,91,147420,2,0,B|124:108|124:108|106:19,1,120.750002303124,2|0,0:0|0:0,0:0:0:0:
112,5,147655,2,0,B|81:-11|81:-11|95:58,1,105,0|0,3:0|0:0,0:0:0:0:
118,238,148124,6,0,B|114:232|114:232|118:238|118:238|146:222|146:222|150:229|150:229|146:222|146:222|174:207|174:207|170:200|170:200|174:207|174:207|202:191|202:191|205:197|205:197|202:191|202:191|216:183|216:183|201:180|201:180|199:188|199:188|201:180|201:180|169:175|169:175|170:168|170:168|169:175|169:175|138:170|138:170|136:177|136:177|138:170|138:170|106:164|106:164|107:157|107:157|106:164|106:164|74:159|74:159|73:166|73:166|74:159|74:159|43:154|43:154|44:146|44:146|43:154|43:154|16:149,2,462.656267648936,0|2|2,3:0|0:0|0:0,0:0:0:0:
210,277,148944,1,0,0:0:0:0:
288,307,149061,2,0,B|265:345|265:345|196:362|196:362|160:341,1,157.500006008148,0|0,1:0|0:0,0:0:0:0:
153,321,149295,2,0,B|211:305|211:305|248:329,1,105,2|0,0:0|0:0,0:0:0:0:
248,338,149530,2,0,B|245:344|245:344|216:347|216:347|196:315|196:315|205:295|205:295|219:293,1,105,0|0,3:0|0:0,0:0:0:0:
230,281,149999,1,0,3:0:0:0:
302,230,150233,5,2,0:0:0:0:
318,234,150350,1,2,0:0:0:0:
377,290,150584,5,2,0:0:0:0:
393,286,150701,1,2,0:0:0:0:
452,219,150936,5,0,1:0:0:0:
230,281,151170,5,2,0:0:0:0:
452,219,151405,5,0,3:0:0:0:
230,281,151639,5,2,0:0:0:0:
502,383,151874,5,0,3:0:0:0:
452,318,152108,5,2,0:0:0:0:
456,302,152225,1,2,0:0:0:0:
512,243,152459,5,2,0:0:0:0:
508,227,152576,1,2,0:0:0:0:
455,138,152811,6,0,L|489:145,1,35,0|0,1:0|0:0,0:0:0:0:
439,124,153045,2,0,L|375:138,1,65.625,2|0,0:0|0:0,0:0:0:0:
369,157,153280,2,0,B|292:148|292:148|317:137,1,105.000004005432,0|2,3:0|0:0,0:0:0:0:
336,122,153631,1,0,0:0:0:0:
240,86,153749,6,0,B|245:82|245:82|240:86|240:86|220:61|220:61|215:64|215:64|220:61|220:61|201:35|201:35|206:31|206:31|201:35|201:35|182:10|182:10|176:14|176:14|182:10|182:10|175:2|175:2|196:8|196:8|194:14|194:14|196:8|196:8|227:16|227:16|229:10|229:10|227:16|227:16|257:25|257:25|256:31|256:31|257:25|257:25|288:33|288:33|290:27|290:27|288:33|288:33|319:42|319:42|317:48|317:48|319:42|319:42|344:49,2,395.390620168741,0|2|2,3:0|0:0|0:0,0:0:0:0:
155,225,154569,1,0,0:0:0:0:
208,170,154686,2,0,B|188:145|188:145|182:218,1,105,0|0,1:0|0:0,0:0:0:0:
185,263,154920,2,0,B|247:274|247:274|196:227,1,131.25,2|0,0:0|0:0,0:0:0:0:
188,211,155155,2,0,B|157:237|157:237|234:225,1,105,0|0,3:0|0:0,0:0:0:0:
125,99,155624,6,0,B|120:104|120:104|125:99|125:99|100:78|100:78|105:72|105:72|100:78|100:78|76:56|76:56|71:63|71:63|76:56|76:56|52:36|52:36|56:31|56:31|52:36|52:36|39:25|39:25|42:40|42:40|50:39|50:39|42:40|42:40|48:72|48:72|41:74|41:74|48:72|48:72|54:103|54:103|61:102|61:102|54:103|54:103|59:135|59:135|52:137|52:137|59:135|59:135|65:167|65:167|72:165|72:165|65:167|65:167|71:198|71:198|63:200|63:200|71:198|71:198|76:225,2,462.656240348239,0|2|2,3:0|0:0|0:0,0:0:0:0:
147,173,156444,1,0,0:0:0:0:
180,345,156561,2,0,B|134:385|134:385|143:288,1,157.500006008148,0|0,1:0|0:0,0:0:0:0:
152,268,156795,2,0,B|178:243|178:243|172:315,1,105,2|0,0:0|0:0,0:0:0:0:
172,322,157030,2,0,B|152:342|152:342|160:242,1,122.5,0|0,3:0|0:0,0:0:0:0:
176,232,157499,1,0,3:0:0:0:
250,180,157733,5,2,0:0:0:0:
266,184,157850,1,2,0:0:0:0:
325,240,158084,5,2,0:0:0:0:
341,236,158201,1,2,0:0:0:0:
400,169,158436,5,0,1:0:0:0:
176,232,158670,5,2,0:0:0:0:
400,169,158905,5,0,3:0:0:0:
176,232,159139,5,2,0:0:0:0:
448,79,159374,5,0,3:0:0:0:
396,153,159608,5,2,0:0:0:0:
400,169,159725,1,2,0:0:0:0:
456,228,159959,5,2,0:0:0:0:
452,244,160076,1,2,0:0:0:0:
385,303,160311,5,0,1:0:0:0:
448,79,160545,5,2,0:0:0:0:
385,303,160780,5,0,3:0:0:0:
448,79,161014,5,2,0:0:0:0:
307,338,161249,5,0,3:0:0:0:
233,286,161483,5,2,0:0:0:0:
217,290,161600,1,2,0:0:0:0:
158,346,161834,5,2,0:0:0:0:
142,342,161951,1,2,0:0:0:0:
83,275,162186,5,0,1:0:0:0:
307,338,162420,5,2,0:0:0:0:
83,275,162655,5,0,3:0:0:0:
307,338,162889,5,2,0:0:0:0:
108,26,163124,5,0,3:0:0:0:
160,100,163358,5,2,0:0:0:0:
156,116,163475,1,2,0:0:0:0:
100,175,163709,5,2,0:0:0:0:
104,191,163826,1,2,0:0:0:0:
171,250,164061,5,0,1:0:0:0:
108,26,164295,5,2,0:0:0:0:
171,250,164530,5,0,3:0:0:0:
108,26,164764,5,2,0:0:0:0:
