osu file format v14

[General]
AudioFilename: audio.mp3
AudioLeadIn: 0
PreviewTime: 61819
Countdown: 0
SampleSet: None
StackLeniency: 0.7
Mode: 3
LetterboxInBreaks: 0
SpecialStyle: 0
WidescreenStoryboard: 1

[Editor]
DistanceSpacing: 0.8
BeatDivisor: 4
GridSize: 32
TimelineZoom: 2.2

[Metadata]
Title:Unravel feat. Hatsune Miku (dj-Jo Remix)
TitleUnicode:Unravel feat. Hatsune Miku (dj-Jo Remix)
Artist:dj-Jo
ArtistUnicode:dj-Jo
Creator:Violet-Fox
Version:NM
Source:東京喰種-トーキョーグール
Tags:
BeatmapID:1718787
BeatmapSetID:819829

[Difficulty]
HPDrainRate:4
CircleSize:4
OverallDifficulty:4
ApproachRate:5
SliderMultiplier:1.4
SliderTickRate:1

[Events]
//Background and Video events
0,0,"BG.jpg",0,0
//Break Periods
//Storyboard Layer 0 (Background)
//Storyboard Layer 1 (Fail)
//Storyboard Layer 2 (Pass)
//Storyboard Layer 3 (Foreground)
//Storyboard Sound Samples

[TimingPoints]
7820,444.444444444444,4,3,0,20,1,0
26264,-100,4,3,0,30,0,0
26375,-100,4,3,0,40,0,0
26486,-100,4,3,0,50,0,0
26597,-100,4,3,0,60,0,0
26708,-100,4,3,0,70,0,0
27708,-100,4,3,0,50,0,0
29264,-100,4,2,0,70,0,0
30931,-100,4,3,0,60,0,0
31042,-100,4,3,0,40,0,0
32708,-100,4,3,0,60,0,0
41597,-100,4,3,0,50,0,0
62931,-100,4,3,0,50,0,1
77153,-100,4,3,0,60,0,1
83597,-100,4,3,0,60,0,0
84264,-100,4,3,0,60,0,1
86042,-100,4,3,0,60,0,0
86486,-100,4,3,0,40,0,0
87819,-100,4,3,0,20,0,0
101819,-100,4,3,0,40,0,0
116264,-100,4,3,0,50,0,0
144708,-100,4,2,0,30,0,0
149153,-100,4,2,0,40,0,0
150042,-100,4,2,0,50,0,0
150931,-100,4,2,0,60,0,0
151819,-100,4,3,0,50,0,0
157819,-100,4,3,0,30,0,0
159819,-100,4,3,0,60,0,1
196264,-100,4,1,0,60,0,1
197819,-100,4,3,0,60,0,1
208708,-100,4,2,0,50,0,0
215819,-100,4,2,0,40,0,0
226486,-100,4,2,0,20,0,0

[HitObjects]
320,192,7819,128,2,8264:0:2:0:0:
192,192,8264,128,2,8486:0:2:0:0:
64,192,8486,128,2,8931:0:2:0:0:
448,192,8931,128,2,9153:0:2:0:0:
192,192,9153,128,2,9597:0:2:0:0:
448,192,9597,1,2,0:2:0:0:
320,192,9819,1,2,0:2:0:0:
192,192,10042,1,2,0:2:0:0:
64,192,10264,1,2,0:2:0:0:
320,192,10486,1,2,0:2:0:0:
448,192,10708,1,2,0:2:0:0:
192,192,10931,1,2,0:2:0:0:
320,192,11153,128,2,11375:0:2:0:0:
64,192,11375,128,2,11819:0:2:0:0:
192,192,11819,128,2,12042:0:2:0:0:
448,192,12042,128,2,12486:0:2:0:0:
320,192,12486,128,2,12708:0:2:0:0:
64,192,12708,128,2,13153:0:2:0:0:
320,192,13153,1,2,0:2:0:0:
64,192,13486,1,2,0:2:0:0:
192,192,13597,1,2,0:2:0:0:
320,192,13708,1,2,0:2:0:0:
448,192,13819,1,2,0:2:0:0:
192,192,14042,1,2,0:2:0:0:
192,192,14264,1,2,0:2:0:0:
320,192,14486,1,2,0:2:0:0:
320,192,14708,128,2,14931:0:2:0:0:
64,192,14931,128,2,15375:0:2:0:0:
192,192,15375,128,2,15819:0:2:0:0:
320,192,15819,128,2,16042:0:2:0:0:
448,192,16042,128,2,16264:0:2:0:0:
64,192,16486,128,2,16931:0:2:0:0:
192,192,16931,128,2,17375:0:2:0:0:
320,192,17375,128,2,17819:0:2:0:0:
448,192,17819,128,2,18042:0:2:0:0:
320,192,18264,128,2,18486:0:2:0:0:
64,192,18486,1,2,0:2:0:0:
192,192,18819,1,8,0:0:0:0:
448,192,19042,128,2,19375:0:2:0:0:
64,192,19375,128,10,19819:0:2:0:0:
320,192,19819,128,2,20042:0:2:0:0:
192,192,20042,128,2,20264:0:2:0:0:
448,192,20264,1,2,0:2:0:0:
64,192,20597,1,2,0:2:0:0:
320,192,20931,1,2,0:2:0:0:
64,192,21153,1,2,0:2:0:0:
192,192,21375,1,2,0:2:0:0:
448,192,21597,1,2,0:2:0:0:
320,192,21819,128,0,22042:0:2:0:0:
192,192,22042,128,2,22486:0:2:0:0:
448,192,22486,128,2,22708:0:2:0:0:
64,192,22708,128,2,22931:0:2:0:0:
320,192,22931,1,0,0:0:0:0:
192,192,23153,128,2,23375:0:2:0:0:
448,192,23375,128,2,23819:0:2:0:0:
64,192,23819,1,2,0:2:0:0:
320,192,24042,1,2,0:2:0:0:
192,192,24264,1,2,0:2:0:0:
448,192,24486,1,2,0:2:0:0:
320,192,24708,1,2,0:2:0:0:
192,192,24931,1,2,0:2:0:0:
64,192,25153,1,2,0:2:0:0:
448,192,25375,128,2,25597:0:2:0:0:
64,192,25597,1,0,0:0:0:0:
192,192,25708,1,0,0:0:0:0:
320,192,25819,1,0,0:0:0:0:
448,192,25931,1,0,0:0:0:0:
64,192,26042,1,0,0:0:0:0:
192,192,26153,1,0,0:0:0:0:
320,192,26264,1,0,0:0:0:0:
448,192,26375,1,0,0:0:0:0:
64,192,26486,1,0,0:0:0:0:
192,192,26597,1,0,0:0:0:0:
320,192,26708,1,0,0:0:0:0:
448,192,26819,1,0,0:0:0:0:
64,192,26931,1,0,0:0:0:0:
192,192,27042,1,0,0:0:0:0:
320,192,27153,1,0,0:0:0:0:
448,192,27264,1,0,0:0:0:0:
64,192,27375,1,0,0:0:0:0:
192,192,27375,1,0,0:0:0:0:
320,192,27486,1,0,0:0:0:0:
192,192,27708,1,0,0:0:0:0:
320,192,27931,1,0,0:0:0:0:
64,192,28042,128,0,28264:0:0:0:0:
448,192,28042,128,0,28264:0:0:0:0:
192,192,28264,1,0,0:0:0:0:
320,192,28375,1,0,0:0:0:0:
320,192,28597,1,0,0:0:0:0:
192,192,28708,128,0,29042:0:0:0:0:
448,192,29153,1,0,0:0:0:0:
320,192,29264,1,0,0:0:0:0:
64,192,29375,1,0,0:0:0:0:
192,192,29486,1,0,0:0:0:0:
448,192,29597,1,0,0:0:0:0:
320,192,29708,1,0,0:0:0:0:
64,192,29819,1,0,0:0:0:0:
192,192,29931,1,0,0:0:0:0:
448,192,30042,1,0,0:0:0:0:
320,192,30153,1,0,0:0:0:0:
64,192,30264,1,0,0:0:0:0:
192,192,30375,1,0,0:0:0:0:
448,192,30486,1,0,0:0:0:0:
320,192,30597,1,0,0:0:0:0:
64,192,30708,1,0,0:0:0:0:
192,192,30819,1,0,0:0:0:0:
320,192,30931,1,0,0:0:0:0:
64,192,31042,1,0,0:0:0:0:
320,192,31264,1,0,0:0:0:0:
448,192,31264,1,0,0:0:0:0:
64,192,31486,1,0,0:0:0:0:
192,192,31486,1,0,0:0:0:0:
320,192,31597,128,0,31819:0:0:0:0:
192,192,31819,1,0,0:0:0:0:
448,192,31819,1,0,0:0:0:0:
64,192,31931,1,0,0:0:0:0:
192,192,32042,1,0,0:0:0:0:
320,192,32153,1,0,0:0:0:0:
448,192,32264,1,0,0:0:0:0:
64,192,32708,1,0,0:0:0:0:
192,192,32708,1,0,0:0:0:0:
320,192,32819,128,0,33042:0:0:0:0:
448,192,33042,1,0,0:0:0:0:
192,192,33153,128,0,33375:0:0:0:0:
64,192,33375,128,0,33597:0:0:0:0:
448,192,33597,1,0,0:0:0:0:
320,192,33708,1,0,0:0:0:0:
64,192,33819,1,0,0:0:0:0:
192,192,33931,1,0,0:0:0:0:
448,192,34042,1,0,0:0:0:0:
320,192,34153,1,0,0:0:0:0:
64,192,34264,1,0,0:0:0:0:
192,192,34375,1,0,0:0:0:0:
448,192,34486,1,0,0:0:0:0:
320,192,34597,128,0,34819:0:0:0:0:
192,192,34931,128,0,35153:0:0:0:0:
448,192,35153,128,0,35375:0:0:0:0:
192,192,35486,1,0,0:0:0:0:
448,192,35597,1,0,0:0:0:0:
64,192,35708,1,0,0:0:0:0:
320,192,35819,1,0,0:0:0:0:
192,192,35931,1,0,0:0:0:0:
448,192,36042,1,0,0:0:0:0:
64,192,36153,1,0,0:0:0:0:
320,192,36264,1,0,0:0:0:0:
192,192,36375,128,0,36597:0:0:0:0:
64,192,36708,128,0,36931:0:0:0:0:
320,192,36931,128,0,37153:0:0:0:0:
192,192,37153,1,0,0:0:0:0:
64,192,37264,1,0,0:0:0:0:
320,192,37375,1,0,0:0:0:0:
448,192,37486,1,0,0:0:0:0:
192,192,37597,1,0,0:0:0:0:
64,192,37708,1,0,0:0:0:0:
320,192,37819,1,0,0:0:0:0:
448,192,37931,1,0,0:0:0:0:
192,192,38042,1,0,0:0:0:0:
64,192,38153,128,0,38375:0:0:0:0:
320,192,38375,1,0,0:0:0:0:
448,192,38486,128,0,38708:0:0:0:0:
192,192,38708,128,0,38931:0:0:0:0:
320,192,38931,1,0,0:0:0:0:
448,192,39042,1,0,0:0:0:0:
64,192,39153,1,0,0:0:0:0:
192,192,39264,1,0,0:0:0:0:
320,192,39375,1,0,0:0:0:0:
448,192,39486,1,0,0:0:0:0:
64,192,39597,1,0,0:0:0:0:
192,192,39708,1,0,0:0:0:0:
320,192,39819,1,4,0:1:0:0:
448,192,39819,1,4,0:1:0:0:
320,192,41375,1,2,0:2:0:0:
64,192,41597,1,2,0:2:0:0:
192,192,41597,1,0,0:0:0:0:
320,192,41931,1,2,0:2:0:0:
448,192,41931,1,0,0:0:0:0:
64,192,42264,1,2,0:2:0:0:
192,192,42264,1,0,0:0:0:0:
320,192,42486,1,10,0:2:0:0:
448,192,42486,1,0,0:0:0:0:
64,192,42931,128,2,43153:0:2:0:0:
192,192,43153,128,2,43375:0:2:0:0:
448,192,43375,128,2,43708:0:2:0:0:
320,192,43708,128,2,44042:0:2:0:0:
192,192,44042,128,2,44264:0:2:0:0:
64,192,44264,1,8,0:2:0:0:
320,192,44486,1,8,0:0:0:0:
320,192,44931,128,2,45153:0:2:0:0:
192,192,45153,128,2,45486:0:2:0:0:
64,192,45486,128,2,45819:0:2:0:0:
448,192,45819,128,2,46264:0:2:0:0:
320,192,46264,128,2,46708:0:2:0:0:
192,192,46708,128,2,46931:0:2:0:0:
448,192,46931,1,2,0:2:0:0:
448,192,48486,128,2,48708:0:2:0:0:
192,192,48708,128,2,48931:0:2:0:0:
64,192,48931,128,2,49042:0:2:0:0:
320,192,49042,128,2,49375:0:2:0:0:
448,192,49375,1,2,0:0:0:0:
64,192,49597,1,8,0:2:0:0:
192,192,49597,1,0,0:2:0:0:
320,192,49819,128,2,50042:0:2:0:0:
64,192,50264,128,2,50486:0:2:0:0:
448,192,50486,128,2,50819:0:2:0:0:
320,192,50819,128,2,51153:0:2:0:0:
192,192,51153,128,2,51597:0:2:0:0:
64,192,51597,128,2,51819:0:2:0:0:
448,192,52264,128,2,52708:0:2:0:0:
192,192,52264,128,2,52708:0:2:0:0:
320,192,52708,128,2,52931:0:2:0:0:
64,192,52931,128,2,53153:0:2:0:0:
192,192,53597,128,2,53819:0:2:0:0:
448,192,53819,128,2,54042:0:2:0:0:
64,192,54042,1,2,0:2:0:0:
320,192,54486,1,0,0:0:0:0:
192,192,54708,1,2,0:2:0:0:
320,192,54931,1,0,0:0:0:0:
448,192,54931,1,0,0:0:0:0:
192,192,55153,1,0,0:0:0:0:
320,192,55597,128,2,55819:0:2:0:0:
192,192,55819,1,6,0:2:0:0:
448,192,56264,1,0,0:0:0:0:
64,192,56708,1,0,0:0:0:0:
320,192,57153,1,0,0:0:0:0:
192,192,57597,1,0,0:0:0:0:
320,192,57819,1,0,0:0:0:0:
64,192,58042,1,0,0:0:0:0:
448,192,58264,1,0,0:0:0:0:
320,192,58486,1,0,0:0:0:0:
192,192,58708,1,0,0:0:0:0:
64,192,58931,1,0,0:0:0:0:
192,192,59153,1,0,0:0:0:0:
320,192,59375,1,0,0:0:0:0:
448,192,59375,1,0,0:0:0:0:
192,192,59597,1,0,0:0:0:0:
64,192,59819,1,0,0:0:0:0:
320,192,59819,1,0,0:0:0:0:
192,192,60042,1,0,0:0:0:0:
64,192,60264,1,0,0:0:0:0:
448,192,60264,1,0,0:0:0:0:
320,192,60486,1,0,0:0:0:0:
64,192,60708,1,0,0:0:0:0:
192,192,60819,1,0,0:0:0:0:
320,192,60931,1,0,0:0:0:0:
448,192,61042,1,0,0:0:0:0:
64,192,61153,1,0,0:0:0:0:
192,192,61153,1,4,0:2:0:0:
320,192,61819,128,2,62042:0:2:0:0:
64,192,62042,128,2,62486:0:2:0:0:
192,192,62486,128,2,62708:0:2:0:0:
448,192,62708,128,2,62931:0:2:0:0:
64,192,62931,1,6,0:2:0:0:
320,192,62931,1,6,0:2:0:0:
192,192,63153,1,0,0:0:0:0:
448,192,63375,1,0,0:0:0:0:
320,192,63597,1,0,0:0:0:0:
64,192,63819,128,0,64153:0:0:0:0:
448,192,64153,128,0,64486:0:0:0:0:
64,192,64486,128,0,64931:0:0:0:0:
192,192,64931,128,0,65375:0:0:0:0:
320,192,65375,128,0,65819:0:0:0:0:
448,192,65819,128,0,66042:0:0:0:0:
64,192,66042,1,0,0:0:0:0:
192,192,66264,1,0,0:0:0:0:
448,192,66486,128,0,66819:0:0:0:0:
320,192,66819,128,0,67153:0:0:0:0:
192,192,67153,128,0,67597:0:0:0:0:
64,192,67597,128,0,67819:0:0:0:0:
448,192,67819,1,0,0:0:0:0:
192,192,68042,1,0,0:0:0:0:
64,192,68264,128,0,68597:0:0:0:0:
192,192,68597,128,0,68931:0:0:0:0:
448,192,68931,128,0,69375:0:0:0:0:
320,192,69375,128,0,69597:0:0:0:0:
64,192,69597,1,0,0:0:0:0:
192,192,69745,1,0,0:0:0:0:
320,192,69894,1,0,0:0:0:0:
448,192,70042,1,0,0:0:0:0:
64,192,70042,1,0,0:0:0:0:
64,192,70486,1,0,0:0:0:0:
64,192,70819,1,0,0:0:0:0:
192,192,70931,1,0,0:0:0:0:
320,192,71042,1,0,0:0:0:0:
448,192,71264,1,0,0:0:0:0:
320,192,71375,1,0,0:0:0:0:
192,192,71486,1,0,0:0:0:0:
448,192,71597,128,0,71819:0:0:0:0:
64,192,71819,1,0,0:0:0:0:
192,192,71819,128,0,72264:0:0:0:0:
320,192,72264,128,0,72486:0:0:0:0:
64,192,72486,128,0,72931:0:0:0:0:
320,192,72931,128,0,73375:0:0:0:0:
448,192,73375,128,0,73597:0:0:0:0:
192,192,73597,128,0,74486:0:0:0:0:
64,192,73597,128,0,74486:0:0:0:0:
320,192,74486,1,0,0:0:0:0:
448,192,74486,1,0,0:0:0:0:
192,192,74708,1,0,0:0:0:0:
320,192,75153,1,0,0:0:0:0:
192,192,75375,128,0,75708:0:0:0:0:
448,192,75708,128,0,76042:0:0:0:0:
64,192,76042,128,0,76486:0:0:0:0:
320,192,76486,128,0,77153:0:0:0:0:
64,192,77153,1,0,0:0:0:0:
448,192,77153,1,0,0:0:0:0:
192,192,77375,1,0,0:0:0:0:
448,192,77597,1,0,0:0:0:0:
320,192,77819,1,0,0:0:0:0:
64,192,78042,1,0,0:0:0:0:
448,192,78042,1,0,0:0:0:0:
192,192,78264,1,0,0:0:0:0:
320,192,78486,1,0,0:0:0:0:
448,192,78708,1,0,0:0:0:0:
64,192,78931,1,0,0:0:0:0:
192,192,78931,1,0,0:0:0:0:
320,192,79153,1,0,0:0:0:0:
64,192,79375,1,0,0:0:0:0:
448,192,79597,1,0,0:0:0:0:
192,192,79819,1,0,0:0:0:0:
320,192,79819,1,0,0:0:0:0:
64,192,80042,1,0,0:0:0:0:
320,192,80264,1,0,0:0:0:0:
448,192,80486,1,0,0:0:0:0:
64,192,80708,1,0,0:0:0:0:
320,192,80708,1,0,0:0:0:0:
192,192,80931,1,0,0:0:0:0:
64,192,81153,1,0,0:0:0:0:
320,192,81375,1,0,0:0:0:0:
64,192,81597,1,0,0:0:0:0:
192,192,81819,1,0,0:0:0:0:
320,192,82042,1,0,0:0:0:0:
448,192,82264,1,0,0:0:0:0:
192,192,82486,1,0,0:0:0:0:
64,192,82486,1,0,0:0:0:0:
448,192,82708,1,0,0:0:0:0:
320,192,82931,1,0,0:0:0:0:
192,192,83153,1,0,0:0:0:0:
448,192,83153,1,0,0:0:0:0:
320,192,83375,1,0,0:0:0:0:
64,192,83597,1,0,0:0:0:0:
192,192,83597,1,0,0:0:0:0:
192,192,84042,128,0,84264:0:0:0:0:
320,192,84264,1,0,0:0:0:0:
448,192,84264,1,0,0:0:0:0:
64,192,84486,1,0,0:0:0:0:
192,192,84708,1,0,0:0:0:0:
320,192,84708,1,0,0:0:0:0:
448,192,84931,1,0,0:0:0:0:
320,192,85153,1,0,0:0:0:0:
64,192,85153,1,0,0:0:0:0:
192,192,85375,1,0,0:0:0:0:
320,192,85597,1,0,0:0:0:0:
448,192,85819,128,0,86042:0:0:0:0:
192,192,86042,128,6,86486:0:2:0:0:
320,192,86486,128,2,86708:0:2:0:0:
64,192,86708,128,2,87153:0:2:0:0:
192,192,87153,128,2,87597:0:2:0:0:
448,192,87597,128,2,87819:0:2:0:0:
64,192,87819,1,8,0:0:0:0:
192,192,88153,1,8,0:0:0:0:
192,192,88486,1,8,0:0:0:0:
448,192,91375,1,8,0:0:0:0:
320,192,91708,1,8,0:0:0:0:
320,192,92042,1,8,0:0:0:0:
192,192,92931,1,2,0:2:0:0:
64,192,93153,128,2,93486:0:2:0:0:
192,192,93486,128,2,93819:0:2:0:0:
320,192,93819,128,2,94264:0:2:0:0:
448,192,94264,128,2,94708:0:2:0:0:
192,192,94708,128,2,94931:0:2:0:0:
64,192,94931,1,8,0:0:0:0:
320,192,95264,1,8,0:0:0:0:
320,192,95597,1,10,0:0:0:0:
448,192,95819,1,0,0:0:0:0:
64,192,95819,1,8,0:2:0:0:
448,192,98486,1,8,0:0:0:0:
320,192,98819,1,8,0:0:0:0:
320,192,99153,1,8,0:0:0:0:
64,192,99375,1,8,0:2:0:0:
192,192,100264,128,0,101819:0:0:0:0:
320,192,101819,128,0,102042:0:0:0:0:
64,192,102042,1,0,0:0:0:0:
192,192,102375,1,0,0:0:0:0:
320,192,102486,1,0,0:0:0:0:
448,192,102708,1,0,0:0:0:0:
320,192,102819,1,0,0:0:0:0:
192,192,102931,1,0,0:0:0:0:
64,192,103153,1,0,0:0:0:0:
192,192,103264,1,0,0:0:0:0:
448,192,103597,1,0,0:0:0:0:
448,192,103819,1,0,0:0:0:0:
320,192,104042,1,0,0:0:0:0:
192,192,104153,1,0,0:0:0:0:
192,192,104486,1,0,0:0:0:0:
320,192,104708,1,0,0:0:0:0:
64,192,104931,1,0,0:0:0:0:
192,192,105042,1,0,0:0:0:0:
448,192,105375,1,0,0:0:0:0:
192,192,105597,1,0,0:0:0:0:
192,192,105819,1,0,0:0:0:0:
320,192,105931,1,0,0:0:0:0:
320,192,106264,128,0,106486:0:0:0:0:
192,192,106486,128,0,106819:0:0:0:0:
64,192,106819,128,0,107153:0:0:0:0:
448,192,107153,128,0,107375:0:0:0:0:
320,192,107375,1,0,0:0:0:0:
320,192,107597,1,0,0:0:0:0:
192,192,107708,1,0,0:0:0:0:
64,192,108042,1,0,0:0:0:0:
448,192,108264,1,0,0:0:0:0:
64,192,108486,1,0,0:0:0:0:
448,192,108597,1,0,0:0:0:0:
192,192,108931,128,0,109153:0:0:0:0:
448,192,109153,1,0,0:0:0:0:
320,192,109597,1,0,0:0:0:0:
192,192,110042,1,0,0:0:0:0:
64,192,110486,1,0,0:0:0:0:
320,192,110931,1,0,0:0:0:0:
192,192,111153,1,0,0:0:0:0:
320,192,111264,1,0,0:0:0:0:
192,192,111597,1,0,0:0:0:0:
320,192,111819,1,0,0:0:0:0:
64,192,112042,1,0,0:0:0:0:
192,192,112153,1,0,0:0:0:0:
448,192,112486,1,0,0:0:0:0:
64,192,112708,1,0,0:0:0:0:
192,192,112708,1,0,0:0:0:0:
320,192,113042,1,0,0:0:0:0:
448,192,113153,1,0,0:0:0:0:
192,192,113153,1,0,0:0:0:0:
64,192,113375,1,0,0:0:0:0:
320,192,113597,128,0,113931:0:0:0:0:
192,192,113931,128,0,114264:0:0:0:0:
448,192,114264,128,0,114708:0:0:0:0:
64,192,114708,128,0,114931:0:0:0:0:
320,192,114931,1,0,0:0:0:0:
192,192,115153,1,0,0:0:0:0:
320,192,115375,128,0,115708:0:0:0:0:
448,192,115375,128,0,115708:0:0:0:0:
192,192,115708,128,0,116042:0:0:0:0:
64,192,115708,128,0,116042:0:0:0:0:
448,192,116042,1,0,0:0:0:0:
320,192,116264,128,4,118042:0:2:0:0:
64,192,116264,128,4,118042:0:2:0:0:
448,192,118042,128,0,118931:0:0:0:0:
192,192,118931,128,0,119819:0:0:0:0:
64,192,119819,128,4,121597:0:2:0:0:
448,192,121597,128,4,123375:0:2:0:0:
192,192,123375,128,4,125153:0:2:0:0:
64,192,123375,128,4,125153:0:2:0:0:
320,192,125153,128,4,126042:0:2:0:0:
192,192,126042,128,0,126931:0:0:0:0:
64,192,126931,128,4,128708:0:2:0:0:
448,192,128708,128,0,129153:0:0:0:0:
320,192,129153,128,0,129597:0:0:0:0:
192,192,129597,128,0,130042:0:0:0:0:
64,192,130042,128,0,130486:0:0:0:0:
448,192,130042,128,0,130486:0:0:0:0:
320,192,130486,1,0,0:0:0:0:
192,192,130708,1,0,0:0:0:0:
64,192,130931,1,0,0:0:0:0:
448,192,130931,1,0,0:0:0:0:
320,192,131153,1,0,0:0:0:0:
192,192,131375,1,0,0:0:0:0:
448,192,131597,1,0,0:0:0:0:
192,192,131819,1,0,0:0:0:0:
64,192,131819,1,0,0:0:0:0:
320,192,132042,1,0,0:0:0:0:
448,192,132264,1,0,0:0:0:0:
192,192,132264,1,0,0:0:0:0:
64,192,132486,1,0,0:0:0:0:
320,192,132708,1,0,0:0:0:0:
192,192,132931,1,0,0:0:0:0:
320,192,133153,1,0,0:0:0:0:
448,192,133153,1,0,0:0:0:0:
192,192,133375,1,0,0:0:0:0:
64,192,133597,1,0,0:0:0:0:
192,192,133708,1,0,0:0:0:0:
320,192,133819,1,0,0:0:0:0:
448,192,133931,1,0,0:0:0:0:
64,192,134042,1,0,0:0:0:0:
192,192,134042,1,0,0:0:0:0:
320,192,134264,1,0,0:0:0:0:
192,192,134375,1,0,0:0:0:0:
64,192,134486,128,0,134708:0:0:0:0:
448,192,134708,128,0,134931:0:0:0:0:
320,192,134931,1,0,0:0:0:0:
192,192,135153,1,0,0:0:0:0:
64,192,135375,128,0,135597:0:0:0:0:
448,192,135819,1,0,0:0:0:0:
320,192,135819,1,0,0:0:0:0:
192,192,136042,1,0,0:0:0:0:
320,192,136264,1,0,0:0:0:0:
192,192,136486,1,0,0:0:0:0:
64,192,136708,1,0,0:0:0:0:
448,192,136708,1,0,0:0:0:0:
320,192,136931,1,0,0:0:0:0:
64,192,137153,1,0,0:0:0:0:
192,192,137301,1,0,0:0:0:0:
320,192,137449,1,0,0:0:0:0:
448,192,137597,1,0,0:0:0:0:
64,192,137597,1,0,0:0:0:0:
192,192,137819,1,0,0:0:0:0:
448,192,138042,1,0,0:0:0:0:
320,192,138264,1,0,0:0:0:0:
64,192,138486,1,0,0:0:0:0:
192,192,138486,1,0,0:0:0:0:
320,192,138708,1,0,0:0:0:0:
448,192,138931,1,0,0:0:0:0:
64,192,139153,1,0,0:0:0:0:
192,192,139375,1,0,0:0:0:0:
320,192,139375,1,0,0:0:0:0:
448,192,139597,1,0,0:0:0:0:
192,192,139819,1,0,0:0:0:0:
320,192,140042,1,0,0:0:0:0:
64,192,140264,1,0,0:0:0:0:
192,192,140264,1,0,0:0:0:0:
448,192,140486,1,0,0:0:0:0:
64,192,140708,1,0,0:0:0:0:
192,192,140819,1,0,0:0:0:0:
320,192,140931,1,0,0:0:0:0:
448,192,141042,1,0,0:0:0:0:
64,192,141153,1,0,0:0:0:0:
192,192,141153,1,0,0:0:0:0:
320,192,141375,1,0,0:0:0:0:
64,192,141597,1,0,0:0:0:0:
192,192,141708,1,0,0:0:0:0:
320,192,141819,1,0,0:0:0:0:
192,192,142042,1,0,0:0:0:0:
64,192,142264,1,0,0:0:0:0:
448,192,142264,1,0,0:0:0:0:
320,192,142486,1,0,0:0:0:0:
192,192,142708,1,0,0:0:0:0:
64,192,142931,1,0,0:0:0:0:
320,192,142931,1,0,0:0:0:0:
192,192,143153,1,0,0:0:0:0:
448,192,143375,1,0,0:0:0:0:
320,192,143375,1,0,0:0:0:0:
64,192,143597,1,0,0:0:0:0:
320,192,143819,128,0,144708:0:0:0:0:
448,192,143819,128,0,144708:0:0:0:0:
192,192,144708,1,2,0:2:0:0:
192,192,145042,1,2,0:2:0:0:
192,192,145375,1,2,0:2:0:0:
320,192,145597,1,10,0:2:0:0:
320,192,145931,1,2,0:2:0:0:
192,192,146264,1,2,0:2:0:0:
448,192,146486,1,2,0:2:0:0:
320,192,146708,1,2,0:2:0:0:
192,192,146819,1,2,0:2:0:0:
192,192,147153,1,2,0:2:0:0:
320,192,147375,128,2,147708:0:2:0:0:
64,192,147708,128,2,147819:0:2:0:0:
192,192,148042,1,2,0:2:0:0:
448,192,148264,1,2,0:2:0:0:
320,192,148375,1,2,0:2:0:0:
192,192,148486,1,2,0:2:0:0:
64,192,148597,1,2,0:2:0:0:
448,192,149153,1,2,0:2:0:0:
320,192,149264,1,2,0:2:0:0:
192,192,149375,1,2,0:2:0:0:
64,192,149486,1,2,0:2:0:0:
64,192,150042,1,2,0:2:0:0:
192,192,150153,1,2,0:2:0:0:
320,192,150264,1,2,0:2:0:0:
448,192,150375,1,2,0:2:0:0:
64,192,150931,1,2,0:2:0:0:
192,192,151042,1,2,0:2:0:0:
320,192,151153,1,2,0:2:0:0:
448,192,151264,1,2,0:2:0:0:
192,192,151597,128,0,151819:0:0:0:0:
320,192,151819,1,0,0:0:0:0:
448,192,151819,1,0,0:0:0:0:
192,192,152264,1,0,0:0:0:0:
320,192,152708,1,0,0:0:0:0:
448,192,153153,1,0,0:0:0:0:
64,192,153597,1,0,0:0:0:0:
320,192,153819,1,0,0:0:0:0:
192,192,154042,1,0,0:0:0:0:
448,192,154264,1,0,0:0:0:0:
64,192,154486,1,0,0:0:0:0:
320,192,154708,1,0,0:0:0:0:
192,192,154931,1,0,0:0:0:0:
64,192,155153,1,0,0:0:0:0:
448,192,155375,1,0,0:0:0:0:
192,192,155375,1,0,0:0:0:0:
320,192,155597,1,0,0:0:0:0:
64,192,155819,1,0,0:0:0:0:
192,192,155819,1,0,0:0:0:0:
448,192,156042,1,0,0:0:0:0:
320,192,156264,1,0,0:0:0:0:
192,192,156264,1,0,0:0:0:0:
64,192,156486,1,0,0:0:0:0:
192,192,156708,1,0,0:0:0:0:
448,192,156708,1,0,0:0:0:0:
320,192,156931,128,0,157375:0:0:0:0:
192,192,157153,1,0,0:0:0:0:
192,192,157375,128,0,157597:0:0:0:0:
64,192,157819,1,0,0:0:0:0:
320,192,158042,1,2,0:2:0:0:
192,192,158486,1,2,0:2:0:0:
448,192,158708,1,2,0:2:0:0:
64,192,158931,128,2,159264:0:2:0:0:
192,192,158931,128,2,159264:0:2:0:0:
320,192,159264,128,2,159597:0:2:0:0:
448,192,159597,128,2,159819:0:2:0:0:
64,192,159819,1,0,0:0:0:0:
192,192,159819,1,0,0:0:0:0:
320,192,160042,1,0,0:0:0:0:
64,192,160264,1,0,0:0:0:0:
448,192,160486,128,0,160931:0:0:0:0:
320,192,160931,128,0,161375:0:0:0:0:
192,192,161375,128,0,161819:0:0:0:0:
64,192,161819,128,0,162042:0:0:0:0:
448,192,162042,1,0,0:0:0:0:
192,192,162264,1,0,0:0:0:0:
64,192,162486,128,0,162819:0:0:0:0:
448,192,162486,128,0,162819:0:0:0:0:
320,192,162819,128,0,163153:0:0:0:0:
192,192,163153,128,0,163597:0:0:0:0:
64,192,163597,128,0,163819:0:0:0:0:
320,192,164042,128,0,164264:0:0:0:0:
448,192,164264,128,0,164597:0:0:0:0:
320,192,164597,128,0,164931:0:0:0:0:
192,192,164931,128,0,165375:0:0:0:0:
64,192,165375,128,0,165597:0:0:0:0:
448,192,165597,1,0,0:0:0:0:
320,192,165745,1,0,0:0:0:0:
192,192,165894,1,0,0:0:0:0:
64,192,166042,1,0,0:0:0:0:
448,192,166042,128,0,166375:0:0:0:0:
192,192,166375,128,0,166708:0:0:0:0:
320,192,166708,128,0,167153:0:0:0:0:
192,192,167153,1,0,0:0:0:0:
64,192,167264,1,0,0:0:0:0:
448,192,167375,1,0,0:0:0:0:
320,192,167597,128,0,167819:0:0:0:0:
192,192,167819,128,0,168264:0:0:0:0:
320,192,168264,128,0,168486:0:0:0:0:
64,192,168486,128,0,168931:0:0:0:0:
192,192,168931,128,0,169375:0:0:0:0:
320,192,169375,128,0,169597:0:0:0:0:
448,192,169597,128,0,170264:0:0:0:0:
64,192,169597,128,0,170264:0:0:0:0:
192,192,170375,1,0,0:0:0:0:
320,192,170486,1,0,0:0:0:0:
64,192,170708,1,0,0:0:0:0:
448,192,170931,128,0,171153:0:0:0:0:
192,192,171153,128,0,171375:0:0:0:0:
320,192,171375,128,0,171708:0:0:0:0:
192,192,171708,128,0,172042:0:0:0:0:
64,192,172042,128,0,172486:0:0:0:0:
448,192,172486,128,0,172708:0:0:0:0:
320,192,172857,1,0,0:0:0:0:
192,192,173005,1,0,0:0:0:0:
64,192,173153,1,0,0:0:0:0:
448,192,173153,1,0,0:0:0:0:
320,192,173375,1,0,0:0:0:0:
64,192,173597,1,0,0:0:0:0:
448,192,173819,1,0,0:0:0:0:
192,192,174042,1,0,0:0:0:0:
64,192,174042,1,0,0:0:0:0:
320,192,174264,1,0,0:0:0:0:
64,192,174486,1,0,0:0:0:0:
192,192,174708,1,0,0:0:0:0:
320,192,174931,1,0,0:0:0:0:
448,192,174931,1,0,0:0:0:0:
64,192,175153,1,0,0:0:0:0:
320,192,175375,1,0,0:0:0:0:
192,192,175597,1,0,0:0:0:0:
64,192,175819,1,0,0:0:0:0:
448,192,176042,1,0,0:0:0:0:
192,192,176264,1,0,0:0:0:0:
192,192,176486,1,0,0:0:0:0:
320,192,176708,1,0,0:0:0:0:
448,192,176708,1,0,0:0:0:0:
192,192,176931,1,0,0:0:0:0:
64,192,177153,1,0,0:0:0:0:
320,192,177375,1,0,0:0:0:0:
448,192,177597,1,0,0:0:0:0:
192,192,177819,1,0,0:0:0:0:
320,192,178042,1,0,0:0:0:0:
64,192,178264,1,0,0:0:0:0:
320,192,178486,1,0,0:0:0:0:
448,192,178486,1,0,0:0:0:0:
192,192,178708,1,0,0:0:0:0:
64,192,178931,1,0,0:0:0:0:
320,192,179153,1,0,0:0:0:0:
448,192,179153,1,0,0:0:0:0:
192,192,179375,1,0,0:0:0:0:
64,192,179597,1,0,0:0:0:0:
320,192,179819,1,0,0:0:0:0:
320,192,180042,1,0,0:0:0:0:
448,192,180264,1,0,0:0:0:0:
64,192,180264,128,0,180597:0:0:0:0:
192,192,180597,128,0,180931:0:0:0:0:
320,192,180931,128,0,181375:0:0:0:0:
448,192,181375,128,0,181819:0:0:0:0:
192,192,181819,128,0,182042:0:0:0:0:
320,192,182042,128,0,182486:0:0:0:0:
64,192,182486,128,0,182708:0:0:0:0:
448,192,182708,128,0,183153:0:0:0:0:
320,192,183153,128,0,183597:0:0:0:0:
192,192,183597,128,0,183819:0:0:0:0:
448,192,183819,1,0,0:0:0:0:
64,192,184042,128,0,184264:0:0:0:0:
320,192,184264,128,0,184597:0:0:0:0:
192,192,184597,1,0,0:0:0:0:
64,192,184708,1,0,0:0:0:0:
192,192,184819,1,0,0:0:0:0:
320,192,184931,1,0,0:0:0:0:
448,192,185042,1,0,0:0:0:0:
64,192,185153,128,0,185375:0:0:0:0:
192,192,185375,128,0,185597:0:0:0:0:
320,192,185597,1,0,0:0:0:0:
64,192,185819,1,0,0:0:0:0:
448,192,185931,128,0,186264:0:0:0:0:
192,192,186264,128,0,186486:0:0:0:0:
320,192,186486,1,0,0:0:0:0:
64,192,186708,1,0,0:0:0:0:
192,192,186931,1,0,0:0:0:0:
192,192,187153,1,0,0:0:0:0:
448,192,187375,128,0,187708:0:0:0:0:
320,192,187708,128,0,188042:0:0:0:0:
64,192,188042,128,0,188486:0:0:0:0:
192,192,188486,128,0,188931:0:0:0:0:
320,192,188931,128,0,189375:0:0:0:0:
448,192,189375,128,0,190042:0:0:0:0:
64,192,190042,1,0,0:0:0:0:
192,192,190264,1,0,0:0:0:0:
320,192,190486,1,0,0:0:0:0:
448,192,190708,1,0,0:0:0:0:
64,192,190931,1,0,0:0:0:0:
192,192,190931,128,0,191264:0:0:0:0:
320,192,191264,128,0,191597:0:0:0:0:
448,192,191597,128,0,192042:0:0:0:0:
64,192,192042,128,0,192264:0:0:0:0:
320,192,192486,128,0,192708:0:0:0:0:
192,192,192708,128,0,193042:0:0:0:0:
64,192,193042,128,0,193375:0:0:0:0:
448,192,193375,128,0,193819:0:0:0:0:
320,192,193819,128,0,194042:0:0:0:0:
64,192,194264,128,0,194486:0:0:0:0:
320,192,194486,128,0,194819:0:0:0:0:
192,192,194819,128,0,195153:0:0:0:0:
448,192,195153,128,0,195597:0:0:0:0:
64,192,195597,128,0,195819:0:0:0:0:
192,192,196042,1,0,0:0:0:0:
320,192,196264,128,0,196597:0:0:0:0:
448,192,196264,128,0,196597:0:0:0:0:
192,192,196597,128,0,196931:0:0:0:0:
64,192,196597,128,0,196931:0:0:0:0:
320,192,196931,128,0,197375:0:0:0:0:
448,192,196931,128,0,197375:0:0:0:0:
192,192,197375,128,0,197597:0:0:0:0:
64,192,197375,128,0,197597:0:0:0:0:
320,192,197819,128,0,198042:0:0:0:0:
64,192,198042,1,0,0:0:0:0:
192,192,198042,1,0,0:0:0:0:
448,192,198264,1,0,0:0:0:0:
192,192,198486,1,0,0:0:0:0:
320,192,198708,1,0,0:0:0:0:
64,192,198931,1,0,0:0:0:0:
448,192,198931,1,0,0:0:0:0:
192,192,199153,1,0,0:0:0:0:
448,192,199375,1,0,0:0:0:0:
64,192,199597,1,0,0:0:0:0:
192,192,199819,1,0,0:0:0:0:
320,192,199819,1,0,0:0:0:0:
448,192,200042,1,0,0:0:0:0:
64,192,200264,1,0,0:0:0:0:
320,192,200486,1,0,0:0:0:0:
192,192,200708,1,0,0:0:0:0:
64,192,200931,1,0,0:0:0:0:
320,192,201153,1,0,0:0:0:0:
320,192,201375,1,0,0:0:0:0:
64,192,201597,1,0,0:0:0:0:
192,192,201597,1,0,0:0:0:0:
448,192,201819,1,0,0:0:0:0:
192,192,202042,1,0,0:0:0:0:
320,192,202264,1,0,0:0:0:0:
448,192,202486,1,0,0:0:0:0:
64,192,202708,1,0,0:0:0:0:
320,192,202931,1,0,0:0:0:0:
192,192,203153,1,0,0:0:0:0:
448,192,203375,1,0,0:0:0:0:
320,192,203375,1,0,0:0:0:0:
64,192,203597,1,0,0:0:0:0:
192,192,203708,1,0,0:0:0:0:
320,192,203819,1,0,0:0:0:0:
448,192,203931,1,0,0:0:0:0:
320,192,204042,1,0,0:0:0:0:
64,192,204264,1,0,0:0:0:0:
320,192,204486,128,0,204708:0:0:0:0:
192,192,204931,128,0,205153:0:0:0:0:
320,192,205153,1,0,0:0:0:0:
448,192,205153,1,0,0:0:0:0:
64,192,205375,1,0,0:0:0:0:
320,192,205597,1,0,0:0:0:0:
192,192,205819,1,0,0:0:0:0:
320,192,206042,1,0,0:0:0:0:
64,192,206042,1,0,0:0:0:0:
448,192,206264,1,0,0:0:0:0:
320,192,206486,1,0,0:0:0:0:
192,192,206708,1,0,0:0:0:0:
448,192,206931,1,0,0:0:0:0:
64,192,206931,1,0,0:0:0:0:
320,192,206931,128,0,207375:0:0:0:0:
192,192,207375,128,0,207597:0:0:0:0:
64,192,207597,128,0,208042:0:0:0:0:
448,192,208042,128,0,208486:0:0:0:0:
320,192,208486,128,0,208708:0:0:0:0:
64,192,208708,1,2,0:2:0:0:
192,192,208931,1,2,0:0:0:0:
320,192,209153,1,2,0:0:0:0:
448,192,209375,1,2,0:0:0:0:
448,192,209597,1,2,0:0:0:0:
320,192,209819,1,2,0:0:0:0:
192,192,210042,1,2,0:0:0:0:
64,192,210264,1,2,0:0:0:0:
320,192,210486,1,2,0:0:0:0:
448,192,210486,1,2,0:0:0:0:
192,192,210708,1,2,0:0:0:0:
64,192,210931,1,2,0:0:0:0:
448,192,211153,1,2,0:0:0:0:
320,192,211375,1,2,0:0:0:0:
192,192,211597,1,2,0:0:0:0:
64,192,211819,1,2,0:0:0:0:
64,192,212042,1,2,0:0:0:0:
320,192,212264,1,2,0:0:0:0:
192,192,212264,1,2,0:0:0:0:
448,192,212486,1,2,0:0:0:0:
64,192,212708,1,2,0:0:0:0:
192,192,212931,1,2,0:0:0:0:
320,192,213153,1,2,0:0:0:0:
448,192,213375,1,2,0:0:0:0:
64,192,213597,1,2,0:0:0:0:
192,192,213819,1,2,0:0:0:0:
448,192,214042,1,2,0:0:0:0:
64,192,214042,1,2,0:0:0:0:
448,192,214375,1,2,0:0:0:0:
64,192,214708,1,2,0:0:0:0:
320,192,215597,128,2,215819:0:2:0:0:
64,192,215819,128,2,216264:0:2:0:0:
192,192,216264,128,2,216708:0:2:0:0:
448,192,216708,128,2,216931:0:2:0:0:
64,192,219153,128,2,219375:0:2:0:0:
320,192,219375,128,2,219819:0:2:0:0:
192,192,219819,128,2,220264:0:2:0:0:
64,192,220264,128,2,220486:0:2:0:0:
448,192,222708,128,2,222931:0:0:0:0:
192,192,222931,128,2,223375:0:0:0:0:
64,192,223375,128,2,223597:0:0:0:0:
320,192,223597,128,2,224042:0:0:0:0:
192,192,224042,128,2,224264:0:0:0:0:
448,192,224264,128,2,224708:0:0:0:0:
192,192,226264,128,2,226486:0:0:0:0:
448,192,226486,1,0,0:0:0:0:
64,192,226931,1,0,0:0:0:0:
448,192,227153,1,0,0:0:0:0:
320,192,227597,1,0,0:0:0:0:
192,192,227819,1,0,0:0:0:0:
