osu file format v14

[General]
AudioFilename: audio.mp3
AudioLeadIn: 0
PreviewTime: 63025
Countdown: 0
SampleSet: Soft
StackLeniency: 0.2
Mode: 0
LetterboxInBreaks: 0
WidescreenStoryboard: 0

[Editor]
Bookmarks: 6389,18389,30389,42389,51389,63389,73889,88889,100889,109889,121889,132389,147389,159389,171389,186389,211139,222389,234389,243389,249389,261389,273154,275639,276014,276389,276764,277139,277514,277889,278264,278639,279014,279389,279764,280139,280514,280889,281264,281639,282014,282389,282764,283139,283514,283889,284264,284639,285014,285389,285764,286139,286514,299639,310139,322139
DistanceSpacing: 0.15
BeatDivisor: 4
GridSize: 8
TimelineZoom: 1.5

[Metadata]
Title:Shinzou o Sasageyo! feat. Zenpaku
TitleUnicode:心臓を捧げよ! feat. Zenpaku
Artist:dj-Jo
ArtistUnicode:dj-Jo
Creator:Night Mare
Version:Dedicate Your Hearts!
Source:進撃の巨人
Tags:luna Dora- doraemonelf Joseph Feliciano Linked Horizon snk aot Shingeki no Kyojin attack on titan Opfert eure Herzen! 進撃の軌跡 kiseki REVO season 2 opening japanese male vocal electronic edm dubstep trap remix cover
BeatmapID:2164737
BeatmapSetID:1035397

[Difficulty]
HPDrainRate:5.5
CircleSize:4
OverallDifficulty:9
ApproachRate:9.6
SliderMultiplier:2.3
SliderTickRate:1

[Events]
//Background and Video events
0,0,"image.jpg",0,0
//Break Periods
2,275639,286139
//Storyboard Layer 0 (Background)
//Storyboard Layer 1 (Fail)
//Storyboard Layer 2 (Pass)
//Storyboard Layer 3 (Foreground)
//Storyboard Layer 4 (Overlay)
//Storyboard Sound Samples

[TimingPoints]
389,375,4,2,10,50,1,0
576,-200,4,2,11,50,0,0
951,-200,4,2,12,50,0,0
1326,-200,4,2,13,50,0,0
1701,-200,4,2,11,50,0,0
1889,-200,4,2,10,50,0,0
2076,-200,4,2,11,50,0,0
2451,-200,4,2,12,50,0,0
2826,-200,4,2,13,50,0,0
3201,-200,4,2,11,50,0,0
3389,-200,4,2,2,80,0,1
3576,-76.9230769230769,4,2,2,80,0,1
3857,-76.9230769230769,4,2,99,5,0,1
3951,-76.9230769230769,4,2,2,80,0,1
6389,-76.9230769230769,4,2,3,65,0,0
6576,-142.857142857143,4,2,3,65,0,0
12014,-142.857142857143,4,2,30,65,0,0
12389,-142.857142857143,4,2,3,65,0,0
12576,-125,4,2,3,65,0,0
16889,-83.3333333333333,4,2,2,75,0,0
18014,-500,4,2,3,75,0,0
18295,-500,4,2,99,5,0,0
18389,-111.111111111111,4,2,3,75,0,0
20264,-111.111111111111,4,2,2,75,0,0
21389,-111.111111111111,4,2,3,75,0,0
23264,-111.111111111111,4,2,2,75,0,0
24389,-99.9999999999999,4,2,3,75,0,0
26264,-99.9999999999999,4,2,2,75,0,0
27389,-99.9999999999999,4,2,3,75,0,0
28139,-99.9999999999999,4,2,2,75,0,0
28889,-99.9999999999999,4,2,2,70,0,0
30014,-99.9999999999999,4,2,30,80,0,0
30389,-142.857142857143,4,2,3,70,0,0
30764,-142.857142857143,4,2,2,70,0,0
32639,-100,4,2,2,70,0,0
32826,-100,4,2,99,5,0,0
32920,-100,4,2,2,70,0,0
33295,-100,4,2,99,5,0,0
33389,-100,4,2,3,70,0,0
33764,-100,4,2,2,70,0,0
34514,-142.857142857143,4,2,2,70,0,0
36389,-117.647058823529,4,2,3,70,0,0
36764,-117.647058823529,4,2,2,70,0,0
38639,-86.9565217391304,4,2,2,70,0,0
38920,-86.9565217391304,4,2,99,5,0,0
39014,-86.9565217391304,4,2,2,70,0,0
39295,-86.9565217391304,4,2,99,5,0,0
39389,-86.9565217391304,4,2,2,70,0,0
39764,-117.647058823529,4,2,2,70,0,0
40889,-83.3333333333333,4,2,2,70,0,0
41170,-83.3333333333333,4,2,99,5,0,0
41264,-83.3333333333333,4,2,2,70,0,0
41545,-83.3333333333333,4,2,99,5,0,0
41639,-83.3333333333333,4,2,2,70,0,0
41920,-83.3333333333333,4,2,99,5,0,0
42014,-83.3333333333333,4,2,2,70,0,0
42389,-142.857142857143,4,2,3,65,0,0
45389,-200,4,2,3,60,0,0
46139,-200,4,2,2,60,0,0
48014,-166.666666666667,4,2,2,60,0,0
48389,-74.0740740740741,4,2,2,80,0,0
48670,-74.0740740740741,4,2,99,5,0,0
48764,-74.0740740740741,4,2,2,80,0,0
49045,-74.0740740740741,4,2,99,5,0,0
49139,-74.0740740740741,4,2,2,80,0,0
49889,-74.0740740740741,4,2,2,85,0,0
51014,-400,4,2,2,85,0,0
51295,-400,4,2,99,5,0,0
51389,-166.666666666667,4,2,2,75,0,0
60014,-500.000000000003,4,2,2,75,0,0
60295,-500.000000000003,4,2,99,5,0,0
60389,-76.9230769230769,4,2,2,85,0,0
60670,-76.9230769230769,4,2,99,5,0,0
60764,-76.9230769230769,4,2,2,85,0,0
61045,-76.9230769230769,4,2,99,5,0,0
61139,-71.4285714285714,4,2,2,85,0,0
61420,-71.4285714285714,4,2,99,5,0,0
61514,-71.4285714285714,4,2,2,85,0,0
61795,-71.4285714285714,4,2,99,5,0,0
61889,-71.4285714285714,4,2,2,90,0,0
63014,-333.333333333333,4,2,2,90,0,0
63295,-333.333333333333,4,2,99,5,0,0
63389,-74.0740740740741,4,2,4,80,0,1
68639,-94.3396226415094,4,2,4,80,0,1
69014,-68.9655172413793,4,2,4,80,0,1
69295,-68.9655172413793,4,2,99,5,0,1
69389,-71.4285714285714,4,2,4,80,0,1
72389,-71.4285714285714,4,2,4,80,0,0
73889,-71.4285714285714,4,2,31,80,0,0
74076,-90.9090909090909,4,2,4,80,0,0
77076,-100,4,2,4,80,0,0
80076,-90.9090909090909,4,2,4,80,0,0
88326,-500,4,2,4,80,0,0
88794,-500,4,2,99,5,0,0
88889,-500,4,2,4,80,0,0
91139,-125,4,2,4,80,0,0
91420,-125,4,2,99,5,0,0
91514,-125,4,2,4,80,0,0
91795,-125,4,2,99,5,0,0
91889,-125,4,2,4,80,0,0
94889,-117.647058823529,4,2,4,80,0,0
97139,-86.9565217391302,4,2,4,80,0,0
97420,-86.9565217391302,4,2,99,5,0,0
97514,-86.9565217391302,4,2,4,80,0,0
97795,-86.9565217391302,4,2,99,5,0,0
97889,-86.9565217391302,4,2,4,80,0,0
98264,-117.647058823529,4,2,4,80,0,0
99389,-79.9999999999998,4,2,4,80,0,0
99670,-79.9999999999998,4,2,99,5,0,0
99764,-79.9999999999998,4,2,4,80,0,0
100045,-79.9999999999998,4,2,99,5,0,0
100139,-79.9999999999998,4,2,4,80,0,0
100420,-79.9999999999998,4,2,4,5,0,0
100514,-44.4444444444445,4,2,4,80,0,0
100795,-44.4444444444445,4,2,99,5,0,0
100889,-133.333333333333,4,2,4,80,0,0
101264,-133.333333333333,4,2,5,70,0,0
103889,-181.818181818181,4,2,5,70,0,0
106889,-71.4285714285714,4,2,2,85,0,0
107170,-71.4285714285714,4,2,99,5,0,0
107264,-71.4285714285714,4,2,2,85,0,0
107545,-71.4285714285714,4,2,99,5,0,0
107639,-71.4285714285714,4,2,2,85,0,0
109889,-71.4285714285714,4,2,2,75,0,0
110076,-166.666666666667,4,2,20,75,0,0
115514,-166.666666666667,4,2,20,70,0,0
116264,-166.666666666667,4,2,20,65,0,0
118326,-166.666666666667,4,2,20,75,0,0
118514,-500,4,2,20,75,0,0
118795,-500,4,2,99,5,0,0
118889,-74.0740740740741,4,2,20,85,0,0
119170,-74.0740740740741,4,2,99,5,0,0
119264,-74.0740740740741,4,2,20,85,0,0
119545,-74.0740740740741,4,2,99,5,0,0
119639,-68.9655172413793,4,2,20,85,0,0
119920,-68.9655172413793,4,2,99,5,0,0
120014,-68.9655172413793,4,2,20,85,0,0
120295,-68.9655172413793,4,2,99,5,0,0
120389,-68.9655172413793,4,2,20,90,0,0
121514,-500,4,2,20,90,0,0
121795,-500,4,2,99,5,0,0
121889,-500,4,2,2,80,0,1
122451,-100,4,2,2,80,0,1
127139,-71.4285714285714,4,2,2,80,0,1
127420,-71.4285714285714,4,2,99,5,0,1
127514,-71.4285714285714,4,2,2,80,0,1
127795,-71.4285714285714,4,2,99,5,0,1
127889,-71.4285714285714,4,2,2,80,0,1
128076,-74.0740740740741,4,2,2,80,0,1
130889,-74.0740740740741,4,2,2,80,0,0
132389,-500,4,2,2,80,0,0
132857,-500,4,2,99,5,0,0
132951,-500,4,2,2,80,0,0
133139,-500,4,2,31,80,0,0
133326,-90.9090909090909,4,2,4,80,0,0
135576,-100,4,2,4,80,0,0
138576,-86.9565217391304,4,2,4,80,0,0
146826,-1000,4,2,4,80,0,0
147294,-1000,4,2,99,5,0,0
147389,-1000,4,2,5,70,0,0
147576,-142.857142857143,4,2,5,70,0,0
153389,-1000,4,2,5,70,0,0
153670,-1000,4,2,99,5,0,0
153764,-1000,4,2,5,70,0,0
153951,-142.857142857143,4,2,5,70,0,0
157889,-86.9565217391304,4,2,2,70,0,0
158170,-86.9565217391304,4,2,99,5,0,0
158264,-86.9565217391304,4,2,2,70,0,0
158545,-86.9565217391304,4,2,2,5,0,0
158639,-86.9565217391304,4,2,2,70,0,0
158920,-86.9565217391304,4,2,99,5,0,0
159014,-86.9565217391304,4,2,2,70,0,0
159295,-86.9565217391304,4,2,99,5,0,0
159389,-105.263157894737,4,2,20,75,0,0
165014,-500,4,2,20,75,0,0
165295,-500,4,2,99,5,0,0
165389,-95.2380952380952,4,2,20,75,0,0
169889,-74.0740740740741,4,2,20,75,0,0
170170,-74.0740740740741,4,2,99,5,0,0
170264,-68.9655172413793,4,2,20,75,0,0
170545,-68.9655172413793,4,2,99,5,0,0
170639,-74.0740740740741,4,2,20,75,0,0
170920,-74.0740740740741,4,2,99,5,0,0
171014,-68.9655172413793,4,2,20,75,0,0
171295,-68.9655172413793,4,2,99,5,0,0
171389,-117.647058823529,4,2,20,75,0,0
175889,-95.238095238095,4,2,20,75,0,0
176170,-95.238095238095,4,2,99,5,0,0
176264,-95.238095238095,4,2,20,75,0,0
177389,-105.263157894737,4,2,20,75,0,0
179639,-83.3333333333333,4,2,20,75,0,0
179826,-83.3333333333333,4,2,99,5,0,0
179889,-83.3333333333333,4,2,20,75,0,0
180076,-83.3333333333333,4,2,99,5,0,0
180139,-83.3333333333333,4,2,20,75,0,0
180326,-83.3333333333333,4,2,99,5,0,0
180389,-133.333333333333,4,2,20,75,0,0
184326,-111.111111111111,4,2,20,75,0,0
184607,-111.111111111111,4,2,99,5,0,0
184701,-111.111111111111,4,2,20,75,0,0
186389,-666.666666666667,4,2,31,75,0,0
187045,-666.666666666667,4,2,99,5,0,0
187139,-100,4,2,4,75,0,0
187420,-100,4,2,99,5,0,0
187514,-100,4,2,4,75,0,0
188170,-100,4,2,99,5,0,0
188264,-100,4,2,4,75,0,0
190514,-500,4,2,4,75,0,0
190795,-500,4,2,99,5,0,0
190889,-500,4,2,4,75,0,0
190982,-100,4,2,4,75,0,0
192389,-666.666666666667,4,2,31,75,0,0
193045,-666.666666666667,4,2,99,5,0,0
193139,-100,4,2,4,75,0,0
193420,-100,4,2,99,5,0,0
193514,-100,4,2,4,75,0,0
196889,-71.4285714285714,4,2,4,75,0,0
197076,-71.4285714285714,4,2,99,5,0,0
197139,-100,4,2,4,75,0,0
197326,-100,4,2,99,5,0,0
197389,-166.666666666667,4,2,4,75,0,0
197576,-166.666666666667,4,2,99,5,0,0
197639,-166.666666666667,4,2,4,75,0,0
197826,-166.666666666667,4,2,99,5,0,0
197889,-100,4,2,4,75,0,0
198076,-100,4,2,99,5,0,0
198139,-71.4285714285714,4,2,4,75,0,0
198326,-71.4285714285714,4,2,99,5,0,0
198389,-90.9090909090909,4,2,4,75,0,0
204389,-666.666666666667,4,2,4,75,0,0
205045,-666.666666666667,4,2,99,5,0,0
205139,-83.3333333333333,4,2,4,75,0,0
205420,-83.3333333333333,4,2,99,5,0,0
205514,-83.3333333333333,4,2,4,75,0,0
206170,-83.3333333333333,4,2,99,5,0,0
206264,-83.3333333333333,4,2,4,75,0,0
207764,-55.5555555555556,4,2,4,75,0,0
208139,-83.3333333333333,4,2,4,75,0,0
208889,-66.6666666666667,4,2,4,75,0,0
209076,-66.6666666666667,4,2,99,5,0,0
209139,-76.9230769230769,4,2,99,75,0,0
209326,-76.9230769230769,4,2,99,5,0,0
209389,-100,4,2,4,75,0,0
209576,-100,4,2,99,5,0,0
209639,-100,4,2,4,75,0,0
209826,-100,4,2,99,5,0,0
209889,-125,4,2,4,75,0,0
210076,-125,4,2,99,5,0,0
210139,-200,4,2,99,75,0,0
210326,-200,4,2,99,5,0,0
210389,-200,4,2,20,70,0,0
211139,-200,4,2,4,80,0,1
212451,-76.9230769230769,4,2,4,80,0,1
214326,-76.9230769230769,4,2,4,75,0,1
214419,-76.9230769230769,4,2,4,70,0,1
214514,-76.9230769230769,4,2,4,65,0,1
214607,-76.9230769230769,4,2,4,60,0,1
214702,-76.9230769230769,4,2,4,55,0,1
214795,-76.9230769230769,4,2,4,50,0,1
214889,-76.9230769230769,4,2,4,55,0,1
214982,-76.9230769230769,4,2,4,60,0,1
215076,-76.9230769230769,4,2,4,65,0,1
215264,-76.9230769230769,4,2,4,75,0,1
215451,-90.9090909090909,4,2,4,75,0,1
216576,-76.9230769230769,4,2,4,75,0,1
232889,-66.6666666666667,4,2,4,75,0,1
233170,-66.6666666666667,4,2,99,5,0,1
233264,-66.6666666666667,4,2,4,75,0,1
233545,-66.6666666666667,4,2,99,5,0,1
233639,-71.4285714285714,4,2,4,75,0,1
233920,-71.4285714285714,4,2,99,5,0,1
234014,-71.4285714285714,4,2,4,75,0,1
234295,-71.4285714285714,4,2,99,5,0,1
234389,-111.111111111111,4,2,3,55,0,0
235326,-111.111111111111,4,2,99,5,0,0
235389,-111.111111111111,4,2,3,55,0,0
235576,-111.111111111111,4,2,99,5,0,0
235639,-111.111111111111,4,2,3,55,0,0
235826,-111.111111111111,4,2,99,5,0,0
235889,-111.111111111111,4,2,3,55,0,0
237389,-111.111111111111,4,2,3,60,0,0
239170,-111.111111111111,4,2,99,5,0,0
239264,-111.111111111111,4,2,3,60,0,0
240014,-666.666666666667,4,2,3,60,0,0
240295,-666.666666666667,4,2,99,5,0,0
240389,-105.263157894737,4,2,3,70,0,0
240576,-105.263157894737,4,2,99,5,0,0
240639,-105.263157894737,4,2,3,70,0,0
240826,-105.263157894737,4,2,99,5,0,0
240889,-105.263157894737,4,2,3,70,0,0
241076,-105.263157894737,4,2,99,5,0,0
241139,-105.263157894737,4,2,3,70,0,0
241326,-105.263157894737,4,2,99,5,0,0
241389,-105.263157894737,4,2,3,70,0,0
241576,-105.263157894737,4,2,99,5,0,0
241639,-105.263157894737,4,2,3,70,0,0
241826,-105.263157894737,4,2,99,5,0,0
241889,-100,4,2,3,75,0,0
242170,-100,4,2,99,5,0,0
242264,-90.9090909090909,4,2,3,75,0,0
242545,-90.9090909090909,4,2,99,5,0,0
242639,-83.3333333333333,4,2,3,75,0,0
242920,-83.3333333333333,4,2,99,5,0,0
243014,-83.3333333333333,4,2,3,75,0,0
243389,-66.6666666666667,4,2,4,85,0,1
247889,-1000,4,2,4,85,0,0
248920,-1000,4,2,99,5,0,0
249014,-76.9230769230769,4,2,4,85,0,0
249295,-76.9230769230769,4,2,99,5,0,0
249389,-76.9230769230769,4,2,4,70,0,0
254264,-500,4,2,4,70,0,0
254545,-500,4,2,99,5,0,0
254639,-500,4,2,4,70,0,0
255295,-500,4,2,99,5,0,0
255389,-500,4,2,4,75,0,0
255764,-100,4,2,4,75,0,0
259889,-90.9090909090909,4,2,4,75,0,0
260639,-90.9090909090909,4,2,4,85,0,0
261014,-500,4,2,4,85,0,0
261295,-500,4,2,99,5,0,0
261389,-500,4,2,4,70,0,0
261764,-83.3333333333333,4,2,31,85,0,0
262514,-83.3333333333333,4,2,4,85,0,0
267951,-90.9090909090909,4,2,4,85,0,0
269826,-71.4285714285714,4,2,4,85,0,0
270389,-166.666666666667,4,2,4,85,0,0
271889,-125,4,2,4,85,0,0
275639,375,4,2,4,85,1,0
286701,-100,4,2,4,75,0,0
287639,-166.666666666667,4,2,4,75,0,0
296264,-500.000000000003,4,2,4,75,0,0
296545,-500.000000000003,4,2,99,5,0,0
296639,-71.4285714285714,4,2,2,85,0,0
296920,-71.4285714285714,4,2,99,5,0,0
297014,-71.4285714285714,4,2,2,85,0,0
297295,-71.4285714285714,4,2,99,5,0,0
297389,-66.6666666666667,4,2,2,85,0,0
297670,-66.6666666666667,4,2,99,5,0,0
297764,-66.6666666666667,4,2,2,85,0,0
298045,-66.6666666666667,4,2,99,5,0,0
298139,-66.6666666666667,4,2,2,90,0,0
299264,-500,4,2,2,90,0,0
299545,-500,4,2,99,5,0,0
299639,-71.4285714285714,4,2,4,80,0,1
304889,-94.3396226415094,4,2,4,80,0,1
305264,-68.9655172413793,4,2,4,80,0,1
305545,-68.9655172413793,4,2,99,5,0,1
305639,-68.9655172413793,4,2,4,80,0,1
308639,-68.9655172413793,4,2,4,80,0,0
310139,-68.9655172413793,4,2,31,80,0,0
310326,-83.3333333333333,4,2,4,80,0,0
313326,-90.9090909090909,4,2,4,80,0,0
316326,-76.9230769230769,4,2,4,80,0,0

[Colours]
Combo1 : 255,255,128
Combo2 : 62,255,158
Combo3 : 255,128,128
Combo4 : 195,195,195

[HitObjects]
104,362,389,5,2,2:0:0:0:
44,384,576,2,0,P|72:384|98:373,1,57.5,2|0,2:0|2:0,2:0:0:0:
49,270,951,1,2,2:0:0:0:
52,286,1326,1,2,2:0:0:0:
55,302,1701,1,2,2:0:0:0:
130,212,1889,5,2,2:0:0:0:
144,290,2076,2,0,L|133:233,1,57.5,2|0,2:0|2:0,2:0:0:0:
56,166,2451,1,2,2:0:0:0:
74,143,2826,1,2,2:0:0:0:
103,130,3201,1,2,2:0:0:0:
310,244,3389,5,6,3:2:0:0:
350,17,3576,2,0,B|336:90|336:90|347:125|347:125|325:153|325:153|312:230,1,224.24998973465,6|0,3:2|2:0,2:0:0:0:
200,98,3951,6,0,L|347:123,1,149.499993156433,6|0,3:2|3:2,2:0:0:0:
245,0,4232,1,0,3:2:0:0:
141,18,4326,2,0,P|102:79|116:151,1,149.499993156433,6|0,3:2|3:2,2:0:0:0:
212,221,4607,1,0,3:2:0:0:
137,303,4701,6,0,B|34:321|34:321|0:291,1,149.499993156433,6|0,3:2|3:2,2:0:0:0:
64,226,4982,1,0,3:2:0:0:
117,331,5076,2,0,L|264:305,1,149.499993156433,6|0,3:2|3:2,2:0:0:0:
372,368,5357,1,0,3:2:0:0:
466,308,5451,6,0,B|447:205|447:205|407:183,1,149.499993156433,6|0,3:2|3:2,2:0:0:0:
359,273,5732,1,0,3:2:0:0:
306,196,5826,2,0,P|322:124|383:84,1,149.499993156433,6|0,3:2|3:2,2:0:0:0:
491,99,6107,1,0,3:2:0:0:
450,0,6201,1,6,3:2:0:0:
295,186,6389,5,4,3:2:0:0:
264,14,6576,2,0,P|226:-1|186:0,1,80.499997543335,0|0,2:0|3:2,2:0:0:0:
104,103,6951,2,0,L|90:23,1,80.499997543335,0|0,2:0|3:2,2:0:0:0:
209,90,7326,2,0,L|195:169,1,80.499997543335,0|0,2:0|3:2,2:0:0:0:
41,236,7701,2,0,L|1:229,1,40.2499987716675,8|8,2:0|2:0,2:0:0:0:
99,112,7889,5,0,3:2:0:0:
124,212,8076,2,0,P|126:251|110:288,1,80.499997543335,0|0,2:0|3:2,2:0:0:0:
54,364,8451,2,0,L|133:377,1,80.499997543335,0|0,2:0|3:2,2:0:0:0:
283,299,8826,2,0,L|203:312,1,80.499997543335,0|0,2:0|3:2,2:0:0:0:
343,375,9201,1,8,2:0:0:0:
340,379,9295,1,8,2:0:0:0:
337,383,9389,5,0,3:2:0:0:
387,285,9576,2,0,P|377:242|344:213,1,80.499997543335,0|0,2:0|3:2,2:0:0:0:
278,135,9951,2,0,B|254:151|254:151|245:202,1,80.499997543335,0|0,2:0|3:2,2:0:0:0:
386,126,10326,2,0,B|376:74|376:74|353:58,1,80.499997543335,0|0,2:0|3:2,2:0:0:0:
264,74,10701,2,0,L|270:113,1,40.2499987716675,8|8,2:0|2:0,2:0:0:0:
336,216,10889,5,0,3:2:0:0:
248,282,11076,2,0,L|168:268,1,80.499997543335,0|0,2:0|3:2,2:0:0:0:
84,215,11451,2,0,P|68:252|70:292,1,80.499997543335,0|0,2:0|3:2,2:0:0:0:
140,357,11826,1,0,2:0:0:0:
171,175,12014,1,4,3:2:0:0:
259,282,12201,1,0,2:0:0:0:
263,287,12295,1,0,2:0:0:0:
267,292,12389,5,4,3:2:0:0:
347,372,12576,2,0,P|392:376|432:355,1,92,0|0,2:0|3:2,2:0:0:0:
483,256,12951,1,8,2:0:0:0:
479,251,13045,1,8,2:0:0:0:
475,246,13139,1,0,3:2:0:0:
374,273,13326,2,0,P|368:227|388:186,1,92,0|0,2:0|3:2,2:0:0:0:
512,150,13701,2,0,L|466:142,1,46,8|8,2:0|2:0,2:0:0:0:
335,120,13889,5,0,3:2:0:0:
416,40,14076,2,0,L|325:24,1,92,0|0,2:0|3:2,2:0:0:0:
236,81,14451,1,8,2:0:0:0:
232,86,14545,1,8,2:0:0:0:
228,91,14639,1,0,3:2:0:0:
258,196,14826,2,0,P|212:202|171:182,1,92,0|0,2:0|3:2,2:0:0:0:
108,95,15201,1,8,2:0:0:0:
112,71,15295,1,8,2:0:0:0:
116,47,15389,5,0,3:2:0:0:
0,104,15576,2,0,L|15:194,1,92,0|0,2:0|3:2,2:0:0:0:
114,308,15951,2,0,L|123:252,1,46,8|8,2:0|2:0,2:0:0:0:
157,159,16139,2,0,L|142:249,1,92,0|0,3:2|2:0,2:0:0:0:
172,384,16514,1,0,3:2:0:0:
33,359,16701,1,0,2:0:0:0:
249,331,16889,6,0,B|274:368|274:368|366:384,1,137.999995788574,6|0,3:2|2:0,2:0:0:0:
282,141,17264,2,0,B|319:115|319:115|410:131,1,137.999995788574,6|0,3:2|2:0,2:0:0:0:
409,310,17639,5,6,3:2:0:0:
425,216,17764,1,6,3:2:0:0:
498,277,17889,1,6,3:2:0:0:
275,238,18014,6,0,L|309:244,1,34.5,8|0,3:1|2:0,2:0:0:0:
315,261,18389,6,0,L|264:252,1,51.7499984207154,4|2,3:1|2:0,2:0:0:0:
181,384,18576,2,0,L|214:344,1,51.7499984207154,2|0,2:0|2:0,2:0:0:0:
136,191,18764,1,2,3:2:0:0:
138,198,18857,1,2,2:0:0:0:
141,206,18951,2,0,L|159:254,1,51.7499984207154,2|0,2:0|2:0,2:0:0:0:
0,253,19139,1,2,3:2:0:0:
2,246,19232,1,2,2:0:0:0:
5,238,19326,2,0,L|23:190,1,51.7499984207154,2|0,2:0|2:0,2:0:0:0:
21,68,19514,1,2,3:2:0:0:
29,59,19607,1,2,2:0:0:0:
39,54,19701,6,0,P|64:58|86:71,1,51.7499984207154,2|0,2:0|2:0,2:0:0:0:
232,94,19889,1,2,3:2:0:0:
221,88,19982,1,2,2:0:0:0:
210,87,20076,2,0,P|187:99|171:119,1,51.7499984207154,2|0,2:0|2:0,2:0:0:0:
341,158,20264,2,0,L|332:107,1,51.7499984207154,6|0,3:2|2:0,2:0:0:0:
325,103,20639,6,0,L|333:153,1,51.7499984207154,6|0,3:2|2:0,2:0:0:0:
450,211,20826,2,0,L|442:161,1,51.7499984207154,0|0,2:0|2:0,2:0:0:0:
279,331,21014,1,6,3:2:0:0:
275,334,21107,1,0,2:0:0:0:
271,337,21389,6,0,P|245:338|221:329,1,51.7499984207154,4|2,3:1|2:0,2:0:0:0:
468,299,21576,2,0,P|492:292|511:274,1,51.7499984207154,2|0,2:0|2:0,2:0:0:0:
341,165,21764,1,2,3:2:0:0:
342,173,21857,1,2,2:0:0:0:
343,181,21951,2,0,L|351:231,1,51.7499984207154,2|0,2:0|2:0,2:0:0:0:
377,384,22139,1,2,3:2:0:0:
376,376,22232,1,2,2:0:0:0:
375,368,22326,2,0,L|367:318,1,51.7499984207154,2|0,2:0|2:0,2:0:0:0:
217,221,22514,1,2,3:2:0:0:
211,219,22607,1,2,2:0:0:0:
205,217,22701,6,0,P|179:221|157:235,1,51.7499984207154,2|0,2:0|2:0,2:0:0:0:
83,336,22889,1,2,3:2:0:0:
77,338,22982,1,2,2:0:0:0:
71,340,23076,2,0,P|50:323|38:300,1,51.7499984207154,2|0,2:0|2:0,2:0:0:0:
51,138,23264,2,0,L|59:188,1,51.7499984207154,6|0,3:2|2:0,2:0:0:0:
51,200,23639,6,0,L|42:149,1,51.7499984207154,6|0,3:2|2:0,2:0:0:0:
93,0,23826,2,0,L|102:50,1,51.7499984207154,0|0,0:0|2:0,2:0:0:0:
251,121,24014,1,6,3:2:0:0:
266,118,24107,1,0,2:0:0:0:
281,115,24389,6,0,L|271:171,1,57.5,4|2,3:1|2:0,2:0:0:0:
452,234,24576,2,0,L|442:177,1,57.5,2|0,2:0|2:0,2:0:0:0:
407,0,24764,1,2,3:2:0:0:
405,15,24857,1,2,2:0:0:0:
402,31,24951,2,0,L|392:87,1,57.5,2|0,2:0|2:0,2:0:0:0:
357,284,25139,1,2,3:2:0:0:
355,269,25232,1,2,2:0:0:0:
352,253,25326,2,0,L|342:196,1,57.5,2|0,2:0|2:0,2:0:0:0:
241,45,25514,1,2,3:2:0:0:
224,42,25607,1,2,2:0:0:0:
207,46,25701,6,0,P|181:58|165:81,1,57.5,2|0,2:0|2:0,2:0:0:0:
131,207,25889,1,2,3:2:0:0:
113,210,25982,1,2,2:0:0:0:
96,206,26076,2,0,P|70:194|54:171,1,57.5,2|0,2:0|2:0,2:0:0:0:
265,272,26264,2,0,L|273:328,1,57.5,6|2,3:2|2:0,2:0:0:0:
240,144,26451,1,2,2:0:0:0:
174,330,26639,6,0,P|150:346|122:348,1,57.5,6|2,3:2|2:0,2:0:0:0:
368,296,26826,2,0,P|395:303|422:295,1,57.5,2|0,2:0|2:0,2:0:0:0:
239,135,27014,2,0,L|230:78,1,57.5,6|2,3:2|2:0,2:0:0:0:
265,272,27201,1,2,2:0:0:0:
268,299,27294,1,0,2:0:0:0:
272,328,27389,6,0,L|280:384,1,57.5,4|2,3:1|2:0,2:0:0:0:
374,196,27576,2,0,L|382:139,1,57.5,2|0,2:0|2:0,2:0:0:0:
497,272,27764,1,2,3:2:0:0:
500,300,27857,1,2,2:0:0:0:
504,328,27951,2,0,L|512:384,1,57.5,2|0,2:0|2:0,2:0:0:0:
469,88,28139,5,6,3:2:0:0:
450,66,28232,1,2,2:0:0:0:
426,49,28326,1,2,2:0:0:0:
399,41,28420,1,0,2:0:0:0:
370,40,28514,1,2,3:2:0:0:
343,47,28607,1,2,2:0:0:0:
317,62,28701,2,0,P|291:72|262:72,1,57.5,2|0,2:0|2:0,2:0:0:0:
101,98,28889,5,2,3:2:0:0:
172,168,29014,1,2,3:2:0:0:
189,51,29139,1,2,3:2:0:0:
57,189,29264,5,2,3:2:0:0:
99,90,29389,1,2,3:2:0:0:
0,84,29514,1,2,3:2:0:0:
171,161,29639,5,2,3:2:0:0:
98,82,29764,1,2,3:2:0:0:
55,182,29889,1,2,3:2:0:0:
83,0,30014,5,8,2:1:0:0:
240,272,30389,6,0,P|241:311|226:349,1,80.499997543335,4|0,3:2|2:0,2:0:0:0:
272,175,30764,2,0,P|307:194|332:225,1,80.499997543335,0|0,1:2|2:0,2:0:0:0:
320,346,31139,1,0,3:2:0:0:
240,272,31326,1,0,3:2:0:0:
433,303,31514,2,0,L|512:316,1,80.499997543335,0|0,1:2|2:0,2:0:0:0:
481,179,31889,6,0,B|362:158|362:158|398:137,1,160.99999508667,0|0,3:2|1:2,2:0:0:0:
512,54,32451,1,0,2:0:0:0:
325,75,32639,6,0,P|284:112|273:168,1,115,4|0,3:2|2:0,2:0:0:0:
364,158,32920,1,0,3:2:0:0:
329,48,33014,2,0,P|264:101|254:185,1,172.5,4|0,1:2|2:0,2:0:0:0:
412,292,33389,5,4,3:2:0:0:
313,382,33576,1,0,2:0:0:0:
320,383,33670,1,0,3:2:0:0:
328,384,33764,1,0,1:2:0:0:
331,242,33951,1,0,2:0:0:0:
323,241,34045,1,0,1:2:0:0:
316,240,34139,1,0,3:2:0:0:
186,384,34326,1,0,3:2:0:0:
70,307,34514,2,0,P|54:343|56:383,1,80.499997543335,0|0,1:2|2:0,2:0:0:0:
264,319,34889,5,0,3:2:0:0:
84,200,35076,1,0,2:0:0:0:
175,376,35264,1,0,1:2:0:0:
188,190,35451,1,0,2:0:0:0:
180,157,35545,1,0,2:0:0:0:
172,124,35639,5,4,3:2:0:0:
228,57,35764,5,0,2:0:0:0:
310,89,35889,5,0,2:0:0:0:
411,27,36014,5,4,1:2:0:0:
408,42,36107,1,0,2:0:0:0:
405,58,36201,1,0,2:0:0:0:
402,74,36295,1,0,2:0:0:0:
389,144,36389,6,0,L|372:240,1,97.7500018644333,4|0,3:2|2:0,2:0:0:0:
512,101,36764,2,0,L|529:6,1,97.7500018644333,0|0,1:2|2:0,2:0:0:0:
474,180,37139,1,0,3:2:0:0:
427,66,37326,1,0,3:2:0:0:
354,249,37514,2,0,L|371:153,1,97.7500018644333,0|0,1:2|2:0,2:0:0:0:
463,329,37889,5,0,3:2:0:0:
266,294,38076,1,0,2:0:0:0:
462,189,38264,1,0,1:2:0:0:
353,355,38451,1,0,2:0:0:0:
344,372,38545,1,0,2:0:0:0:
246,383,38639,6,0,P|178:318|202:227,1,198.375003783703,4|0,3:2|2:0,2:0:0:0:
334,187,39014,2,0,B|366:233|366:233|226:208,1,198.375003783703,4|0,1:2|2:0,2:0:0:0:
210,86,39389,5,4,3:2:0:0:
114,243,39576,1,0,2:0:0:0:
108,240,39670,1,0,3:2:0:0:
102,237,39764,2,0,L|118:140,1,97.7500018644333,0|0,1:2|2:0,2:0:0:0:
142,0,40139,1,0,3:2:0:0:
40,55,40326,1,0,3:2:0:0:
220,75,40514,2,0,P|243:117|236:164,1,97.7500018644333,0|0,1:2|2:0,2:0:0:0:
136,332,40889,6,0,P|38:313|3:220,1,206.999993682861,4|0,3:2|2:0,2:0:0:0:
211,280,41264,2,0,P|167:369|69:380,1,206.999993682861,4|0,1:2|2:0,2:0:0:0:
180,194,41639,2,0,P|254:258|240:357,1,206.999993682861,4|0,3:2|2:0,2:0:0:0:
87,201,42014,6,0,P|110:175|142:164,1,68.9999978942872,4|0,1:2|2:0,2:0:0:0:
345,201,42201,5,0,3:2:0:0:
340,185,42264,5,0,3:2:0:0:
336,169,42326,5,0,3:2:0:0:
310,145,42389,6,0,L|387:124,1,80.499997543335,4|0,3:2|2:0,2:0:0:0:
512,63,42764,2,0,L|434:42,1,80.499997543335,0|0,3:2|2:0,2:0:0:0:
334,15,43139,1,0,3:2:0:0:
480,149,43326,1,0,2:0:0:0:
487,154,43420,1,0,2:0:0:0:
494,159,43514,2,0,P|496:198|478:237,1,80.499997543335,0|0,3:2|2:0,2:0:0:0:
370,303,43795,1,0,2:0:0:0:
363,308,43889,6,0,P|360:347|377:384,1,80.499997543335,0|0,3:2|2:0,2:0:0:0:
459,332,44264,1,0,3:2:0:0:
389,212,44451,1,0,2:0:0:0:
261,318,44639,2,0,L|183:297,1,80.499997543335,0|0,3:2|2:0,2:0:0:0:
0,384,45014,2,0,L|77:363,1,80.499997543335,0|0,3:2|2:0,2:0:0:0:
255,307,45389,6,0,L|199:292,1,57.5,0|0,3:2|2:0,2:0:0:0:
151,218,45764,1,0,2:0:0:0:
80,270,45951,1,0,3:2:0:0:
15,213,46139,2,0,P|2:187|0:158,1,57.5,0|0,1:2|2:0,2:0:0:0:
88,128,46514,2,0,P|100:102|103:73,1,57.5,0|0,2:0|2:0,2:0:0:0:
52,0,46889,5,0,3:2:0:0:
155,0,47076,2,0,L|210:14,1,57.5,0|0,1:2|2:0,2:0:0:0:
251,113,47451,1,0,2:0:0:0:
346,22,47639,2,0,L|290:36,1,57.5,0|0,1:2|2:0,2:0:0:0:
167,84,48014,2,0,P|161:117|171:150,1,68.9999978942872,0|0,3:2|2:0,2:0:0:0:
406,217,48389,6,0,B|319:232|319:232|286:278|286:278|199:293,1,232.875000888348,2|0,1:2|2:0,2:0:0:0:
450,109,48764,2,0,P|521:194|485:300,1,232.875000888348,2|0,1:2|2:0,2:0:0:0:
246,384,49139,5,2,1:2:0:0:
348,89,49326,1,0,3:2:0:0:
395,357,49514,5,2,1:2:0:0:
198,116,49701,1,2,3:2:0:0:
423,212,49889,5,0,1:2:0:0:
177,185,50076,1,0,3:2:0:0:
190,108,50170,1,0,3:2:0:0:
204,29,50264,1,2,1:2:0:0:
296,228,50451,1,0,3:2:0:0:
309,305,50545,1,0,3:2:0:0:
323,384,50639,1,2,1:2:0:0:
63,265,50826,1,0,3:2:0:0:
76,188,50920,1,0,3:2:0:0:
90,109,51014,6,0,L|98:62,1,43.125,2|0,1:2|2:0,2:0:0:0:
46,0,51389,6,0,P|103:35|169:22,1,137.999995788574,0|0,3:2|2:0,2:0:0:0:
264,13,51951,1,0,3:2:0:0:
323,111,52139,2,0,P|331:158|309:115,1,137.999995788574,0|0,1:2|2:0,2:0:0:0:
278,22,52701,1,0,2:0:0:0:
403,65,52889,6,0,P|431:126|414:191,1,137.999995788574,0|0,3:2|2:0,2:0:0:0:
304,125,53451,1,0,3:2:0:0:
334,116,53545,1,0,3:2:0:0:
326,146,53639,1,0,1:2:0:0:
217,112,53826,2,0,P|222:180|270:228,1,137.999995788574,0|0,3:2|2:0,2:0:0:0:
380,305,54389,6,0,B|341:360|341:360|199:385,1,206.999993682861,0|0,3:2|2:0,2:0:0:0:
106,319,55139,2,0,L|173:307,1,68.9999978942872,0|0,1:2|2:0,2:0:0:0:
33,367,55514,2,0,P|20:335|21:300,1,68.9999978942872,0|0,3:2|2:0,2:0:0:0:
77,233,55889,2,0,P|97:168|76:103,1,137.999995788574,0|0,3:2|2:0,2:0:0:0:
0,47,56451,1,0,2:0:0:0:
157,0,56639,2,0,L|89:11,1,68.9999978942872,0|0,1:2|2:0,2:0:0:0:
185,94,57014,5,0,1:2:0:0:
255,81,57139,5,2,3:2:0:0:
273,55,57264,5,2,3:2:0:0:
281,54,57389,5,2,3:2:0:0:
469,304,59826,5,0,3:2:0:0:
466,319,59889,5,0,3:2:0:0:
463,335,59951,5,0,3:2:0:0:
473,372,60014,6,0,L|433:365,1,34.5,0|0,1:2|2:0,2:0:0:0:
332,318,60389,6,0,B|276:356|276:356|430:384,1,224.24998973465,4|0,1:2|2:0,2:0:0:0:
464,221,60764,2,0,B|314:194|314:194|255:236,1,224.24998973465,4|0,1:2|2:0,2:0:0:0:
75,256,61139,6,0,B|235:284|235:284|299:239,1,241.499992630005,4|0,1:2|2:0,2:0:0:0:
376,104,61514,2,0,B|293:89|293:89|229:126|229:126|143:111,1,241.499992630005,4|0,1:2|2:0,2:0:0:0:
31,13,61889,5,4,1:2:0:0:
300,239,62076,1,0,3:2:0:0:
1,186,62264,5,4,1:2:0:0:
331,65,62451,1,0,3:2:0:0:
151,213,62639,5,4,1:2:0:0:
181,38,62826,5,0,3:2:0:0:
183,28,62889,5,0,3:2:0:0:
185,18,62951,5,0,3:2:0:0:
215,9,63014,6,0,L|206:59,1,51.7499984207154,8|0,3:1|2:0,2:0:0:0:
127,112,63389,6,0,P|190:154|263:136,1,155.250000592232,4|0,3:1|2:0,2:0:0:0:
450,29,63764,2,0,B|475:66|475:66|455:184,1,155.250000592232,0|0,1:2|2:0,2:0:0:0:
275,258,64139,1,0,3:2:0:0:
312,45,64326,1,0,3:2:0:0:
512,219,64514,2,0,L|359:192,1,155.250000592232,0|0,1:2|2:0,2:0:0:0:
127,290,64889,6,0,B|201:310|201:310|265:265,1,155.250000592232,2|0,3:2|2:0,2:0:0:0:
156,49,65264,2,0,L|182:201,1,155.250000592232,0|0,1:2|2:0,2:0:0:0:
138,384,65639,1,0,2:0:0:0:
277,167,65826,1,0,3:2:0:0:
82,201,66014,1,0,1:2:0:0:
286,357,66201,1,0,2:0:0:0:
19,285,66389,6,0,P|-20:219|-5:145,1,155.250000592232,2|0,3:2|2:0,2:0:0:0:
125,86,66670,1,0,3:2:0:0:
62,11,66764,2,0,B|103:-18|103:-18|206:0,1,155.250000592232,0|0,1:2|2:0,2:0:0:0:
362,104,67045,1,0,1:2:0:0:
380,1,67139,1,0,3:2:0:0:
187,147,67326,1,0,3:2:0:0:
423,188,67514,2,0,P|462:123|448:49,1,155.250000592232,0|0,1:2|2:0,2:0:0:0:
360,358,67889,6,0,L|512:384,1,155.250000592232,2|0,3:2|2:0,2:0:0:0:
410,181,68264,2,0,B|307:163|307:163|266:192,1,155.250000592232,0|0,1:2|2:0,2:0:0:0:
87,348,68639,2,0,B|137:381|137:381|197:367,1,121.900000186005,4|0,3:2|2:0,2:0:0:0:
158,276,68920,1,0,3:2:0:0:
23,343,69014,2,0,B|85:353|85:353|136:387|136:387|195:373|195:373|259:384,1,250.125007633209,4|0,3:2|2:0,2:0:0:0:
325,260,69389,6,0,B|287:285|287:285|173:265,1,160.99999508667,4|0,3:1|2:0,2:0:0:0:
0,234,69764,1,0,1:2:0:0:
171,91,69951,1,0,2:0:0:0:
215,98,70045,1,0,2:0:0:0:
257,105,70139,1,0,3:2:0:0:
151,263,70326,1,0,3:2:0:0:
86,122,70514,1,0,1:2:0:0:
79,117,70607,1,0,2:0:0:0:
70,68,70701,1,0,2:0:0:0:
98,21,70795,1,0,2:0:0:0:
196,0,70889,6,0,L|354:27,1,160.99999508667,2|0,3:2|2:0,2:0:0:0:
484,227,71264,2,0,B|523:255|523:255|413:275,1,160.99999508667,0|0,1:2|2:0,2:0:0:0:
217,184,71639,1,0,2:0:0:0:
476,138,71826,1,0,3:2:0:0:
386,384,72014,1,0,1:2:0:0:
296,144,72201,5,0,2:0:0:0:
328,56,72295,1,0,2:0:0:0:
388,127,72389,1,4,3:2:0:0:
256,320,73889,5,4,3:1:0:0:
122,369,74076,2,0,P|184:374|240:347,1,126.500003860474,2|0,2:0|2:0,2:0:0:0:
21,260,74451,2,0,L|0:384,1,126.500003860474,2|0,2:0|1:2,2:0:0:0:
164,272,74826,2,0,L|143:148,1,126.500003860474,2|0,2:0|2:0,2:0:0:0:
17,81,75201,1,2,2:0:0:0:
238,41,75389,5,0,3:2:0:0:
96,32,75576,2,0,B|133:6|133:6|213:20,1,126.500003860474,2|0,2:0|2:0,2:0:0:0:
341,140,75951,2,0,B|327:60|327:60|353:23,1,126.500003860474,2|0,2:0|1:2,2:0:0:0:
500,72,76326,2,0,B|526:109|526:109|512:189,1,126.500003860474,2|0,2:0|2:0,2:0:0:0:
370,282,76701,1,2,2:0:0:0:
430,128,76889,5,0,3:2:0:0:
451,347,77076,2,0,P|405:381|349:384,1,115,2|0,2:0|2:0,2:0:0:0:
187,219,77451,2,0,B|256:200|256:200|293:221,1,115,2|0,2:0|1:2,2:0:0:0:
200,370,77826,2,0,B|130:388|130:388|93:367,1,115,2|0,2:0|2:0,2:0:0:0:
196,207,78201,2,0,B|265:188|265:188|302:209,1,115,2|2,2:0|3:2,2:0:0:0:
209,358,78576,2,0,B|139:376|139:376|102:355,1,115,2|0,2:0|2:0,2:0:0:0:
205,195,78951,5,2,2:0:0:0:
11,245,79139,1,2,1:2:0:0:
4,257,79326,1,2,2:0:0:0:
104,103,79514,1,0,1:2:0:0:
111,115,79701,1,0,2:0:0:0:
85,345,79889,5,4,3:1:0:0:
24,140,80076,2,0,B|7:79|7:79|52:34,1,126.500003860474,2|0,2:0|3:2,2:0:0:0:
301,168,80451,2,0,B|215:190|215:190|182:171,1,126.500003860474,2|2,2:0|1:2,2:0:0:0:
374,5,80826,2,0,B|340:-14|340:-14|255:8,1,126.500003860474,2|0,2:0|3:2,2:0:0:0:
492,174,81201,1,2,2:0:0:0:
492,0,81389,5,0,3:1:0:0:
313,89,81576,2,0,L|347:219,1,126.500003860474,2|0,2:0|3:2,2:0:0:0:
428,380,81951,2,0,P|489:385|539:349,1,126.500003860474,2|2,2:0|1:2,2:0:0:0:
304,275,82326,2,0,P|354:238|415:244,1,126.500003860474,2|0,2:0|2:0,2:0:0:0:
241,384,82701,1,2,3:2:0:0:
227,169,82889,5,2,3:2:0:0:
380,327,83076,2,0,B|354:364|354:364|235:384,1,126.500003860474,2|0,2:0|3:2,2:0:0:0:
37,382,83451,2,0,B|24:320|24:320|66:273,1,126.500003860474,2|2,2:0|1:2,2:0:0:0:
212,282,83826,2,0,B|253:234|253:234|240:172,1,126.500003860474,2|0,2:0|3:2,2:0:0:0:
29,375,84201,2,0,B|16:313|16:313|58:266,1,126.500003860474,2|2,2:0|3:2,2:0:0:0:
204,275,84576,2,0,B|245:227|245:227|232:165,1,126.500003860474,2|0,2:0|3:2,2:0:0:0:
21,368,84951,2,0,B|8:306|8:306|50:259,1,126.500003860474,2|2,2:0|1:2,2:0:0:0:
196,268,85326,2,0,B|237:220|237:220|224:158,1,126.500003860474,2|0,2:0|3:2,2:0:0:0:
0,169,85701,1,2,2:0:0:0:
249,10,85889,5,0,3:2:0:0:
237,0,86826,1,4,3:2:0:0:
213,146,87014,1,4,3:2:0:0:
74,15,87201,1,4,3:2:0:0:
67,10,87576,1,0,3:2:0:0:
60,5,87951,1,0,3:2:0:0:
53,0,88326,2,0,L|43:56,1,57.5,4|0,3:2|2:0,2:0:0:0:
24,192,88889,5,4,3:2:0:0:
35,203,89639,5,0,3:2:0:0:
244,129,89826,1,0,3:2:0:0:
237,119,90389,5,0,3:2:0:0:
446,193,90576,1,0,3:2:0:0:
463,178,91139,6,0,P|486:114|462:51,1,138,4|0,3:2|2:0,2:0:0:0:
276,44,91514,2,0,P|319:95|385:107,1,138,4|0,3:2|2:0,2:0:0:0:
375,12,91889,5,4,3:2:0:0:
262,195,92076,1,0,3:2:0:0:
268,188,92264,1,0,2:0:0:0:
274,181,92639,5,0,3:2:0:0:
387,364,92826,1,0,3:2:0:0:
381,372,93014,1,0,2:0:0:0:
375,380,93389,5,0,3:2:0:0:
488,197,93576,1,0,3:2:0:0:
482,189,93764,1,0,2:0:0:0:
476,181,94139,5,4,3:2:0:0:
433,267,94264,5,0,2:0:0:0:
341,235,94389,5,0,2:0:0:0:
274,329,94514,5,4,3:2:0:0:
258,326,94607,1,0,2:0:0:0:
242,323,94701,1,0,2:0:0:0:
226,320,94795,1,0,2:0:0:0:
190,263,94889,6,0,L|93:246,1,97.7500018644333,0|0,3:2|2:0,2:0:0:0:
294,136,95264,2,0,L|390:152,1,97.7500018644333,0|0,1:2|2:0,2:0:0:0:
245,16,95639,1,0,3:2:0:0:
172,148,95826,1,0,3:2:0:0:
400,143,96014,2,0,L|303:126,1,97.7500018644333,0|0,1:2|2:0,2:0:0:0:
148,46,96389,5,0,3:2:0:0:
273,217,96576,1,0,2:0:0:0:
252,12,96764,1,0,1:2:0:0:
85,132,96951,1,0,2:0:0:0:
74,123,97045,1,0,2:0:0:0:
29,52,97139,6,0,P|-7:137|58:204,1,198.375003783703,4|0,3:2|2:0,2:0:0:0:
184,139,97514,2,0,B|160:272|160:272|109:308,1,198.375003783703,4|0,3:2|2:0,2:0:0:0:
0,299,97889,5,4,3:2:0:0:
186,359,98076,1,0,2:0:0:0:
192,356,98170,1,0,3:2:0:0:
198,353,98264,2,0,B|239:323|239:323|247:277,1,97.7500018644333,0|0,1:2|2:0,2:0:0:0:
265,153,98639,1,0,3:2:0:0:
347,290,98826,1,0,3:2:0:0:
148,254,99014,2,0,L|164:157,1,97.7500018644333,0|0,1:2|2:0,2:0:0:0:
385,154,99389,6,0,P|343:58|242:32,1,215.625,4|0,3:2|2:0,2:0:0:0:
369,246,99764,2,0,P|429:161|401:60,1,215.625,4|0,3:2|2:0,2:0:0:0:
280,277,100139,2,0,P|383:287|456:212,1,215.625,4|0,3:2|2:0,2:0:0:0:
229,364,100514,6,0,B|178:369|141:338|141:338|97:295|133:232|207:251|209:326|141:338|141:338|84:346|51:307,1,388.125014805794,4|0,1:2|2:0,2:0:0:0:
26,219,100889,6,0,P|49:182|85:161,1,86.2500032901765,4|0,3:2|2:0,2:0:0:0:
174,119,101264,1,0,3:2:0:0:
232,214,101451,1,0,2:0:0:0:
241,42,101639,1,0,3:2:0:0:
307,119,101826,1,0,2:0:0:0:
304,134,101920,1,0,3:2:0:0:
360,180,102014,6,0,P|399:197|441:194,1,86.2500032901765,0|0,1:2|3:2,2:0:0:0:
499,125,102295,1,0,2:0:0:0:
512,110,102389,2,0,L|526:195,1,86.2500032901765,0|0,3:2|2:0,2:0:0:0:
383,281,102764,1,0,3:2:0:0:
417,109,102951,1,0,2:0:0:0:
498,300,103139,2,0,L|512:384,1,86.2500032901765,0|0,3:2|2:0,2:0:0:0:
375,267,103420,1,0,3:2:0:0:
304,300,103514,2,0,L|289:384,1,86.2500032901765,0|0,1:2|3:2,2:0:0:0:
246,171,103889,6,0,L|240:139,5,31.6250009651184,0|0|0|0|8|0,3:2|2:0|2:0|2:0|2:0|2:0,2:0:0:0:
186,31,104451,2,0,L|191:0,1,31.6250009651184,0|0,3:2|2:0,2:0:0:0:
101,118,104639,2,0,L|106:149,5,31.6250009651184,0|0|0|0|8|0,3:2|2:0|2:0|2:0|2:0|2:0,2:0:0:0:
37,242,105201,1,0,3:2:0:0:
34,246,105295,1,0,3:2:0:0:
31,250,105389,6,0,L|-7:242,3,31.6250009651184,0|0|2|0,3:2|2:0|2:0|2:0,2:0:0:0:
74,359,105764,2,0,L|105:355,3,31.6250009651184,8|0|0|0,3:2|2:0|2:0|2:0,2:0:0:0:
164,248,106139,2,0,L|195:253,1,31.6250009651184,0|0,3:2|2:0,2:0:0:0:
246,371,106326,2,0,L|277:367,1,31.6250009651184,0|0,3:2|2:0,2:0:0:0:
341,270,106514,1,8,3:2:0:0:
361,273,106607,1,0,2:0:0:0:
383,276,106701,1,0,3:2:0:0:
405,280,106795,1,0,2:0:0:0:
432,384,106889,6,0,P|508:297|463:192,1,241.499992630005,2|0,1:2|2:0,2:0:0:0:
275,96,107264,2,0,B|361:111|361:111|431:83|431:83|508:96,1,241.499992630005,2|0,1:2|2:0,2:0:0:0:
427,284,107639,5,2,1:2:0:0:
330,0,107826,1,0,3:2:0:0:
276,256,108014,5,2,1:2:0:0:
464,23,108201,1,2,3:2:0:0:
178,0,108389,5,2,3:2:0:0:
95,67,108514,1,2,3:2:0:0:
114,172,108639,1,2,3:2:0:0:
13,135,108764,5,2,3:2:0:0:
29,240,108889,1,2,3:2:0:0:
129,276,109014,1,2,3:2:0:0:
47,345,109139,5,2,3:2:0:0:
146,384,109264,1,2,3:2:0:0:
227,315,109389,1,2,3:2:0:0:
122,163,109514,5,0,1:2:0:0:
133,264,109889,5,0,3:2:0:0:
38,272,110076,2,0,P|25:304|26:339,1,68.9999978942872,2|0,2:0|2:0,2:0:0:0:
134,379,110451,1,0,3:2:0:0:
216,308,110639,2,0,B|307:291|307:291|344:317,1,137.999995788574,0|0,1:2|2:0,2:0:0:0:
422,384,111201,1,2,2:0:0:0:
512,307,111389,5,0,3:2:0:0:
405,230,111576,2,0,L|416:162,1,68.9999978942872,2|0,2:0|2:0,2:0:0:0:
479,77,111951,1,0,3:2:0:0:
509,71,112045,1,0,3:2:0:0:
499,99,112139,1,0,1:2:0:0:
361,74,112326,1,0,3:2:0:0:
345,71,112420,5,2,2:0:0:0:
256,55,112607,1,2,2:0:0:0:
167,39,112795,1,2,2:0:0:0:
157,24,112889,6,0,B|148:74|148:74|158:108|158:108|149:158,1,137.999995788574,0|0,3:2|2:0,2:0:0:0:
47,115,113451,1,2,2:0:0:0:
97,252,113639,2,0,P|129:266|163:264,1,68.9999978942872,0|0,1:2|2:0,2:0:0:0:
254,198,114014,1,0,3:2:0:0:
272,309,114201,1,2,2:0:0:0:
270,318,114295,1,2,2:0:0:0:
268,328,114389,5,0,3:2:0:0:
356,233,114576,2,0,L|367:165,1,68.9999978942872,2|0,2:0|2:0,2:0:0:0:
286,97,114951,1,0,2:0:0:0:
479,120,115139,1,0,1:2:0:0:
473,153,115232,1,2,2:0:0:0:
467,186,115326,1,2,2:0:0:0:
461,220,115420,1,2,2:0:0:0:
455,253,115514,5,4,1:2:0:0:
486,328,115639,5,4,3:2:0:0:
475,365,115764,5,4,3:2:0:0:
482,383,115889,5,4,3:2:0:0:
362,318,116264,5,2,2:0:0:0:
348,319,116639,1,2,2:0:0:0:
334,320,117014,1,2,2:0:0:0:
320,321,117389,1,2,2:0:0:0:
306,322,117764,1,2,2:0:0:0:
292,323,118139,1,2,2:0:0:0:
195,358,118326,5,0,3:2:0:0:
192,370,118389,5,0,3:2:0:0:
190,383,118451,5,0,3:2:0:0:
166,384,118514,6,0,L|171:350,1,34.5,0|0,1:2|2:0,2:0:0:0:
32,341,118889,6,0,B|64:387|64:387|95:213,1,232.875000888348,2|0,1:2|2:0,2:0:0:0:
84,22,119264,2,0,B|28:60|28:60|0:223,1,232.875000888348,2|0,1:2|2:0,2:0:0:0:
183,265,119639,6,0,B|264:279|264:279|337:235|337:235|421:250,1,250.125007633209,2|0,1:2|2:0,2:0:0:0:
468,93,120014,2,0,B|294:62|294:62|233:104,1,250.125007633209,2|0,1:2|2:0,2:0:0:0:
100,195,120389,5,2,1:2:0:0:
382,384,120576,1,0,3:2:0:0:
106,336,120764,5,0,1:2:0:0:
435,254,120951,1,0,3:2:0:0:
239,384,121139,5,0,1:2:0:0:
268,225,121326,5,0,3:2:0:0:
270,213,121388,5,0,3:2:0:0:
272,201,121451,5,0,3:2:0:0:
254,176,121514,6,0,L|247:215,1,34.5,0|0,1:2|2:0,2:0:0:0:
151,126,121889,5,4,3:2:0:0:
179,90,121982,1,0,2:0:0:0:
218,66,122076,1,0,2:0:0:0:
264,60,122170,1,0,2:0:0:0:
307,72,122264,1,2,2:0:0:0:
343,100,122357,1,0,2:0:0:0:
365,141,122451,2,0,P|375:167|376:195,1,57.5,0|0,2:0|2:0,2:0:0:0:
474,384,122639,5,0,1:2:0:0:
449,345,122732,1,0,2:0:0:0:
450,300,122826,1,0,2:0:0:0:
476,263,122920,1,0,2:0:0:0:
504,225,123013,1,2,2:0:0:0:
505,180,123107,1,0,2:0:0:0:
496,134,123201,2,0,P|485:108|464:89,1,57.5,0|0,2:0|2:0,2:0:0:0:
167,238,123389,5,0,3:2:0:0:
121,231,123482,1,0,2:0:0:0:
80,209,123576,1,0,2:0:0:0:
53,172,123670,1,0,2:0:0:0:
41,128,123764,1,2,2:0:0:0:
48,83,123857,1,0,2:0:0:0:
72,45,123951,2,0,P|89:22|113:7,1,57.5,0|0,2:0|2:0,2:0:0:0:
351,148,124139,5,0,1:2:0:0:
343,192,124232,1,0,2:0:0:0:
335,237,124326,1,0,2:0:0:0:
327,282,124420,1,0,2:0:0:0:
319,328,124514,2,0,L|307:391,1,57.5,2|0,2:0|2:0,2:0:0:0:
151,126,124701,2,0,L|160:69,1,57.5,0|0,3:2|2:0,2:0:0:0:
133,329,124889,5,0,3:2:0:0:
110,368,124982,1,0,2:0:0:0:
66,384,125076,1,0,2:0:0:0:
23,368,125170,1,0,2:0:0:0:
0,329,125264,1,2,2:0:0:0:
8,283,125357,1,0,2:0:0:0:
43,253,125451,2,0,P|70:248|98:255,1,57.5,0|0,2:0|2:0,2:0:0:0:
370,358,125639,5,0,1:2:0:0:
377,312,125732,1,0,2:0:0:0:
386,266,125826,2,0,L|398:195,1,57.5,0|0,2:0|2:0,2:0:0:0:
303,124,126014,2,0,L|349:68,1,57.5,2|0,2:0|2:0,2:0:0:0:
512,161,126201,2,0,L|487:93,1,57.5,0|0,2:0|2:0,2:0:0:0:
263,239,126389,5,0,3:2:0:0:
217,228,126482,1,0,2:0:0:0:
186,195,126576,1,0,2:0:0:0:
178,151,126670,1,0,2:0:0:0:
171,104,126763,1,2,2:0:0:0:
139,72,126857,1,0,2:0:0:0:
94,63,126951,2,0,P|66:66|42:82,1,57.5,0|0,2:0|2:0,2:0:0:0:
241,337,127139,6,0,P|353:314|381:203,1,241.499992630005,6|0,3:2|2:0,2:0:0:0:
223,44,127514,2,0,P|186:152|268:232,1,241.499992630005,6|0,3:2|2:0,2:0:0:0:
491,187,127889,5,4,3:2:0:0:
448,120,127982,1,0,2:0:0:0:
375,90,128076,2,0,P|336:90|304:110,1,77.6250002961159,0|0,2:0|2:0,2:0:0:0:
142,0,128264,1,2,3:2:0:0:
69,24,128357,1,0,2:0:0:0:
51,99,128451,2,0,P|49:136|66:171,1,77.6250002961159,0|0,2:0|2:0,2:0:0:0:
175,304,128639,2,0,P|177:267|160:232,1,77.6250002961159,2|0,1:2|2:0,2:0:0:0:
226,140,128826,2,0,P|194:119|156:116,1,77.6250002961159,0|0,2:0|2:0,2:0:0:0:
0,263,129014,2,0,P|31:283|69:286,1,77.6250002961159,2|0,3:2|2:0,2:0:0:0:
198,384,129201,2,0,L|272:363,1,77.6250002961159,0|0,2:0|2:0,2:0:0:0:
311,123,129389,5,2,3:2:0:0:
364,66,129482,1,0,2:0:0:0:
443,71,129576,2,0,P|478:84|503:114,1,77.6250002961159,0|0,2:0|2:0,2:0:0:0:
512,298,129764,1,2,3:2:0:0:
482,368,129857,1,0,2:0:0:0:
405,384,129951,2,0,P|366:375|340:348,1,77.6250002961159,0|0,2:0|2:0,2:0:0:0:
251,201,130139,2,0,P|289:209|315:236,1,77.6250002961159,2|0,1:2|2:0,2:0:0:0:
418,204,130326,2,0,P|428:240|419:277,1,77.6250002961159,0|0,2:0|2:0,2:0:0:0:
238,381,130514,2,0,P|226:343|235:306,1,77.6250002961159,2|0,3:2|2:0,2:0:0:0:
218,109,130701,5,0,2:0:0:0:
146,47,130795,1,0,2:0:0:0:
129,140,130889,1,4,3:2:0:0:
0,384,132389,6,0,L|9:327,1,57.5,0|0,3:2|2:0,2:0:0:0:
26,241,132951,1,0,3:2:0:0:
28,225,133045,1,0,3:2:0:0:
92,160,133139,5,4,1:0:0:0:
134,333,133326,2,0,B|159:370|159:370|239:384,1,126.500003860474,2|0,2:0|2:0,2:0:0:0:
333,201,133701,1,2,2:0:0:0:
172,233,133889,1,0,3:2:0:0:
393,272,134076,2,0,P|424:216|411:153,1,126.500003860474,2|0,2:0|2:0,2:0:0:0:
197,91,134451,2,0,L|175:215,1,126.500003860474,2|0,2:0|1:2,2:0:0:0:
329,362,134826,1,2,2:0:0:0:
355,376,134920,1,2,2:0:0:0:
386,384,135014,1,2,2:0:0:0:
417,382,135107,1,2,2:0:0:0:
448,372,135201,1,2,2:0:0:0:
475,355,135295,1,0,2:0:0:0:
491,331,135389,5,0,3:2:0:0:
329,194,135576,2,0,P|320:138|347:88,1,115,2|0,2:0|2:0,2:0:0:0:
512,43,135951,2,0,B|433:29|433:29|413:0,1,115,2|2,2:0|1:2,2:0:0:0:
244,33,136326,2,0,B|322:46|322:46|342:75,1,115,2|0,2:0|2:0,2:0:0:0:
506,51,136701,2,0,B|427:37|427:37|407:8,1,115,2|2,2:0|3:2,2:0:0:0:
238,41,137076,2,0,B|316:54|316:54|336:83,1,115,2|0,2:0|2:0,2:0:0:0:
417,235,137451,5,2,2:0:0:0:
185,198,137639,1,2,1:2:0:0:
192,211,137826,1,2,2:0:0:0:
305,296,138014,1,0,1:2:0:0:
298,309,138201,1,2,2:0:0:0:
65,239,138389,5,4,3:1:0:0:
76,384,138576,2,0,L|53:253,1,132.250002522469,2|0,2:0|3:2,2:0:0:0:
66,42,138951,2,0,P|124:12|188:20,1,132.250002522469,2|2,2:0|1:2,2:0:0:0:
321,202,139326,2,0,P|262:231|198:223,1,132.250002522469,2|0,2:0|3:2,2:0:0:0:
37,150,139701,1,2,2:0:0:0:
244,120,139889,5,2,3:2:0:0:
241,130,139982,1,0,2:0:0:0:
399,143,140170,1,0,2:0:0:0:
335,10,140357,1,0,2:0:0:0:
332,0,140451,1,2,2:0:0:0:
512,202,140639,6,0,B|527:116|527:116|502:80,1,132.250002522469,2|2,1:2|2:0,2:0:0:0:
405,137,140920,2,0,L|382:267,1,132.250002522469,0|0,3:2|2:0,2:0:0:0:
360,380,141201,1,2,3:2:0:0:
508,222,141389,5,2,3:2:0:0:
296,312,141576,2,0,B|270:275|270:275|285:189,1,132.250002522469,2|0,2:0|3:2,2:0:0:0:
256,10,141951,2,0,P|320:1|378:30,1,132.250002522469,2|0,2:0|1:2,2:0:0:0:
177,174,142326,1,2,2:0:0:0:
77,13,142514,1,0,3:2:0:0:
22,214,142701,6,0,L|44:344,1,132.250002522469,2|2,2:0|3:2,2:0:0:0:
186,163,143076,2,0,L|163:32,1,132.250002522469,2|0,2:0|3:2,2:0:0:0:
31,206,143451,2,0,L|53:336,1,132.250002522469,2|2,2:0|1:2,2:0:0:0:
195,155,143826,2,0,L|172:24,1,132.250002522469,2|0,2:0|3:2,2:0:0:0:
0,51,144201,1,2,2:0:0:0:
135,268,144389,5,0,3:2:0:0:
142,279,145139,1,0,1:2:0:0:
317,213,145326,5,0,3:2:0:0:
196,158,145514,1,0,3:2:0:0:
262,333,145701,1,4,3:2:0:0:
265,342,146076,1,0,3:2:0:0:
267,350,146451,1,4,3:2:0:0:
229,245,146639,1,0,1:0:0:0:
269,358,146826,6,0,L|279:384,1,28.75,4|0,3:2|2:0,2:0:0:0:
361,306,147389,5,4,3:2:0:0:
454,384,147576,2,0,L|460:344,1,40.2499987716675,0|0,2:0|2:0,2:0:0:0:
501,236,147764,1,0,3:2:0:0:
512,210,147857,2,0,L|505:170,2,40.2499987716675,0|0|2,3:2|2:0|2:0,2:0:0:0:
385,152,148139,1,0,3:2:0:0:
389,124,148232,1,0,3:2:0:0:
394,95,148326,1,0,3:2:0:0:
399,67,148420,1,0,3:2:0:0:
404,38,148514,1,0,3:2:0:0:
264,23,148701,5,0,3:2:0:0:
263,16,148763,5,0,2:0:0:0:
262,9,148826,5,0,2:0:0:0:
235,0,148889,6,0,L|241:39,1,40.2499987716675,0|0,1:2|2:0,2:0:0:0:
277,154,149076,1,2,2:0:0:0:
249,163,149170,1,2,2:0:0:0:
276,188,149264,1,2,2:0:0:0:
247,182,149358,1,2,2:0:0:0:
258,217,149451,1,0,2:0:0:0:
235,197,149545,1,2,2:0:0:0:
227,232,149639,1,2,2:0:0:0:
163,198,149732,5,0,3:2:0:0:
136,207,149826,1,0,3:2:0:0:
0,182,150014,1,0,3:2:0:0:
47,313,150201,2,0,L|53:274,1,40.2499987716675,0|0,3:2|2:0,2:0:0:0:
205,100,150389,5,0,1:2:0:0:
79,92,150576,2,0,L|85:131,1,40.2499987716675,0|0,2:0|2:0,2:0:0:0:
193,280,150764,1,0,3:2:0:0:
161,303,150857,2,0,L|154:342,2,40.2499987716675,0|2|2,3:2|2:0|2:0,2:0:0:0:
291,320,151139,1,0,3:2:0:0:
294,359,151232,2,0,L|324:384,2,40.2499987716675,0|2|2,3:2|2:0|2:0,2:0:0:0:
374,255,151514,1,0,3:2:0:0:
409,272,151607,2,0,L|446:258,2,40.2499987716675,0|2|2,3:2|2:0|2:0,2:0:0:0:
475,126,151889,6,0,L|512:139,1,40.2499987716675,2|0,1:2|2:0,2:0:0:0:
360,22,152076,2,0,L|397:8,1,40.2499987716675,0|0,3:2|2:0,2:0:0:0:
310,152,152264,2,0,L|347:165,1,40.2499987716675,0|0,3:2|2:0,2:0:0:0:
195,48,152451,2,0,L|232:34,1,40.2499987716675,0|0,3:2|2:0,2:0:0:0:
144,178,152639,6,0,L|163:184,1,20.1249993858338,0|0,2:0|2:0,2:0:0:0:
143,202,152732,2,0,L|162:198,1,20.1249993858338,0|0,2:0|2:0,2:0:0:0:
153,223,152826,2,0,L|168:210,1,20.1249993858338,0|0,2:0|0:2,2:0:0:0:
172,236,152920,5,0,3:0:0:0:
290,264,153107,1,0,3:0:0:0:
310,381,153295,1,0,3:0:0:0:
302,384,153389,6,0,L|285:381,1,17.25,0|0,1:2|2:0,2:0:0:0:
190,326,153764,5,0,3:2:0:0:
78,384,153951,2,0,L|71:344,1,40.2499987716675,0|0,1:2|2:0,2:0:0:0:
0,247,154139,5,0,3:2:0:0:
1,241,154201,1,0,3:2:0:0:
2,235,154264,1,0,3:2:0:0:
3,229,154326,1,0,3:2:0:0:
4,223,154389,1,0,3:2:0:0:
5,217,154451,1,0,3:2:0:0:
6,211,154514,1,0,3:2:0:0:
7,205,154576,1,0,3:2:0:0:
8,199,154639,1,0,3:2:0:0:
9,193,154701,1,0,3:2:0:0:
10,187,154764,1,0,3:2:0:0:
11,182,154826,1,0,3:2:0:0:
12,176,154889,6,0,L|18:136,3,40.2499987716675,0|0|0|0,1:2|2:0|2:0|2:0,2:0:0:0:
79,47,155264,2,0,L|118:40,2,40.2499987716675,0|0|0,3:2|2:0|2:0,2:0:0:0:
156,157,155545,2,0,L|130:126,2,40.2499987716675,0|0|0,3:2|2:0|2:0,2:0:0:0:
213,36,155826,2,0,L|199:73,1,40.2499987716675,0|0,3:2|2:0,2:0:0:0:
237,234,156014,1,0,3:2:0:0:
246,207,156107,1,0,3:2:0:0:
256,180,156201,2,0,L|269:142,1,40.2499987716675,0|0,3:2|2:0,2:0:0:0:
367,37,156389,6,0,L|353:0,1,40.2499987716675,0|2,1:2|2:0,2:0:0:0:
490,93,156576,2,0,L|503:55,1,40.2499987716675,0|2,3:2|2:0,2:0:0:0:
376,175,156764,2,0,L|362:137,1,40.2499987716675,0|2,3:2|2:0,2:0:0:0:
512,221,156951,1,0,3:2:0:0:
503,248,157044,1,2,2:0:0:0:
493,275,157138,2,0,L|479:312,1,40.2499987716675,0|2,3:2|2:0,2:0:0:0:
344,293,157326,1,0,3:2:0:0:
353,320,157419,1,0,3:2:0:0:
363,347,157513,2,0,L|376:384,1,40.2499987716675,0|2,3:2|2:0,2:0:0:0:
219,328,157701,2,0,L|222:308,1,20.1249993858338,2|0,2:0|3:2,2:0:0:0:
199,336,157795,2,0,L|202:316,1,20.1249993858338,0|0,3:2|3:2,2:0:0:0:
177,343,157889,6,0,B|202:201|202:201|250:175,1,198.375003783703,6|0,1:2|2:0,2:0:0:0:
141,352,158264,2,0,B|166:210|166:210|214:184,1,198.375003783703,6|0,1:2|2:0,2:0:0:0:
105,361,158639,2,0,B|130:219|130:219|178:193,1,198.375003783703,6|0,1:2|2:0,2:0:0:0:
69,370,159014,2,0,B|94:228|94:228|142:202,1,198.375003783703,6|0,1:2|2:0,2:0:0:0:
340,274,159389,6,0,B|367:293|367:293|441:280,1,109.24999708271,0|0,3:2|2:0,2:0:0:0:
272,194,159764,1,2,2:0:0:0:
303,370,159951,1,0,2:0:0:0:
405,167,160139,2,0,L|386:59,1,109.24999708271,0|0,3:2|2:0,2:0:0:0:
147,107,160514,2,0,L|165:0,1,109.24999708271,2|0,2:0|2:0,2:0:0:0:
281,180,160889,5,0,3:2:0:0:
60,218,161076,1,0,2:0:0:0:
57,222,161170,1,0,2:0:0:0:
54,226,161264,2,0,L|63:170,1,54.6249985413552,2|0,2:0|2:0,2:0:0:0:
0,34,161451,2,0,L|9:89,1,54.6249985413552,0|0,2:0|2:0,2:0:0:0:
163,182,161639,1,0,3:2:0:0:
166,186,161732,1,0,2:0:0:0:
163,271,161826,6,0,L|153:324,1,54.6249985413552,0|0,1:2|2:0,2:0:0:0:
229,97,162014,2,0,L|219:44,1,54.6249985413552,0|0,3:2|2:0,2:0:0:0:
282,331,162201,2,0,L|272:384,1,54.6249985413552,0|0,1:2|2:0,2:0:0:0:
371,107,162389,6,0,L|352:0,1,109.24999708271,0|0,3:2|2:0,2:0:0:0:
472,193,162764,1,2,2:0:0:0:
275,158,162951,1,0,2:0:0:0:
466,63,163139,2,0,L|484:170,1,109.24999708271,0|0,3:2|2:0,2:0:0:0:
416,321,163514,2,0,B|388:301|388:301|375:227,1,109.24999708271,2|0,2:0|2:0,2:0:0:0:
266,145,163889,5,0,3:2:0:0:
293,325,164076,1,0,2:0:0:0:
296,329,164170,1,0,2:0:0:0:
299,333,164264,2,0,L|243:342,1,54.6249985413552,2|0,2:0|2:0,2:0:0:0:
97,375,164451,2,0,L|150:384,1,54.6249985413552,0|0,2:0|2:0,2:0:0:0:
177,209,164639,1,0,3:2:0:0:
423,326,164826,6,0,L|433:380,1,54.6249985413552,0|0,1:2|2:0,2:0:0:0:
361,96,165014,6,0,L|368:55,1,34.5,0|0,1:2|2:0,2:0:0:0:
432,19,165389,6,0,P|373:26|320:0,1,120.749996315003,4|0,3:2|2:0,2:0:0:0:
180,69,165670,1,0,2:0:0:0:
203,59,165764,2,0,L|213:0,1,60.3749981575013,2|0,2:0|2:0,2:0:0:0:
48,85,165951,2,0,L|37:25,1,60.3749981575013,0|0,2:0|2:0,2:0:0:0:
128,192,166139,1,0,3:2:0:0:
143,209,166233,2,0,L|122:327,1,120.749996315003,0|0,2:0|2:0,2:0:0:0:
18,384,166514,2,0,B|64:351|64:351|187:373,1,181.124994472504,2|0,2:0|2:0,2:0:0:0:
317,348,166889,6,0,B|395:361|395:361|429:338,1,120.749996315003,0|0,3:2|2:0,2:0:0:0:
239,184,167170,1,0,2:0:0:0:
220,191,167264,2,0,L|209:250,1,60.3749981575013,2|0,2:0|2:0,2:0:0:0:
360,184,167451,2,0,L|370:243,1,60.3749981575013,0|0,2:0|2:0,2:0:0:0:
277,54,167639,1,0,3:2:0:0:
281,30,167732,1,0,2:0:0:0:
367,14,167826,6,0,L|377:73,1,60.3749981575013,0|0,1:2|2:0,2:0:0:0:
465,202,168014,1,2,3:2:0:0:
512,50,168201,1,2,2:0:0:0:
507,25,168295,1,2,2:0:0:0:
479,0,168389,6,0,L|499:118,1,120.749996315003,0|0,3:2|2:0,2:0:0:0:
458,218,168670,1,0,2:0:0:0:
451,234,168764,2,0,L|464:312,1,60.3749981575013,2|0,2:0|2:0,2:0:0:0:
273,293,168951,1,0,2:0:0:0:
266,309,169045,1,2,2:0:0:0:
259,325,169139,2,0,L|272:403,1,60.3749981575013,0|0,3:2|2:0,2:0:0:0:
129,156,169326,1,0,2:0:0:0:
78,325,169514,2,0,L|87:384,1,60.3749981575013,2|0,2:0|2:0,2:0:0:0:
243,196,169701,1,0,2:0:0:0:
252,219,169795,1,2,2:0:0:0:
353,195,169889,6,0,P|359:116|339:192,1,232.875000888348,4|0,1:2|2:0,2:0:0:0:
465,99,170264,2,0,P|364:32|255:81,1,250.125007633209,4|0,1:2|2:0,2:0:0:0:
142,148,170639,6,0,P|109:76|153:141,1,232.875000888348,4|0,1:2|2:0,2:0:0:0:
0,95,171014,2,0,P|71:-1|191:6,1,250.125007633209,4|0,1:2|2:0,2:0:0:0:
237,165,171389,6,0,L|220:261,1,97.7500018644333,4|0,3:2|2:0,2:0:0:0:
80,237,171764,1,0,1:2:0:0:
251,177,171951,2,0,L|234:273,1,97.7500018644333,0|0,2:0|3:2,2:0:0:0:
115,321,172326,1,0,3:2:0:0:
141,171,172514,1,0,1:2:0:0:
210,360,172701,6,0,B|237:379|237:379|300:368,1,97.7500018644333,4|0,3:2|2:0,2:0:0:0:
483,219,173076,1,0,3:2:0:0:
512,384,173264,1,0,1:2:0:0:
361,236,173451,1,0,1:2:0:0:
358,232,173545,1,0,1:2:0:0:
355,228,173639,1,0,3:2:0:0:
387,384,173827,1,0,3:2:0:0:
491,209,174014,2,0,L|471:113,1,97.7500018644333,0|0,1:2|2:0,2:0:0:0:
263,165,174389,6,0,L|279:68,1,97.7500018644333,4|0,3:2|2:0,2:0:0:0:
406,52,174764,1,0,1:2:0:0:
245,154,174951,2,0,L|261:57,1,97.7500018644333,0|0,2:0|3:2,2:0:0:0:
366,207,175326,1,0,2:0:0:0:
369,211,175420,1,0,3:2:0:0:
372,215,175514,1,0,1:2:0:0:
394,42,175701,1,0,3:2:0:0:
262,251,175889,6,0,B|191:238|191:238|163:209|163:209|95:197,1,181.124994472504,4|0,3:2|2:0,2:0:0:0:
56,113,176264,1,0,1:2:0:0:
246,146,176451,1,0,2:0:0:0:
52,382,176639,5,4,3:2:0:0:
85,192,176826,2,0,L|72:262,1,60.3749981575013,0|0,3:2|2:0,2:0:0:0:
189,349,177014,1,0,1:2:0:0:
217,354,177107,1,0,2:0:0:0:
247,359,177201,2,0,L|317:371,1,60.3749981575013,0|0,2:0|2:0,2:0:0:0:
512,289,177389,6,0,L|401:308,1,109.24999708271,4|0,3:2|2:0,2:0:0:0:
317,207,177764,1,0,1:2:0:0:
506,305,177951,2,0,L|398:323,1,109.24999708271,0|0,2:0|2:0,2:0:0:0:
477,207,178326,1,0,3:2:0:0:
512,384,178514,1,0,1:2:0:0:
314,199,178701,6,0,B|327:124|327:124|354:105,1,109.24999708271,4|0,3:2|2:0,2:0:0:0:
485,91,179076,1,0,2:0:0:0:
257,50,179264,1,0,1:2:0:0:
262,41,179451,1,0,2:0:0:0:
122,193,179639,6,0,P|54:198|0:159,1,137.999995788574,4|0,3:2|2:0,2:0:0:0:
180,112,179889,2,0,P|218:167|212:234,1,137.999995788574,4|0,3:2|2:0,2:0:0:0:
81,103,180139,2,0,P|109:41|171:13,1,137.999995788574,4|0,3:2|2:0,2:0:0:0:
132,187,180389,6,0,L|117:271,1,86.2500032901765,4|0,3:2|2:0,2:0:0:0:
59,366,180764,2,0,P|97:384|140:379,1,86.2500032901765,0|0,3:2|2:0,2:0:0:0:
312,336,181139,2,0,P|274:318|231:323,1,86.2500032901765,0|0,1:2|2:0,2:0:0:0:
123,281,181514,2,0,L|138:197,1,86.2500032901765,0|0,2:0|2:0,2:0:0:0:
255,136,181889,6,0,B|318:147|318:147|361:130|361:130|422:141,1,172.500006580353,0|0,3:2|3:2,2:0:0:0:
371,232,182451,1,0,2:0:0:0:
307,52,182639,2,0,B|316:-3|316:-3|344:-22,1,86.2500032901765,0|0,1:2|2:0,2:0:0:0:
506,106,183014,2,0,B|523:130|523:130|513:185,1,86.2500032901765,0|0,1:2|2:0,2:0:0:0:
377,244,183389,5,4,3:2:0:0:
383,256,183576,1,0,2:0:0:0:
512,372,183764,1,0,1:2:0:0:
506,384,183951,1,0,2:0:0:0:
509,201,184139,1,0,3:2:0:0:
402,362,184326,2,0,B|364:387|364:387|246:367,1,155.249995262146,0|0,1:2|2:0,2:0:0:0:
219,214,184701,1,0,1:2:0:0:
225,201,185076,1,0,2:0:0:0:
84,324,185264,6,0,L|103:213,1,103.499996841431,4|0,3:2|2:0,2:0:0:0:
110,43,185639,2,0,P|66:16|14:17,1,103.499996841431,4|0,3:2|2:0,2:0:0:0:
134,135,185920,2,0,P|178:109|203:65,1,103.499996841431,4|0,3:2|2:0,2:0:0:0:
40,109,186201,2,0,P|35:134|42:159,1,51.7499984207154,4|0,3:2|2:0,2:0:0:0:
290,182,186389,6,0,L|230:192,1,60.3749981575013,4|0,3:1|2:0,2:0:0:0:
379,243,187139,6,0,P|396:160|349:90,1,172.5,0|0,1:2|2:0,2:0:0:0:
241,85,187514,2,0,L|260:30,1,57.5,0|0,2:0|2:0,2:0:0:0:
277,289,187701,2,0,L|313:333,1,57.5,0|0,2:0|2:0,2:0:0:0:
121,212,187889,6,0,L|290:182,1,172.5,0|0,3:2|2:0,2:0:0:0:
108,319,188264,2,0,L|144:363,1,57.5,0|0,2:0|2:0,2:0:0:0:
72,115,188451,2,0,L|91:60,1,57.5,0|0,2:0|2:0,2:0:0:0:
29,229,188639,2,0,L|-27:238,1,57.5,0|0,1:2|2:0,2:0:0:0:
290,182,188826,5,4,3:2:0:0:
167,91,189014,1,4,3:2:0:0:
205,309,189201,1,4,3:2:0:0:
264,67,189389,6,0,P|320:65|369:95,1,115,4|0,3:2|2:0,2:0:0:0:
512,204,189764,6,0,P|497:228|474:246,1,57.5,2|0,2:0|2:0,2:0:0:0:
488,338,189951,2,0,P|459:337|432:327,1,57.5,2|0,2:0|2:0,2:0:0:0:
360,384,190139,2,0,P|346:358|341:330,1,57.5,2|0,1:2|2:0,2:0:0:0:
255,296,190326,2,0,P|269:271|292:253,1,57.5,2|0,2:0|2:0,2:0:0:0:
392,207,190514,6,0,L|381:245,1,34.5,0|0,2:0|2:0,2:0:0:0:
340,132,190889,5,4,3:2:0:0:
430,105,190982,2,0,L|470:144,1,57.5,0|0,2:0|2:0,2:0:0:0:
328,118,191170,5,0,3:2:0:0:
350,25,191263,2,0,L|405:9,1,57.5,4|0,2:0|2:0,2:0:0:0:
310,120,191452,5,0,1:2:0:0:
241,55,191545,2,0,L|256:0,1,57.5,4|0,2:0|2:0,2:0:0:0:
303,136,191733,5,0,3:2:0:0:
211,164,191826,2,0,L|170:123,1,57.5,4|0,2:0|2:0,2:0:0:0:
0,0,192014,5,0,1:2:0:0:
0,205,192201,1,0,2:0:0:0:
125,32,192389,6,0,P|99:48|83:73,1,60.3749981575013,4|0,3:1|2:0,2:0:0:0:
12,191,193139,6,0,P|97:193|183:205,1,172.5,0|0,1:2|2:0,2:0:0:0:
176,384,193514,2,0,L|119:374,1,57.5,0|0,2:0|2:0,2:0:0:0:
335,241,193701,2,0,L|278:250,1,57.5,2|0,2:0|2:0,2:0:0:0:
125,287,193889,5,0,3:2:0:0:
264,156,194076,1,0,2:0:0:0:
353,384,194264,2,0,L|296:374,1,57.5,0|0,2:0|2:0,2:0:0:0:
512,241,194451,2,0,L|455:250,1,57.5,2|0,2:0|2:0,2:0:0:0:
262,255,194639,1,0,1:2:0:0:
461,359,194826,5,4,3:2:0:0:
386,143,195014,1,4,3:2:0:0:
281,372,195201,1,4,3:2:0:0:
486,148,195389,6,0,L|466:34,1,115,4|0,3:2|2:0,2:0:0:0:
302,72,195764,5,0,2:0:0:0:
292,121,195857,1,0,2:0:0:0:
286,69,195951,1,0,2:0:0:0:
276,118,196044,1,0,2:0:0:0:
266,167,196139,5,0,1:2:0:0:
62,162,196326,2,0,P|112:188|168:181,1,115,2|0,2:0|2:0,2:0:0:0:
196,14,196607,2,0,P|148:44|126:96,1,115,2|0,2:0|2:0,2:0:0:0:
38,255,196889,6,0,L|196:282,1,160.99999508667,4|0,3:2|2:0,2:0:0:0:
171,295,197139,2,0,L|57:273,1,115,4|0,3:2|2:0,2:0:0:0:
77,295,197389,2,0,L|144:306,1,68.9999978942872,4|0,1:2|2:0,2:0:0:0:
212,367,197639,6,0,P|243:355|269:332,1,68.9999978942872,4|0,3:2|2:0,2:0:0:0:
286,383,197889,2,0,P|307:331|295:276,1,115,4|0,3:2|2:0,2:0:0:0:
356,318,198139,2,0,P|323:247|248:224,1,160.99999508667,4|0,1:2|2:0,2:0:0:0:
164,202,198389,6,0,L|288:180,1,126.500003860474,4|0,3:2|2:0,2:0:0:0:
499,62,198764,2,0,L|509:0,1,63.2500019302369,0|0,2:0|2:0,2:0:0:0:
372,162,198951,2,0,L|361:99,1,63.2500019302369,0|0,2:0|2:0,2:0:0:0:
502,284,199139,2,0,L|512:221,1,63.2500019302369,0|0,1:2|2:0,2:0:0:0:
375,384,199326,2,0,L|364:321,1,63.2500019302369,0|0,2:0|2:0,2:0:0:0:
266,181,199514,5,0,2:0:0:0:
216,188,199607,1,0,2:0:0:0:
263,164,199701,1,0,2:0:0:0:
213,172,199794,1,0,2:0:0:0:
164,179,199889,6,0,L|101:189,1,63.2500019302369,2|0,3:2|2:0,2:0:0:0:
164,16,200076,2,0,L|205:65,1,63.2500019302369,2|0,2:0|2:0,2:0:0:0:
23,97,200264,2,0,L|44:36,1,63.2500019302369,2|0,2:0|2:0,2:0:0:0:
117,97,200451,1,0,2:0:0:0:
118,105,200545,1,0,2:0:0:0:
120,114,200639,1,0,1:2:0:0:
114,275,200826,5,4,3:2:0:0:
52,25,201014,1,4,3:2:0:0:
294,60,201201,1,4,3:2:0:0:
19,231,201389,6,0,P|10:292|39:347,1,126.500003860474,4|0,3:2|2:0,2:0:0:0:
184,149,201764,2,0,L|195:212,1,63.2500019302369,0|0,2:0|2:0,2:0:0:0:
334,373,201951,1,0,2:0:0:0:
337,354,202045,1,0,2:0:0:0:
340,334,202139,2,0,L|351:270,1,63.2500019302369,0|0,1:2|2:0,2:0:0:0:
512,182,202326,2,0,B|500:116|500:116|460:74|460:74|449:11,1,189.750005790711,0|0,2:0|2:0,2:0:0:0:
407,162,202701,1,0,2:0:0:0:
383,166,202795,1,0,2:0:0:0:
291,180,202889,5,4,1:2:0:0:
287,86,202982,2,0,L|332:30,1,63.2500019302369,0|0,2:0|2:0,2:0:0:0:
274,179,203170,5,0,3:2:0:0:
191,135,203264,2,0,L|166:66,1,63.2500019302369,4|0,2:0|2:0,2:0:0:0:
266,193,203451,5,0,1:2:0:0:
186,243,203545,2,0,L|115:229,1,63.2500019302369,4|0,2:0|2:0,2:0:0:0:
273,206,203732,5,0,3:2:0:0:
276,300,203826,2,0,L|229:354,1,63.2500019302369,4|0,2:0|2:0,2:0:0:0:
0,284,204014,5,4,1:2:0:0:
94,89,204201,1,0,3:2:0:0:
135,325,204389,6,0,L|146:388,1,60.3749981575013,4|0,3:2|2:0,2:0:0:0:
39,353,205139,6,0,B|15:306|53:259|53:259|92:210|62:158,1,206.999993682861,0|0,1:2|2:0,2:0:0:0:
0,0,205514,2,0,P|-2:34|10:65,1,68.9999978942872,0|0,2:0|2:0,2:0:0:0:
186,98,205701,2,0,P|157:78|124:74,1,68.9999978942872,0|0,2:0|2:0,2:0:0:0:
97,236,205889,2,0,P|179:292|276:267,1,206.999993682861,0|0,3:2|2:0,2:0:0:0:
345,182,206264,2,0,P|372:202|386:233,1,68.9999978942872,0|0,2:0|2:0,2:0:0:0:
335,380,206451,2,0,P|339:346|359:318,1,68.9999978942872,0|0,2:0|2:0,2:0:0:0:
512,289,206639,2,0,P|480:302|446:299,1,68.9999978942872,0|0,1:2|2:0,2:0:0:0:
240,161,206826,5,4,3:2:0:0:
464,200,207014,1,4,3:2:0:0:
254,344,207201,1,4,3:2:0:0:
299,73,207389,6,0,P|337:18|403:0,1,137.999995788574,4|0,3:2|2:0,2:0:0:0:
500,116,207764,2,0,L|398:98,1,103.499996841431,0|0,2:0|2:0,2:0:0:0:
232,0,207951,1,0,2:0:0:0:
220,3,208045,1,0,2:0:0:0:
207,5,208139,2,0,L|128:18,1,68.9999978942872,0|0,1:2|2:0,2:0:0:0:
0,0,208326,2,0,L|44:52,1,68.9999978942872,0|0,2:0|2:0,2:0:0:0:
160,177,208514,1,0,2:0:0:0:
176,129,208607,1,0,2:0:0:0:
170,181,208701,2,0,L|197:105,1,68.9999978942872,0|0,2:0|2:0,2:0:0:0:
0,384,208889,6,0,P|36:308|117:289,1,172.500006580353,4|0,3:2|2:0,2:0:0:0:
204,264,209139,2,0,P|131:269|82:216,1,149.499993156433,4|0,3:2|2:0,2:0:0:0:
29,156,209389,2,0,P|60:202|43:255,1,115,4|0,3:2|2:0,2:0:0:0:
102,384,209639,6,0,L|215:364,1,115,4|0,3:2|2:0,2:0:0:0:
200,352,209889,2,0,L|109:367,1,92,4|0,3:2|2:0,2:0:0:0:
125,350,210139,2,0,L|181:340,1,57.5,4|0,3:2|2:0,2:0:0:0:
281,384,210389,5,2,2:0:0:0:
285,345,210482,1,2,2:0:0:0:
292,308,210576,1,2,2:0:0:0:
298,270,210670,1,2,2:0:0:0:
305,235,210764,1,0,2:0:0:0:
241,142,211139,5,2,1:2:0:0:
253,134,211201,1,2,2:0:0:0:
266,129,211264,1,0,2:0:0:0:
280,125,211326,1,2,2:0:0:0:
294,123,211389,1,0,2:0:0:0:
309,123,211451,1,2,2:0:0:0:
323,124,211514,1,0,2:0:0:0:
337,128,211576,1,2,2:0:0:0:
350,133,211639,1,0,2:0:0:0:
363,139,211701,1,2,2:0:0:0:
375,148,211764,1,0,2:0:0:0:
385,157,211826,1,2,2:0:0:0:
395,168,211889,5,2,3:2:0:0:
512,384,212076,1,2,2:0:0:0:
285,345,212264,1,2,2:0:0:0:
477,223,212451,2,0,P|492:151|453:89,1,149.499993156433,0|2,2:0|1:2,2:0:0:0:
261,9,212826,1,2,2:0:0:0:
302,251,213014,1,2,2:0:0:0:
440,82,213201,1,2,2:0:0:0:
250,0,213389,6,0,B|160:8|129:101|129:101|90:216|-21:190|-21:190|49:181|86:109,1,448.4999794693,2|0,3:2|2:0,2:0:0:0:
56,20,214139,1,0,1:2:0:0:
0,35,214232,1,2,2:0:0:0:
56,40,214326,1,2,2:0:0:0:
11,52,214419,1,2,2:0:0:0:
53,57,214514,1,2,2:0:0:0:
24,65,214607,1,2,2:0:0:0:
53,71,214702,1,2,2:0:0:0:
34,76,214795,1,2,2:0:0:0:
57,146,214889,5,2,3:2:0:0:
51,174,214982,1,2,2:0:0:0:
46,203,215076,1,2,2:0:0:0:
16,372,215264,1,2,2:0:0:0:
243,246,215451,2,0,L|264:121,1,126.500003860474,0|0,2:0|1:2,2:0:0:0:
118,314,215826,2,0,P|216:386|334:353,1,253.000007720947,0|0,2:0|2:0,2:0:0:0:
399,154,216389,6,0,L|409:216,1,63.2500019302369,4|0,3:2|2:0,2:0:0:0:
474,377,216576,2,0,L|513:383,1,37.3749982891084,2|0,2:0|2:0,2:0:0:0:
476,361,216670,2,0,L|515:367,1,37.3749982891084,2|0,2:0|2:0,2:0:0:0:
482,329,216764,5,2,2:0:0:0:
488,294,216857,1,2,2:0:0:0:
494,259,216951,1,2,2:0:0:0:
500,224,217045,1,0,2:0:0:0:
399,224,217139,5,2,1:2:0:0:
393,189,217232,1,2,2:0:0:0:
387,154,217326,1,2,2:0:0:0:
381,119,217420,1,0,2:0:0:0:
489,119,217514,5,2,2:0:0:0:
495,84,217607,1,2,2:0:0:0:
501,49,217701,1,2,2:0:0:0:
507,14,217795,1,0,2:0:0:0:
399,14,217889,5,2,3:2:0:0:
502,213,218076,1,2,2:0:0:0:
512,0,218264,1,2,2:0:0:0:
269,47,218451,2,0,L|294:194,1,149.499993156433,2|0,2:0|1:2,2:0:0:0:
379,309,218826,1,2,2:0:0:0:
214,233,219014,1,2,2:0:0:0:
363,128,219201,1,2,2:0:0:0:
263,342,219389,5,2,3:2:0:0:
156,100,219576,1,2,2:0:0:0:
144,329,219764,1,2,2:0:0:0:
264,96,219951,2,0,P|173:-8|53:60,1,298.999986312867,2|0,2:0|2:0,2:0:0:0:
47,195,220420,1,2,2:0:0:0:
61,212,220514,2,0,L|35:359,1,149.499993156433,2|0,2:0|2:0,2:0:0:0:
140,337,220795,1,2,2:0:0:0:
250,318,220889,6,0,L|224:170,1,149.499993156433,2|0,3:2|2:0,2:0:0:0:
136,345,221170,1,2,2:0:0:0:
259,323,221264,2,0,L|233:175,1,149.499993156433,6|0,3:2|2:0,2:0:0:0:
132,353,221545,1,2,2:0:0:0:
268,328,221639,2,0,L|242:180,1,149.499993156433,6|0,1:2|2:0,2:0:0:0:
56,69,222014,2,0,P|102:12|174:0,1,149.499993156433,4|0,3:2|2:0,2:0:0:0:
382,23,222389,5,0,3:2:0:0:
410,17,222482,1,2,2:0:0:0:
439,12,222576,2,0,L|512:0,1,74.7499965782167,2|0,2:0|2:0,2:0:0:0:
299,191,222764,1,2,1:2:0:0:
271,185,222857,1,2,2:0:0:0:
242,180,222951,2,0,L|169:168,1,74.7499965782167,2|0,2:0|2:0,2:0:0:0:
473,102,223139,5,2,2:0:0:0:
500,121,223232,2,0,L|512:194,1,74.7499965782167,2|2,2:0|3:2,2:0:0:0:
302,0,223420,1,2,2:0:0:0:
275,19,223513,2,0,L|262:92,1,74.7499965782167,2|0,1:2|2:0,2:0:0:0:
410,224,223701,1,0,2:0:0:0:
415,256,223795,1,0,2:0:0:0:
492,321,223889,5,2,3:2:0:0:
458,343,223982,1,0,2:0:0:0:
417,353,224076,1,0,2:0:0:0:
377,345,224170,1,0,2:0:0:0:
342,320,224264,1,0,1:2:0:0:
309,294,224358,1,0,2:0:0:0:
268,286,224451,2,0,P|230:287|196:301,1,74.7499965782167,0|2,2:0|3:2,2:0:0:0:
0,384,224639,5,2,2:0:0:0:
261,384,224826,1,2,3:2:0:0:
0,231,225014,2,0,B|-20:169|28:126|28:126|83:83|67:25,1,224.24998973465,2|0,1:2|2:0,2:0:0:0:
92,199,225389,5,2,3:2:0:0:
127,199,225482,1,2,2:0:0:0:
162,186,225576,1,2,2:0:0:0:
183,154,225670,1,0,2:0:0:0:
249,208,225764,5,2,1:2:0:0:
268,176,225857,1,2,2:0:0:0:
273,139,225951,1,2,2:0:0:0:
256,106,226045,1,0,2:0:0:0:
335,76,226139,5,2,3:2:0:0:
317,42,226232,2,0,P|287:22|250:18,1,74.7499965782167,2|2,2:0|2:0,2:0:0:0:
409,131,226420,1,2,2:0:0:0:
429,99,226514,2,0,P|431:62|416:28,1,74.7499965782167,2|2,1:2|2:0,2:0:0:0:
350,205,226701,1,2,2:0:0:0:
379,227,226795,1,0,2:0:0:0:
416,229,226889,5,2,3:2:0:0:
495,173,226982,2,0,P|512:244|475:307,1,149.499993156433,2|0,2:0|2:0,2:0:0:0:
354,372,227264,1,2,1:2:0:0:
297,135,227451,1,2,2:0:0:0:
263,216,227545,2,0,B|209:251|154:215|154:215|98:174|46:204,1,224.24998973465,2|0,2:0|3:2,2:0:0:0:
186,0,228014,2,0,L|211:147,1,149.499993156433,0|0,1:2|2:0,2:0:0:0:
120,384,228389,5,2,3:2:0:0:
92,277,228514,1,2,2:0:0:0:
12,355,228639,1,2,2:0:0:0:
193,308,228764,5,4,1:2:0:0:
107,283,228889,1,0,2:0:0:0:
129,369,229014,1,0,2:0:0:0:
273,333,229139,5,0,3:2:0:0:
255,263,229264,1,2,2:0:0:0:
205,313,229389,1,2,2:0:0:0:
358,346,229514,5,2,1:2:0:0:
352,323,229607,1,2,2:0:0:0:
346,301,229701,1,2,2:0:0:0:
340,279,229795,1,2,2:0:0:0:
442,281,229889,5,2,3:2:0:0:
436,258,229982,1,2,2:0:0:0:
430,236,230076,2,0,L|391:91,1,149.499993156433,2|0,2:0|1:2,2:0:0:0:
211,93,230451,1,2,2:0:0:0:
209,66,230545,2,0,B|231:26|231:26|347:-4,1,149.499993156433,2|0,2:0|2:0,2:0:0:0:
309,179,230826,2,0,B|202:207|202:207|128:177|128:177|17:207,1,298.999986312867,2|0,2:0|2:0,2:0:0:0:
12,0,231389,5,2,3:2:0:0:
8,21,231482,1,2,2:0:0:0:
4,43,231576,1,2,2:0:0:0:
0,64,231670,1,2,2:0:0:0:
100,69,231764,5,2,1:2:0:0:
106,105,231857,1,2,2:0:0:0:
112,141,231951,1,2,2:0:0:0:
119,178,232045,1,2,2:0:0:0:
30,210,232139,5,2,2:0:0:0:
21,260,232232,1,2,2:0:0:0:
12,311,232326,2,0,L|0:384,1,74.7499965782167,2|2,3:2|3:2,2:0:0:0:
220,200,232514,5,2,1:2:0:0:
208,134,232607,1,2,2:0:0:0:
196,67,232701,1,2,2:0:0:0:
184,0,232795,1,2,2:0:0:0:
281,39,232889,6,0,B|312:220|312:220|270:281,1,258.75000987053,4|0,1:2|2:0,2:0:0:0:
142,332,233264,2,0,B|103:387|103:387|291:354,1,258.75000987053,4|0,1:2|2:0,2:0:0:0:
444,324,233639,6,0,B|483:266|483:266|454:97,1,241.499992630005,4|0,1:2|2:0,2:0:0:0:
466,364,234014,2,0,B|505:306|505:306|476:137,1,241.499992630005,4|0,1:2|2:0,2:0:0:0:
353,21,234389,6,0,P|301:17|254:37,1,103.499996841431,4|0,3:2|2:0,2:0:0:0:
165,120,234764,1,0,3:2:0:0:
138,0,234951,1,0,2:0:0:0:
45,99,235139,6,0,P|33:148|53:195,1,103.499996841431,0|0,3:2|2:0,2:0:0:0:
0,195,235389,2,0,P|36:229|87:236,1,103.499996841431,0|0,2:0|2:0,2:0:0:0:
61,281,235639,2,0,P|109:266|140:225,1,103.499996841431,0|0,2:0|2:0,2:0:0:0:
144,123,235889,6,0,P|229:173|230:272,1,206.999993682861,0|0,3:2|3:2,2:0:0:0:
189,373,236451,1,0,2:0:0:0:
193,376,236545,1,0,2:0:0:0:
197,379,236639,2,0,P|247:387|291:362,1,103.499996841431,0|0,3:2|2:0,2:0:0:0:
414,282,237014,2,0,L|431:383,1,103.499996841431,0|0,3:2|2:0,2:0:0:0:
312,260,237389,5,0,3:2:0:0:
314,244,237482,1,0,2:0:0:0:
317,228,237576,1,0,2:0:0:0:
320,212,237670,1,0,2:0:0:0:
302,182,237764,5,0,3:2:0:0:
305,161,237857,1,0,2:0:0:0:
309,140,237951,1,0,2:0:0:0:
312,119,238045,1,0,2:0:0:0:
294,89,238139,5,0,3:2:0:0:
196,122,238326,1,0,2:0:0:0:
296,0,238514,1,0,3:2:0:0:
198,33,238701,1,0,2:0:0:0:
410,70,238889,6,0,L|383:222,1,155.249995262146,0|0,3:2|2:0,2:0:0:0:
427,322,239264,1,0,3:2:0:0:
405,336,239357,1,0,2:0:0:0:
379,338,239451,1,0,2:0:0:0:
353,331,239545,1,0,2:0:0:0:
323,292,239639,5,0,3:2:0:0:
307,287,239732,1,0,2:0:0:0:
291,288,239826,1,0,2:0:0:0:
277,294,239920,1,0,2:0:0:0:
251,336,240014,6,0,L|226:329,1,25.8749992103577,0|0,3:2|2:0,2:0:0:0:
136,364,240389,6,0,P|129:310|154:263,1,109.24999708271,0|0,3:2|2:0,2:0:0:0:
204,198,240639,2,0,P|160:231|107:233,1,109.24999708271,0|0,2:0|2:0,2:0:0:0:
28,223,240889,2,0,P|77:244|105:289,1,109.24999708271,0|0,2:0|2:0,2:0:0:0:
132,130,241139,6,0,P|177:101|231:103,1,109.24999708271,0|0,3:2|2:0,2:0:0:0:
319,194,241389,2,0,P|271:168|246:121,1,109.24999708271,0|0,2:0|2:0,2:0:0:0:
282,0,241639,2,0,P|283:53|255:99,1,109.24999708271,0|0,2:0|2:0,2:0:0:0:
378,127,241889,6,0,B|410:173|410:173|390:287,1,172.5,0|0,3:2|2:0,2:0:0:0:
313,351,242264,2,0,B|338:388|338:388|364:245,1,189.750005790711,0|0,3:2|2:0,2:0:0:0:
512,203,242639,2,0,B|485:352|485:352|440:384,1,206.999993682861,0|0,3:2|2:0,2:0:0:0:
275,260,243014,1,0,3:2:0:0:
253,263,243107,1,0,2:0:0:0:
223,303,243201,1,0,3:2:0:0:
202,306,243294,1,0,2:0:0:0:
116,364,243389,6,0,P|98:324|101:282,1,86.2500032901765,4|0,1:2|2:0,2:0:0:0:
262,115,243576,1,0,2:0:0:0:
284,136,243670,2,0,L|199:150,1,86.2500032901765,0|0,3:2|2:0,2:0:0:0:
181,309,243857,1,0,2:0:0:0:
83,342,243951,6,0,P|75:299|89:259,1,86.2500032901765,4|0,1:2|2:0,2:0:0:0:
270,104,244139,1,0,2:0:0:0:
292,125,244233,2,0,L|207:139,1,86.2500032901765,0|0,3:2|2:0,2:0:0:0:
160,305,244420,1,0,2:0:0:0:
56,312,244514,6,0,P|59:268|83:233,1,86.2500032901765,4|0,1:2|2:0,2:0:0:0:
278,93,244701,1,0,2:0:0:0:
300,114,244795,2,0,L|215:128,1,86.2500032901765,0|0,3:2|2:0,2:0:0:0:
139,296,244982,1,0,2:0:0:0:
37,276,245076,6,0,P|51:234|83:207,1,86.2500032901765,4|0,1:2|2:0,2:0:0:0:
286,82,245263,1,0,2:0:0:0:
308,103,245357,2,0,L|223:117,1,86.2500032901765,0|0,3:2|2:0,2:0:0:0:
121,282,245545,1,0,2:0:0:0:
27,236,245639,6,0,P|51:199|89:181,1,86.2500032901765,4|0,1:2|2:0,2:0:0:0:
414,152,245826,2,0,P|389:188|351:206,1,86.2500032901765,0|0,3:2|2:0,2:0:0:0:
27,194,246014,2,0,P|60:164|101:157,1,86.2500032901765,4|0,1:2|2:0,2:0:0:0:
414,194,246201,2,0,P|380:223|339:230,1,86.2500032901765,0|0,3:2|2:0,2:0:0:0:
196,69,246389,5,4,1:2:0:0:
145,0,246483,1,0,2:0:0:0:
59,9,246576,2,0,P|23:30|0:66,1,86.2500032901765,0|0,2:0|2:0,2:0:0:0:
79,347,246764,2,0,L|101:263,1,86.2500032901765,0|0,1:2|2:0,2:0:0:0:
186,82,246951,2,0,L|208:165,1,86.2500032901765,0|0,2:0|2:0,2:0:0:0:
392,274,247139,5,0,1:2:0:0:
477,264,247233,1,0,2:0:0:0:
512,185,247326,2,0,P|511:143|492:105,1,86.2500032901765,0|0,2:0|2:0,2:0:0:0:
298,213,247514,5,0,1:2:0:0:
264,291,247608,1,0,2:0:0:0:
315,361,247701,2,0,P|351:381|393:383,1,86.2500032901765,0|0,2:0|2:0,2:0:0:0:
380,109,247889,6,0,L|391:45,1,63.25,4|0,1:2|2:0,2:0:0:0:
301,184,249014,6,0,P|331:108|335:190,1,224.24998973465,4|0,1:2|2:0,2:0:0:0:
251,284,249389,5,4,3:1:0:0:
258,294,250514,5,4,3:2:0:0:
182,160,250701,1,4,3:2:0:0:
164,372,250889,1,0,3:2:0:0:
148,384,251826,5,4,3:2:0:0:
0,357,252014,1,4,3:2:0:0:
26,210,252201,1,4,3:2:0:0:
174,236,252389,1,4,3:2:0:0:
182,250,253326,5,4,3:2:0:0:
92,106,253514,1,4,3:2:0:0:
309,146,253701,1,4,3:2:0:0:
312,128,254076,5,0,3:2:0:0:
315,110,254170,1,0,3:2:0:0:
389,71,254264,6,0,L|394:104,1,34.5,0|0,1:2|2:0,2:0:0:0:
376,208,254639,5,0,3:2:0:0:
234,170,254826,1,0,3:2:0:0:
231,152,254920,1,0,3:2:0:0:
157,113,255014,6,0,L|151:146,1,34.5,4|0,1:2|2:0,2:0:0:0:
34,203,255389,5,4,3:1:0:0:
37,224,255482,1,0,2:0:0:0:
41,247,255576,1,0,2:0:0:0:
45,269,255670,1,0,2:0:0:0:
49,292,255764,2,0,L|62:370,3,57.5,0|0|0|0,3:2|2:0|2:0|2:0,2:0:0:0:
150,244,256139,6,0,L|206:253,1,57.5,0|0,3:2|2:0,2:0:0:0:
198,384,256326,2,0,L|254:374,1,57.5,0|0,2:0|2:0,2:0:0:0:
318,237,256514,2,0,L|374:246,1,57.5,0|0,3:2|2:0,2:0:0:0:
366,377,256701,2,0,L|422:367,1,57.5,0|0,2:0|2:0,2:0:0:0:
505,268,256889,5,0,3:2:0:0:
507,244,256982,1,0,2:0:0:0:
503,221,257076,1,0,2:0:0:0:
495,200,257170,1,0,2:0:0:0:
481,178,257264,2,0,P|463:155|440:138,3,57.5,0|0|0|0,3:2|2:0|2:0|2:0,2:0:0:0:
381,22,257639,6,0,L|324:31,1,57.5,0|0,3:2|2:0,2:0:0:0:
333,197,257826,2,0,L|276:187,1,57.5,0|0,2:0|2:0,2:0:0:0:
212,15,258014,2,0,L|155:24,1,57.5,0|0,3:2|2:0,2:0:0:0:
164,190,258201,2,0,L|107:180,1,57.5,0|0,2:0|2:0,2:0:0:0:
25,0,258389,5,0,3:2:0:0:
22,23,258482,1,0,2:0:0:0:
17,47,258576,1,0,2:0:0:0:
13,70,258670,1,0,2:0:0:0:
9,94,258764,2,0,L|-3:164,3,57.5,0|0|0|0,3:2|2:0|2:0|2:0,2:0:0:0:
44,298,259139,2,0,L|34:241,1,57.5,0|0,3:2|2:0,2:0:0:0:
170,99,259326,5,0,2:0:0:0:
204,97,259420,1,0,2:0:0:0:
236,109,259514,1,0,3:2:0:0:
261,132,259607,1,0,2:0:0:0:
278,161,259701,2,0,P|285:188|285:217,1,57.5,0|0,2:0|2:0,2:0:0:0:
149,301,259889,6,0,P|241:380|361:358,1,253.000007720947,0|0,3:2|3:2,2:0:0:0:
454,254,260451,1,0,2:0:0:0:
280,245,260639,1,0,3:2:0:0:
428,107,260826,1,0,1:2:0:0:
471,351,261014,6,0,L|476:384,1,34.5,0|0,1:2|2:0,2:0:0:0:
469,343,261389,5,0,3:2:0:0:
358,384,261764,6,0,B|340:287|340:287|377:216|377:216|359:113,1,275.999991577149,4|0,3:1|2:0,2:0:0:0:
186,35,262326,1,0,3:2:0:0:
382,0,262514,1,0,1:2:0:0:
282,206,262701,6,0,P|224:240|157:227,1,137.999995788574,0|0,3:2|2:0,2:0:0:0:
75,66,263076,1,0,3:2:0:0:
37,278,263264,1,0,1:2:0:0:
207,135,263451,2,0,L|183:0,1,137.999995788574,0|0,3:2|2:0,2:0:0:0:
55,172,263826,1,0,3:2:0:0:
291,130,264014,1,0,1:2:0:0:
67,57,264201,1,0,3:2:0:0:
119,303,264389,1,0,3:2:0:0:
115,312,264764,5,4,3:1:0:0:
334,384,264951,2,0,B|371:358|371:358|387:266,1,137.999995788574,0|0,3:2|2:0,2:0:0:0:
253,114,265326,2,0,B|215:139|215:139|199:231,1,137.999995788574,0|0,3:2|1:2,2:0:0:0:
470,228,265701,1,0,2:0:0:0:
339,59,265889,6,0,P|287:15|219:16,1,137.999995788574,4|0,3:2|2:0,2:0:0:0:
213,252,266264,1,0,1:2:0:0:
96,101,266451,2,0,P|181:-1|314:0,1,275.999991577149,4|0,3:2|2:0,2:0:0:0:
484,97,267014,1,4,1:2:0:0:
358,205,267201,1,0,2:0:0:0:
330,200,267295,1,0,2:0:0:0:
275,260,267389,5,4,3:2:0:0:
247,255,267482,1,0,2:0:0:0:
219,250,267576,1,0,2:0:0:0:
107,133,267764,1,0,1:2:0:0:
0,266,267951,2,0,B|-15:352|-15:352|6:383,1,126.500003860474,0|0,2:0|2:0,2:0:0:0:
214,350,268326,2,0,L|89:328,1,126.500003860474,0|0,2:0|1:2,2:0:0:0:
201,138,268702,5,0,3:2:0:0:
229,133,268795,1,0,3:2:0:0:
257,128,268889,1,0,3:2:0:0:
386,210,269076,1,0,3:2:0:0:
191,245,269264,1,0,1:2:0:0:
361,109,269451,2,0,P|423:110|470:150,1,126.500003860474,0|0,3:2|2:0,2:0:0:0:
385,384,269826,6,0,P|396:304|396:224,1,160.99999508667,4|0,1:2|2:0,2:0:0:0:
282,121,270107,2,0,P|289:201|284:281,1,160.99999508667,4|0,1:2|2:0,2:0:0:0:
177,384,270389,6,0,P|181:315|175:246,1,137.999995788574,4|0,1:2|3:2,2:0:0:0:
72,96,271139,2,0,P|83:164|85:232,1,137.999995788574,4|0,1:2|3:2,2:0:0:0:
69,337,271889,6,0,P|11:382|13:309,1,184,4|0,1:2|3:2,2:0:0:0:
115,22,272639,5,4,1:2:0:0:
283,289,272889,5,4,1:2:0:0:
512,0,273139,5,4,1:2:0:0:
451,47,286701,5,2,2:0:0:0:
448,63,286795,1,2,2:0:0:0:
404,118,286889,5,2,1:2:0:0:
474,205,287076,1,2,3:2:0:0:
405,296,287264,1,2,3:2:0:0:
475,383,287451,1,2,3:2:0:0:
314,343,287639,6,0,P|300:276|335:219,1,137.999995788574,4|0,3:1|2:0,2:0:0:0:
411,128,288201,1,0,3:2:0:0:
350,18,288389,2,0,B|263:2|263:2|222:31,1,137.999995788574,0|0,1:2|2:0,2:0:0:0:
146,111,288951,1,0,2:0:0:0:
289,117,289139,6,0,P|302:183|267:240,1,137.999995788574,0|0,3:2|2:0,2:0:0:0:
165,304,289701,1,0,3:2:0:0:
160,279,289795,1,0,3:2:0:0:
183,287,289889,1,0,1:2:0:0:
80,384,290076,2,0,L|56:248,1,137.999995788574,0|0,3:2|2:0,2:0:0:0:
0,154,290639,6,0,B|73:140|73:140|126:164|126:164|202:150,1,206.999993682861,0|0,3:2|2:0,2:0:0:0:
215,53,291389,2,0,L|147:64,1,68.9999978942872,0|0,1:2|2:0,2:0:0:0:
296,0,291764,2,0,P|309:31|310:66,1,68.9999978942872,0|0,3:2|2:0,2:0:0:0:
290,187,292139,2,0,B|384:170|384:170|408:135,1,137.999995788574,0|0,3:2|2:0,2:0:0:0:
424,10,292701,1,0,2:0:0:0:
512,100,292889,5,4,1:2:0:0:
508,117,293264,1,4,1:2:0:0:
433,238,293639,5,0,3:2:0:0:
435,253,294389,1,0,2:0:0:0:
438,269,295139,1,0,2:0:0:0:
332,371,296076,5,0,3:2:0:0:
318,368,296139,5,0,3:2:0:0:
304,366,296201,5,0,3:2:0:0:
281,378,296264,6,0,L|314:383,1,34.5,0|0,1:2|2:0,2:0:0:0:
345,291,296639,6,0,B|262:276|262:276|192:304|192:304|111:290,1,241.499992630005,4|0,1:2|2:0,2:0:0:0:
61,132,297014,2,0,B|5:170|5:170|176:201,1,241.499992630005,4|0,1:2|2:0,2:0:0:0:
376,184,297389,6,0,B|337:128|337:128|149:95,1,258.75000987053,4|0,1:2|2:0,2:0:0:0:
0,26,297764,2,0,B|61:-16|61:-16|242:15,1,258.75000987053,4|0,1:2|2:0,2:0:0:0:
483,59,298139,5,4,1:2:0:0:
271,357,298326,1,0,3:2:0:0:
329,31,298514,5,4,1:2:0:0:
424,384,298701,1,0,3:2:0:0:
268,188,298889,5,4,1:2:0:0:
487,228,299076,5,0,3:2:0:0:
498,230,299139,5,0,3:2:0:0:
509,232,299201,5,0,3:2:0:0:
512,263,299264,6,0,L|478:257,1,34.5,8|0,3:1|2:0,2:0:0:0:
395,316,299639,6,0,P|376:240|419:174,1,160.99999508667,4|0,3:1|2:0,2:0:0:0:
512,0,300014,2,0,B|401:-19|401:-19|361:8,1,160.99999508667,0|0,1:2|2:0,2:0:0:0:
277,220,300389,1,0,3:2:0:0:
512,109,300576,1,0,3:2:0:0:
220,57,300764,2,0,B|109:38|109:38|69:65,1,160.99999508667,0|0,1:2|2:0,2:0:0:0:
128,345,301139,6,0,B|81:278|81:278|102:202,1,160.99999508667,2|0,3:2|2:0,2:0:0:0:
359,230,301514,2,0,L|200:257,1,160.99999508667,0|0,1:2|2:0,2:0:0:0:
37,384,301889,1,0,2:0:0:0:
172,133,302076,1,0,3:2:0:0:
217,384,302264,1,0,1:2:0:0:
4,195,302451,1,0,2:0:0:0:
313,334,302639,6,0,L|471:306,1,160.99999508667,2|0,3:2|2:0,2:0:0:0:
494,151,302920,1,0,3:2:0:0:
438,71,303014,2,0,B|400:45|400:45|286:65,1,160.99999508667,0|0,1:2|2:0,2:0:0:0:
140,95,303295,1,0,1:2:0:0:
156,0,303389,1,0,3:2:0:0:
239,228,303576,1,0,3:2:0:0:
0,185,303764,2,0,L|29:19,1,160.99999508667,0|0,1:2|2:0,2:0:0:0:
322,168,304139,6,0,P|339:245|297:311,1,160.99999508667,2|0,3:2|2:0,2:0:0:0:
73,262,304514,2,0,L|231:234,1,160.99999508667,0|0,1:2|2:0,2:0:0:0:
476,64,304889,6,0,B|509:114|509:114|495:174,1,121.900000186005,4|0,3:2|2:0,2:0:0:0:
404,135,305170,1,0,3:2:0:0:
471,0,305264,2,0,B|481:62|481:62|515:113|515:113|501:172|501:172|512:236,1,250.125007633209,4|0,3:2|2:0,2:0:0:0:
436,368,305639,6,0,B|416:257|416:257|369:229,1,166.750005088806,4|0,3:1|2:0,2:0:0:0:
200,132,306014,1,0,1:2:0:0:
245,338,306201,1,0,2:0:0:0:
285,330,306295,1,0,2:0:0:0:
325,323,306389,1,0,3:2:0:0:
394,141,306576,1,0,3:2:0:0:
149,217,306764,1,0,1:2:0:0:
139,212,306857,1,0,2:0:0:0:
106,174,306951,1,0,2:0:0:0:
104,123,307045,1,0,2:0:0:0:
174,30,307139,6,0,B|293:8|293:8|330:34,1,166.750005088806,2|0,3:2|2:0,2:0:0:0:
262,315,307514,2,0,B|236:352|236:352|116:373,1,166.750005088806,0|0,1:2|2:0,2:0:0:0:
0,109,307889,1,0,2:0:0:0:
275,157,308076,1,0,3:2:0:0:
94,371,308264,1,0,1:2:0:0:
89,85,308451,5,0,2:0:0:0:
160,0,308545,1,0,2:0:0:0:
199,104,308639,1,4,3:2:0:0:
471,130,310139,5,4,3:1:0:0:
495,274,310326,2,0,B|511:179|511:179|487:145,1,137.999995788574,2|0,2:0|2:0,2:0:0:0:
267,180,310701,2,0,L|402:203,1,137.999995788574,2|0,2:0|1:2,2:0:0:0:
357,0,311076,2,0,L|221:23,1,137.999995788574,2|0,2:0|2:0,2:0:0:0:
132,151,311451,1,2,2:0:0:0:
29,0,311639,5,0,3:2:0:0:
26,161,311826,2,0,B|1:126|1:126|18:32,1,137.999995788574,2|0,2:0|2:0,2:0:0:0:
185,243,312201,2,0,P|195:311|162:370,1,137.999995788574,2|0,2:0|1:2,2:0:0:0:
38,300,312576,2,0,P|5:241|17:175,1,137.999995788574,2|0,2:0|2:0,2:0:0:0:
151,73,312951,1,2,2:0:0:0:
283,220,313139,5,0,3:2:0:0:
309,69,313326,2,0,L|287:193,1,126.500003860474,2|0,2:0|2:0,2:0:0:0:
509,277,313701,2,0,B|496:358|496:358|459:384,1,126.500003860474,2|0,2:0|1:2,2:0:0:0:
383,217,314076,2,0,B|397:138|397:138|435:113,1,126.500003860474,2|0,2:0|2:0,2:0:0:0:
503,268,314451,2,0,B|490:349|490:349|453:375,1,126.500003860474,2|2,2:0|3:2,2:0:0:0:
377,208,314826,2,0,B|391:129|391:129|429:104,1,126.500003860474,2|0,2:0|2:0,2:0:0:0:
447,366,315201,5,2,2:0:0:0:
288,234,315389,1,2,1:2:0:0:
280,251,315576,1,2,2:0:0:0:
180,367,315764,1,0,1:2:0:0:
188,384,315951,1,0,2:0:0:0:
235,164,316139,5,4,3:1:0:0:
51,323,316326,2,0,L|76:175,1,149.499993156433,2|0,2:0|3:2,2:0:0:0:
324,76,316701,2,0,B|262:32|262:32|190:52,1,149.499993156433,2|2,2:0|1:2,2:0:0:0:
381,238,317076,2,0,B|319:281|319:281|247:261,1,149.499993156433,2|0,2:0|3:2,2:0:0:0:
512,151,317451,1,2,2:0:0:0:
334,89,317639,5,0,3:1:0:0:
486,256,317826,2,0,B|467:358|467:358|430:384,1,149.499993156433,2|0,2:0|3:2,2:0:0:0:
149,283,318201,2,0,P|152:210|205:161,1,149.499993156433,2|2,2:0|1:2,2:0:0:0:
342,384,318576,2,0,P|338:311|285:262,1,149.499993156433,2|0,2:0|2:0,2:0:0:0:
103,384,318951,1,2,3:2:0:0:
269,258,319139,5,2,3:2:0:0:
74,142,319326,2,0,B|36:167|36:167|18:270,1,149.499993156433,2|0,2:0|3:2,2:0:0:0:
222,155,319701,2,0,B|294:174|294:174|355:131,1,149.499993156433,2|2,2:0|1:2,2:0:0:0:
323,23,320076,2,0,B|384:-19|384:-19|457:0,1,149.499993156433,2|0,2:0|3:2,2:0:0:0:
231,165,320451,2,0,B|303:184|303:184|364:141,1,149.499993156433,2|2,2:0|3:2,2:0:0:0:
332,33,320826,2,0,B|393:-9|393:-9|466:10,1,149.499993156433,2|0,2:0|3:2,2:0:0:0:
240,175,321201,2,0,B|312:194|312:194|373:151,1,149.499993156433,2|2,2:0|1:2,2:0:0:0:
475,20,321576,1,2,2:0:0:0:
210,54,321764,1,0,3:2:0:0:
472,294,321951,5,2,1:2:0:0:
