osu file format v14

[General]
AudioFilename: dj-Jo - Paradisus Paradoxum (ft. Myulee).mp3
AudioLeadIn: 0
PreviewTime: 60371
Countdown: 0
SampleSet: Normal
StackLeniency: 0.2
Mode: 0
LetterboxInBreaks: 0
WidescreenStoryboard: 1

[Editor]
DistanceSpacing: 1
BeatDivisor: 16
GridSize: 8
TimelineZoom: 2.7

[Metadata]
Title:Paradisus-Paradoxum feat. Myulee -TV Size-
TitleUnicode:Paradisus-Paradoxum feat. Myulee -TV Size-
Artist:dj-Jo
ArtistUnicode:dj-Jo
Creator:SALZKARTOFFEEEL
Version:Zero
Source:Re:Zero kara Hajimeru Isekai Seikatsu
Tags:Rem <3 Ram Subaru Natskui Emilia Lia MYTH&ROID 2nd Anime Opening OP Glitch Hop Trap EDM Electronic ReZero Re Zero Re:ゼロから始める異世界生活 Anime Dubstep Remix djJo ppass1234
BeatmapID:1153467
BeatmapSetID:494469

[Difficulty]
HPDrainRate:6
CircleSize:4.5
OverallDifficulty:7
ApproachRate:9.6
SliderMultiplier:2.25
SliderTickRate:2

[Events]
//Background and Video events
0,0,"Rem & Ram ~ Children.jpg",0,0
//Break Periods
//Storyboard Layer 0 (Background)
//Storyboard Layer 1 (Fail)
//Storyboard Layer 2 (Pass)
//Storyboard Layer 3 (Foreground)
//Storyboard Sound Samples

[TimingPoints]
8388,298.507462686567,4,1,0,35,1,0
10179,-100,4,1,0,60,0,1
14358,-200,4,1,0,60,0,1
14656,-100,4,1,0,60,0,1
15552,-400,4,1,0,60,0,1
18985,-100,4,1,0,60,0,1
20402,-100,4,2,0,5,0,1
20477,-100,4,1,0,60,0,1
20552,-100,4,2,0,5,0,1
20626,-100,4,1,0,60,0,1
20701,-100,4,2,0,5,0,1
20776,-100,4,1,0,60,0,1
20850,-100,4,2,0,5,0,1
20925,-100,4,1,0,60,0,1
25104,-133.333333333333,4,1,0,60,0,1
25999,-100,4,1,0,60,0,1
29880,597.014925373134,4,1,0,35,1,0
29880,-200,4,1,0,35,0,0
39432,-100,4,1,0,35,0,0
48984,-66.6666666666667,4,1,0,35,0,0
50178,-60.6060606060606,4,1,0,35,0,0
51372,-55.5555555555556,4,1,0,35,0,0
52566,-51.2820512820513,4,1,0,35,0,0
53760,-47.6666666666667,4,1,0,35,0,0
54357,-133.333333333333,4,1,0,35,0,0
54954,-44.5,4,1,0,35,0,0
55551,-100,4,1,0,35,0,0
58536,298.507462686567,4,1,0,35,1,0
60327,-100,4,1,0,60,0,1
65700,-200,4,1,0,60,0,1
69282,-100,4,1,0,60,0,1
75252,-200,4,1,0,60,0,1
78685,-100,4,1,0,60,0,1
80103,-100,4,2,0,5,0,1
80177,-100,4,1,0,60,0,1
80252,-100,4,2,0,5,0,1
80327,-100,4,1,0,60,0,1
80401,-100,4,2,0,5,0,1
80476,-100,4,1,0,60,0,1
80550,-100,4,2,0,5,0,1
80625,-100,4,1,0,60,0,1
88983,-100,4,1,0,35,0,0

[Colours]
Combo1 : 188,188,188
Combo2 : 75,166,239
Combo3 : 221,221,221
Combo4 : 253,121,148

[HitObjects]
208,344,8387,5,0,0:0:0:0:
304,40,8537,1,0,0:0:0:0:
368,304,8835,2,0,L|296:216,1,112.5
112,272,9134,1,0,0:0:0:0:
400,120,9432,1,0,0:0:0:0:
80,72,9731,2,0,L|160:152,1,112.5
448,192,10179,5,0,0:0:0:0:
440,200,10477,1,0,0:0:0:0:
432,208,10776,2,0,P|384:256|264:192,1,225
392,80,11223,1,0,0:0:0:0:
136,168,11522,1,0,0:0:0:0:
72,240,11671,1,0,0:0:0:0:
104,336,11820,1,0,0:0:0:0:
200,352,11970,2,0,P|256:336|296:296,1,112.5
400,240,12268,5,0,0:0:0:0:
416,112,12417,1,0,0:0:0:0:
312,32,12567,2,0,P|256:24|112:112,1,225
312,168,13164,1,0,0:0:0:0:
312,168,13462,1,0,0:0:0:0:
168,224,13611,2,0,P|224:152|256:128,1,112.5
344,288,13910,1,0,0:0:0:0:
432,240,14059,1,0,0:0:0:0:
424,136,14208,5,0,0:0:0:0:
408,120,14283,1,0,0:0:0:0:
392,104,14358,2,0,L|312:24,1,112.5
152,208,14955,5,0,0:0:0:0:
256,88,15104,1,0,0:0:0:0:
264,288,15253,1,0,0:0:0:0:
368,56,15402,1,0,0:0:0:0:
424,320,15552,2,0,L|328:256,1,112.5
40,256,16746,2,0,L|152:280,1,112.5
288,192,17940,2,0,P|256:120|224:192,1,196.875
448,232,19432,6,0,L|440:208,1,18.75,0|0,0:0|2:0,0:0:0:0:
120,256,19880,2,0,L|128:280,1,18.75,0|0,0:0|2:0,0:0:0:0:
288,136,20328,6,0,L|360:120,1,56.25
224,208,20477,2,0,L|160:184,1,56.25
312,224,20626,2,0,L|352:264,1,56.25
248,296,20776,2,0,L|216:344,1,56.25
320,344,20925,2,0,P|400:352|440:336,1,112.5
456,224,21223,1,0,0:0:0:0:
432,80,21373,1,0,0:0:0:0:
328,168,21522,1,0,0:0:0:0:
208,96,21671,6,0,L|112:160,1,112.5
216,256,21970,1,0,0:0:0:0:
328,168,22119,2,0,L|432:80,1,112.5
456,224,22417,2,0,L|432:80,1,112.5
176,104,22716,2,0,P|160:168|176:216,1,112.5
264,304,23014,1,0,0:0:0:0:
312,320,23089,1,0,0:0:0:0:
360,320,23164,1,0,0:0:0:0:
400,304,23238,1,0,0:0:0:0:
440,280,23313,6,0,P|480:248|504:192,1,112.5
504,48,23611,1,0,0:0:0:0:
392,112,23761,1,0,0:0:0:0:
272,64,23910,1,0,0:0:0:0:
152,112,24059,1,0,0:0:0:0:
152,240,24208,1,0,0:0:0:0:
272,312,24358,1,0,0:0:0:0:
392,240,24507,2,0,L|392:112,1,112.5
272,312,24805,6,0,L|152:240,1,112.5
152,64,25104,6,0,L|96:128,1,84.3750032186509
96,256,25402,1,0,0:0:0:0:
200,304,25552,1,0,0:0:0:0:
328,240,25701,2,0,L|312:152,1,84.3750032186509
264,72,25999,1,0,0:0:0:0:
400,56,26149,1,0,0:0:0:0:
464,176,26298,6,0,P|448:240|400:256,1,112.5
344,272,26596,2,0,P|360:208|408:192,1,112.5
409,256,26895,2,0,P|456:282|463:336,1,112.5
464,336,27343,1,0,0:0:0:0:
472,344,27492,2,0,P|536:264|496:152,1,225
456,128,27865,5,0,0:0:0:0:
408,112,27940,1,0,0:0:0:0:
360,104,28014,1,0,0:0:0:0:
312,112,28089,2,0,P|240:128|184:176,1,112.5
53,263,28387,2,0,P|109:279|165:327,1,112.5
280,232,28686,5,0,0:0:0:0:
80,200,28835,1,0,0:0:0:0:
240,312,28985,1,0,0:0:0:0:
152,144,29134,1,0,0:0:0:0:
152,328,29283,1,0,0:0:0:0:
232,160,29432,1,0,0:0:0:0:
80,280,29582,1,0,0:0:0:0:
280,232,29731,1,0,0:0:0:0:
400,144,29880,1,0,0:0:0:0:
400,144,30178,6,0,P|432:200|280:232,1,281.25
248,176,31969,1,0,0:0:0:0:
232,104,32268,2,0,P|200:56|144:120,1,168.75
168,192,33462,1,0,0:0:0:0:
200,264,33760,2,0,P|248:320|328:272,1,168.75
384,136,35103,1,0,3:0:0:0:
392,144,35178,1,0,3:0:0:0:
400,152,35253,1,0,3:0:0:0:
296,88,35551,6,0,P|240:56|224:168,1,225
272,176,36894,1,0,0:0:0:0:
320,164,37044,2,0,B|336:164|356:168|384:188|392:208|396:248|384:276|364:296|332:308|304:304|304:304|304:308|304:308|300:304|300:304|300:308|300:308|296:304|296:304|296:308|296:308|292:304|292:304|292:308|292:308|288:304|288:304|288:308|288:308|284:304|284:304|284:308|284:308|280:304|280:304|280:308|280:308|276:304|276:304|276:308|276:308|272:304|272:304|272:308|272:308|268:304|268:304|268:308|268:308|264:304|264:304|264:308|264:308|260:304|260:304|260:308|260:308|256:304|256:304|256:308|256:308|252:304|252:304|252:308|252:308|248:304|248:304|248:308|248:308|244:304|244:304|244:308|244:308|240:304|240:304|240:308|240:308|236:304|236:304|236:308|236:308|232:304|232:304|232:308|232:308|228:304|228:304|228:308|228:308|216:304,1,421.875
168,304,39432,5,0,0:0:0:0:
60,56,39730,2,0,L|112:88,1,56.25
348,48,40178,1,0,0:0:0:0:
348,48,40477,1,0,0:0:0:0:
344,204,40626,2,0,L|368:152,1,56.25
456,268,40924,2,0,L|448:323,1,56.25
368,304,41223,5,0,0:0:0:0:
296,264,41372,1,0,0:0:0:0:
236,208,41521,1,0,0:0:0:0:
216,128,41671,1,0,0:0:0:0:
200,48,41820,2,0,P|148:4|76:104,2,225
206,225,43312,2,0,L|136:72,1,168.75
376,240,44208,5,0,0:0:0:0:
368,248,44307,1,0,0:0:0:0:
360,256,44407,1,0,0:0:0:0:
360,264,44506,2,0,L|280:184,1,112.5
280,184,45402,5,0,0:0:0:0:
80,208,45700,2,0,P|64:144|88:104,1,112.5
208,64,46148,1,0,0:0:0:0:
336,64,46297,1,0,0:0:0:0:
416,160,46447,1,0,0:0:0:0:
408,288,46596,2,0,P|312:280|288:264,1,112.5
248,224,47044,1,0,0:0:0:0:
200,168,47193,2,0,P|80:232|112:272,1,225
256,94,48387,5,0,0:0:0:0:
340,240,48685,1,0,0:0:0:0:
256,94,48984,2,0,L|340:240,1,168.750006437302
210,94,49581,5,0,0:0:0:0:
362,201,49879,1,0,0:0:0:0:
210,94,50178,2,0,L|227:278,1,185.625001770258
157,109,50775,5,0,0:0:0:0:
376,148,51074,1,0,0:0:0:0:
157,109,51372,2,0,L|75:339,1,202.499993820191
355,92,51969,5,0,0:0:0:0:
120,155,52268,1,0,0:0:0:0:
355,92,52566,2,0,L|182:267,1,219.375000836849
179,86,53163,5,0,0:0:0:0:
332,86,53312,1,0,0:0:0:0:
380,232,53462,1,0,0:0:0:0:
255,322,53611,1,0,0:0:0:0:
332,86,53760,2,0,L|408:312,1,236.013979718029
224,184,54357,6,0,P|256:160|288:184,1,84.3750032186509
256,72,54954,2,0,L|256:328,1,252.808988764045
392,112,55551,5,0,0:0:0:0:
464,176,55700,1,0,0:0:0:0:
456,184,55774,1,0,0:0:0:0:
448,192,55850,1,0,0:0:0:0:
440,200,55924,1,0,0:0:0:0:
432,208,55999,1,0,0:0:0:0:
424,216,56074,1,0,0:0:0:0:
416,224,56148,2,0,L|296:344,1,168.75
224,208,56745,22,0,P|216:144|232:128,1,56.25
280,168,57044,22,0,P|288:232|272:248,1,56.25
128,304,57342,21,0,0:0:0:0:
384,304,57491,1,0,0:0:0:0:
96,264,57641,21,0,0:0:0:0:
416,296,57790,1,0,0:0:0:0:
64,224,57939,21,0,0:0:0:0:
448,288,58088,1,0,0:0:0:0:
32,184,58238,21,0,0:0:0:0:
480,280,58387,1,0,0:0:0:0:
0,144,58536,22,0,L|80:64,1,112.5
368,200,58983,1,0,0:0:0:0:
128,304,59133,2,0,L|200:216,1,112.5
392,328,59580,1,0,0:0:0:0:
320,64,59879,2,0,L|288:176,1,112.5
88,144,60327,5,0,0:0:0:0:
96,152,60625,1,0,0:0:0:0:
104,160,60924,2,0,L|184:240,1,112.5
336,256,61222,1,0,0:0:0:0:
215,175,61371,2,0,L|103:159,1,112.5
208,40,61670,1,0,0:0:0:0:
344,48,61819,1,0,0:0:0:0:
432,176,61968,1,0,0:0:0:0:
400,208,62043,1,0,0:0:0:0:
368,240,62118,6,0,L|256:248,1,112.5
88,248,62416,2,0,L|160:152,1,112.5
208,40,62715,1,0,0:0:0:0:
344,48,62864,1,0,0:0:0:0:
272,160,63013,1,0,0:0:0:0:
328,280,63162,1,0,0:0:0:0:
480,280,63312,1,0,0:0:0:0:
480,280,63610,5,0,0:0:0:0:
480,280,63759,2,0,L|512:168,1,112.5
408,80,64058,1,0,0:0:0:0:
264,112,64207,1,0,0:0:0:0:
264,128,64282,1,0,0:0:0:0:
264,144,64356,1,0,0:0:0:0:
264,160,64431,1,0,0:0:0:0:
264,176,64506,2,0,P|216:248|168:248,1,112.5
196,251,65103,5,0,0:0:0:0:
368,106,65252,1,0,0:0:0:0:
407,327,65401,1,0,0:0:0:0:
368,106,65550,1,0,0:0:0:0:
196,251,65700,2,0,P|136:288|120:176,1,225
112,176,66595,1,0,0:0:0:0:
304,224,66894,2,0,L|408:168,1,112.5
120,232,67491,2,0,L|40:144,1,112.5
208,192,68088,6,0,P|256:112|304:192,2,225
376,96,69879,5,0,0:0:0:0:
296,208,70028,1,0,0:0:0:0:
288,24,70177,1,0,0:0:0:0:
152,192,70327,1,0,0:0:0:0:
376,96,70476,2,0,P|456:168|464:184,1,112.5
480,304,70774,1,0,0:0:0:0:
376,336,70924,6,0,P|296:336|264:304,1,112.5
152,192,71222,1,0,0:0:0:0:
382,227,71371,2,0,P|392:282|376:336,1,112.5
152,192,71670,1,0,0:0:0:0:
384,168,71819,1,0,0:0:0:0:
384,184,71968,1,0,0:0:0:0:
384,200,72118,1,0,0:0:0:0:
384,216,72267,2,0,L|464:136,1,112.5
344,88,72565,6,0,L|264:168,1,112.5
480,304,72864,1,0,0:0:0:0:
312,336,73013,2,0,L|208:272,1,112.5
384,216,73312,1,0,0:0:0:0:
480,336,73461,1,0,0:0:0:0:
384,184,73610,5,0,0:0:0:0:
384,88,73759,1,0,0:0:0:0:
312,16,73909,1,0,0:0:0:0:
304,24,73983,1,0,0:0:0:0:
296,32,74058,1,0,0:0:0:0:
216,112,74207,5,0,0:0:0:0:
384,88,74356,1,0,0:0:0:0:
224,104,74506,1,0,0:0:0:0:
384,184,74655,1,0,0:0:0:0:
392,192,74804,1,0,0:0:0:0:
400,200,74953,1,0,0:0:0:0:
408,208,75103,1,0,0:0:0:0:
416,216,75252,2,0,L|256:376,1,225
96,216,76446,6,0,L|256:376,1,225
256,152,77640,6,0,L|256:376,1,225
256,376,78685,1,0,0:0:0:0:
353,23,79133,5,0,0:0:0:0:
353,360,79580,1,0,0:0:0:0:
61,191,80028,2,0,P|48:144|56:120,1,56.25
144,144,80177,2,0,P|168:184|160:216,1,56.25
88,272,80327,2,0,P|112:320|136:328,1,56.25
192,264,80476,2,0,P|224:312|224:336,1,56.25
168,376,80625,6,0,P|264:376|288:360,1,112.5
392,304,80924,1,0,0:0:0:0:
288,200,81073,2,0,P|256:128|256:80,1,112.5
424,128,81371,1,0,0:0:0:0:
288,200,81521,2,0,P|192:232|160:224,1,112.5
112,112,81819,1,0,0:0:0:0:
280,128,81968,1,0,0:0:0:0:
104,224,82118,2,0,P|40:208|8:160,1,112.5
8,56,82416,5,0,0:0:0:0:
32,88,82491,1,0,0:0:0:0:
64,120,82565,1,0,0:0:0:0:
96,152,82640,1,0,0:0:0:0:
128,184,82715,1,0,0:0:0:0:
160,216,82789,1,0,0:0:0:0:
192,248,82864,1,0,0:0:0:0:
224,280,82938,1,0,0:0:0:0:
256,312,83013,6,0,L|256:200,1,112.5
184,96,83312,1,0,0:0:0:0:
328,96,83461,1,0,0:0:0:0:
256,192,83610,1,0,0:0:0:0:
328,280,83759,1,0,0:0:0:0:
440,280,83909,1,0,0:0:0:0:
512,192,84058,1,0,0:0:0:0:
440,96,84207,2,0,L|328:96,1,112.5
512,192,84506,2,0,L|440:280,1,112.5
328,200,84804,6,0,L|216:232,1,112.5
256,88,85103,1,0,0:0:0:0:
328,200,85252,2,0,P|376:272|392:320,1,112.5
288,344,85550,1,0,0:0:0:0:
328,200,85700,2,0,P|352:136|376:96,1,112.5
448,232,85998,1,0,0:0:0:0:
368,312,86147,1,0,0:0:0:0:
328,200,86297,1,0,0:0:0:0:
216,224,86446,6,0,P|152:240|104:240,1,112.5
8,192,86744,1,0,0:0:0:0:
112,136,86894,2,0,P|192:112|224:80,1,112.5
216,224,87192,1,0,0:0:0:0:
128,304,87341,1,0,0:0:0:0:
8,192,87640,2,0,P|72:208|128:192,1,112.5
212,93,87938,1,0,0:0:0:0:
336,160,88088,6,0,P|392:200|416:240,1,112.5
408,328,88386,2,0,P|344:344|296:336,1,112.5
256,208,88685,2,0,P|272:136|312:96,1,112.5
414,236,88983,1,0,0:0:0:0:
