osu file format v14

[General]
AudioFilename: dj-Jo - Paradisus Paradoxum (ft. Myulee).mp3
AudioLeadIn: 0
PreviewTime: 60371
Countdown: 0
SampleSet: Soft
StackLeniency: 0.4
Mode: 3
LetterboxInBreaks: 0
EpilepsyWarning: 1
SpecialStyle: 0
WidescreenStoryboard: 1

[Editor]
DistanceSpacing: 1
BeatDivisor: 4
GridSize: 8
TimelineZoom: 3

[Metadata]
Title:Paradisus-Paradoxum feat. Myulee -TV Size-
TitleUnicode:Paradisus-Paradoxum feat. Myulee -TV Size-
Artist:dj-Jo
ArtistUnicode:dj-Jo
Creator:SALZKARTOFFEEEL
Version:Ppass's 4K Zero
Source:Re:Zero kara Hajimeru Isekai Seikatsu
Tags:Rem <3 Ram Subaru Natskui Emilia Lia MYTH&ROID 2nd Anime Opening OP Glitch Hop Trap EDM Electronic ReZero Re Zero Re:ゼロから始める異世界生活 Anime Dubstep Remix djJo ppass1234
BeatmapID:1134461
BeatmapSetID:494469

[Difficulty]
HPDrainRate:9
CircleSize:4
OverallDifficulty:9
ApproachRate:9.6
SliderMultiplier:2
SliderTickRate:1

[Events]
//Background and Video events
0,0,"Rem & Ram ~ Children.jpg",0,0
//Break Periods
//Storyboard Layer 0 (Background)
//Storyboard Layer 1 (Fail)
//Storyboard Layer 2 (Pass)
//Storyboard Layer 3 (Foreground)
//Storyboard Sound Samples

[TimingPoints]
0,298.507462686567,4,2,0,20,1,0
9925,-10,4,2,0,20,0,0
10447,-333.333333333333,4,2,0,20,0,0
10597,-100,4,2,0,20,0,0
19029,-200,4,2,0,20,0,0
19402,-100,4,2,0,20,0,0
60074,-10,4,2,0,20,0,0
60447,-333.333333333333,4,2,0,20,0,0
60746,-100,4,2,0,20,0,0
60895,-100,4,2,0,20,0,1
75111,-100,4,2,0,20,0,0
78731,-200,4,2,0,20,0,0
79029,-100,4,2,0,20,0,0
84216,-100,4,2,0,20,0,1

[Colours]
Combo1 : 188,188,188
Combo2 : 75,166,239
Combo3 : 221,221,221
Combo4 : 253,121,148

[HitObjects]
192,192,1194,5,0,0:0:0:0:
320,192,1194,128,0,2388:0:0:0:0:
64,192,1194,128,0,2388:0:0:0:0:
448,192,1194,1,0,0:0:0:0:
192,192,2388,1,0,0:0:0:0:
448,192,2388,128,0,2985:0:0:0:0:
64,192,2686,1,0,0:0:0:0:
192,192,2686,1,0,0:0:0:0:
64,192,2835,1,0,0:0:0:0:
320,192,2835,1,0,0:0:0:0:
64,192,2985,128,0,4776:0:0:0:0:
320,192,2985,1,0,0:0:0:0:
192,192,2985,1,0,0:0:0:0:
448,192,3432,1,0,0:0:0:0:
320,192,3507,1,0,0:0:0:0:
192,192,3582,128,0,4776:0:0:0:0:
448,192,4776,128,0,5522:0:0:0:0:
320,192,4776,1,0,0:0:0:0:
320,192,5074,1,0,0:0:0:0:
192,192,5074,1,0,0:0:0:0:
64,192,5522,128,0,5970:0:0:0:0:
320,192,5522,1,0,0:0:0:0:
192,192,5522,1,0,0:0:0:0:
192,192,5820,1,0,0:0:0:0:
448,192,5820,1,0,0:0:0:0:
320,192,5895,1,0,0:0:0:0:
448,192,5970,1,0,0:0:0:0:
192,192,5970,128,0,7164:0:0:0:0:
64,192,7164,128,0,8208:0:0:0:0:
320,192,7164,128,0,7611:0:0:0:0:
448,192,7462,128,0,8208:0:0:0:0:
192,192,7462,128,0,7611:0:0:0:0:
192,192,7761,128,0,8208:0:0:0:0:
320,192,7761,128,0,8208:0:0:0:0:
448,192,8358,1,0,0:0:0:0:
320,192,8358,1,0,0:0:0:0:
64,192,8358,1,0,0:0:0:0:
192,192,8358,1,0,0:0:0:0:
192,192,8507,1,0,0:0:0:0:
320,192,8507,1,0,0:0:0:0:
448,192,8507,1,0,0:0:0:0:
192,192,8805,1,0,0:0:0:0:
64,192,8805,1,0,0:0:0:0:
448,192,8805,1,0,0:0:0:0:
320,192,8805,1,0,0:0:0:0:
192,192,8955,1,0,0:0:0:0:
320,192,8955,1,0,0:0:0:0:
64,192,8955,1,0,0:0:0:0:
320,192,9104,1,0,0:0:0:0:
448,192,9104,1,0,0:0:0:0:
64,192,9104,1,0,0:0:0:0:
320,192,9402,1,0,0:0:0:0:
192,192,9402,1,0,0:0:0:0:
64,192,9402,1,0,0:0:0:0:
448,192,9402,1,0,0:0:0:0:
320,192,9701,1,0,0:0:0:0:
448,192,9701,1,0,0:0:0:0:
64,192,9701,1,0,0:0:0:0:
192,192,9850,1,0,0:0:0:0:
64,192,9850,1,0,0:0:0:0:
448,192,9850,1,0,0:0:0:0:
448,192,10746,1,0,0:0:0:0:
64,192,10746,128,0,11343:0:0:0:0:
320,192,10746,128,0,11343:0:0:0:0:
192,192,10746,1,0,0:0:0:0:
448,192,11044,1,0,0:0:0:0:
192,192,11044,1,0,0:0:0:0:
448,192,11343,128,0,11940:0:0:0:0:
192,192,11343,128,0,11940:0:0:0:0:
320,192,11641,1,0,0:0:0:0:
64,192,11641,1,0,0:0:0:0:
320,192,11940,1,0,0:0:0:0:
64,192,11940,128,0,12537:0:0:0:0:
192,192,12089,1,0,0:0:0:0:
320,192,12089,1,0,0:0:0:0:
448,192,12238,1,0,0:0:0:0:
320,192,12238,1,0,0:0:0:0:
192,192,12388,1,0,0:0:0:0:
448,192,12388,1,0,0:0:0:0:
192,192,12537,1,0,0:0:0:0:
448,192,12537,1,0,0:0:0:0:
320,192,12537,128,0,13134:0:0:0:0:
192,192,12835,128,0,13134:0:0:0:0:
64,192,12835,1,0,0:0:0:0:
448,192,12835,1,0,0:0:0:0:
448,192,13134,128,0,13731:0:0:0:0:
64,192,13134,1,0,0:0:0:0:
192,192,13432,1,0,0:0:0:0:
64,192,13432,1,0,0:0:0:0:
320,192,13731,1,0,0:0:0:0:
192,192,13731,1,0,0:0:0:0:
64,192,13731,128,0,14179:0:0:0:0:
192,192,14179,1,0,0:0:0:0:
448,192,14179,1,0,0:0:0:0:
320,192,14253,1,0,0:0:0:0:
64,192,14253,1,0,0:0:0:0:
448,192,14328,128,0,14925:0:0:0:0:
192,192,14328,1,0,0:0:0:0:
64,192,14925,1,0,0:0:0:0:
192,192,14925,1,0,0:0:0:0:
320,192,15074,1,0,0:0:0:0:
64,192,15074,1,0,0:0:0:0:
448,192,15074,1,0,0:0:0:0:
64,192,15223,1,0,0:0:0:0:
448,192,15223,1,0,0:0:0:0:
192,192,15223,1,0,0:0:0:0:
448,192,15373,1,0,0:0:0:0:
64,192,15373,1,0,0:0:0:0:
320,192,15373,1,0,0:0:0:0:
64,192,15522,1,0,0:0:0:0:
192,192,15572,1,0,0:0:0:0:
320,192,15621,1,0,0:0:0:0:
64,192,15671,1,0,0:0:0:0:
448,192,15671,1,0,0:0:0:0:
192,192,15721,1,0,0:0:0:0:
320,192,15771,1,0,0:0:0:0:
448,192,15820,128,0,16119:0:0:0:0:
64,192,15820,128,0,16119:0:0:0:0:
320,192,16119,1,0,0:0:0:0:
192,192,16119,1,0,0:0:0:0:
448,192,16417,1,0,0:0:0:0:
64,192,16417,1,0,0:0:0:0:
448,192,16716,1,0,0:0:0:0:
320,192,16766,1,0,0:0:0:0:
192,192,16815,1,0,0:0:0:0:
64,192,16865,1,0,0:0:0:0:
448,192,16865,1,0,0:0:0:0:
320,192,16915,1,0,0:0:0:0:
192,192,16965,1,0,0:0:0:0:
64,192,17014,128,0,17313:0:0:0:0:
448,192,17014,128,0,17313:0:0:0:0:
320,192,17313,1,0,0:0:0:0:
192,192,17313,1,0,0:0:0:0:
320,192,17611,1,0,0:0:0:0:
192,192,17611,1,0,0:0:0:0:
448,192,17910,1,0,0:0:0:0:
320,192,17960,1,0,0:0:0:0:
64,192,18009,1,0,0:0:0:0:
192,192,18059,1,0,0:0:0:0:
448,192,18109,1,0,0:0:0:0:
320,192,18159,1,0,0:0:0:0:
64,192,18208,1,0,0:0:0:0:
192,192,18258,1,0,0:0:0:0:
448,192,18308,1,0,0:0:0:0:
320,192,18358,1,0,0:0:0:0:
192,192,18407,1,0,0:0:0:0:
64,192,18457,1,0,0:0:0:0:
448,192,18507,1,0,0:0:0:0:
320,192,18557,1,0,0:0:0:0:
192,192,18606,1,0,0:0:0:0:
64,192,18656,1,0,0:0:0:0:
320,192,18706,1,0,0:0:0:0:
448,192,18756,1,0,0:0:0:0:
64,192,18805,1,0,0:0:0:0:
192,192,18855,1,0,0:0:0:0:
320,192,18905,1,0,0:0:0:0:
448,192,18955,1,0,0:0:0:0:
192,192,18955,1,0,0:0:0:0:
64,192,18955,1,0,0:0:0:0:
448,192,19402,1,0,0:0:0:0:
64,192,19402,1,0,0:0:0:0:
192,192,19402,1,0,0:0:0:0:
320,192,19402,128,0,19850:0:0:0:0:
448,192,19850,1,0,0:0:0:0:
192,192,19850,1,0,0:0:0:0:
64,192,19850,128,0,20298:0:0:0:0:
448,192,20298,1,0,0:0:0:0:
192,192,20298,1,0,0:0:0:0:
448,192,20447,1,0,0:0:0:0:
64,192,20447,1,0,0:0:0:0:
320,192,20597,128,0,20746:0:0:0:0:
448,192,20597,128,0,20746:0:0:0:0:
64,192,20746,1,0,0:0:0:0:
192,192,20820,1,0,0:0:0:0:
320,192,20895,1,0,0:0:0:0:
448,192,20970,1,0,0:0:0:0:
64,192,20970,1,0,0:0:0:0:
192,192,20970,1,0,0:0:0:0:
320,192,21044,1,0,0:0:0:0:
448,192,21044,128,0,21492:0:0:0:0:
64,192,21194,1,0,0:0:0:0:
192,192,21194,1,0,0:0:0:0:
320,192,21343,1,0,0:0:0:0:
192,192,21343,1,0,0:0:0:0:
64,192,21492,1,0,0:0:0:0:
192,192,21492,1,0,0:0:0:0:
320,192,21641,1,0,0:0:0:0:
448,192,21641,1,0,0:0:0:0:
192,192,21791,1,0,0:0:0:0:
64,192,21791,1,0,0:0:0:0:
448,192,21865,1,0,0:0:0:0:
320,192,21940,1,0,0:0:0:0:
192,192,21940,1,0,0:0:0:0:
64,192,22014,1,0,0:0:0:0:
448,192,22089,1,0,0:0:0:0:
320,192,22089,128,0,22388:0:0:0:0:
192,192,22089,1,0,0:0:0:0:
64,192,22238,1,0,0:0:0:0:
192,192,22238,1,0,0:0:0:0:
448,192,22388,128,0,22686:0:0:0:0:
64,192,22388,1,0,0:0:0:0:
320,192,22537,1,0,0:0:0:0:
192,192,22537,1,0,0:0:0:0:
320,192,22686,1,0,0:0:0:0:
64,192,22686,1,0,0:0:0:0:
448,192,22835,1,0,0:0:0:0:
64,192,22835,1,0,0:0:0:0:
448,192,22985,1,0,0:0:0:0:
192,192,22985,1,0,0:0:0:0:
64,192,23134,1,0,0:0:0:0:
192,192,23134,1,0,0:0:0:0:
320,192,23208,1,0,0:0:0:0:
448,192,23283,1,0,0:0:0:0:
320,192,23358,1,0,0:0:0:0:
192,192,23358,1,0,0:0:0:0:
64,192,23507,1,0,0:0:0:0:
192,192,23507,1,0,0:0:0:0:
320,192,23656,128,0,23955:0:0:0:0:
64,192,23656,1,0,0:0:0:0:
448,192,23656,1,0,0:0:0:0:
448,192,23955,1,0,0:0:0:0:
192,192,23955,1,0,0:0:0:0:
64,192,24029,1,0,0:0:0:0:
192,192,24104,1,0,0:0:0:0:
448,192,24104,1,0,0:0:0:0:
320,192,24179,1,0,0:0:0:0:
64,192,24253,1,0,0:0:0:0:
192,192,24253,1,0,0:0:0:0:
320,192,24328,1,0,0:0:0:0:
448,192,24402,1,0,0:0:0:0:
192,192,24402,1,0,0:0:0:0:
64,192,24477,1,0,0:0:0:0:
448,192,24552,1,0,0:0:0:0:
320,192,24552,1,0,0:0:0:0:
192,192,24552,1,0,0:0:0:0:
64,192,24626,1,0,0:0:0:0:
192,192,24676,1,0,0:0:0:0:
320,192,24726,1,0,0:0:0:0:
64,192,24776,1,0,0:0:0:0:
448,192,24776,1,0,0:0:0:0:
192,192,24776,1,0,0:0:0:0:
64,192,24925,1,0,0:0:0:0:
192,192,24925,1,0,0:0:0:0:
448,192,24925,1,0,0:0:0:0:
448,192,25074,1,0,0:0:0:0:
64,192,25074,1,0,0:0:0:0:
192,192,25149,1,0,0:0:0:0:
64,192,25223,1,0,0:0:0:0:
448,192,25223,1,0,0:0:0:0:
320,192,25298,1,0,0:0:0:0:
448,192,25373,1,0,0:0:0:0:
64,192,25373,1,0,0:0:0:0:
192,192,25447,1,0,0:0:0:0:
320,192,25522,1,0,0:0:0:0:
448,192,25522,128,0,25671:0:0:0:0:
192,192,25671,1,0,0:0:0:0:
320,192,25671,1,0,0:0:0:0:
64,192,25671,128,0,25970:0:0:0:0:
448,192,25820,1,0,0:0:0:0:
192,192,25820,1,0,0:0:0:0:
448,192,25970,1,0,0:0:0:0:
320,192,25970,1,0,0:0:0:0:
192,192,26119,1,0,0:0:0:0:
64,192,26119,1,0,0:0:0:0:
64,192,26268,1,0,0:0:0:0:
448,192,26268,1,0,0:0:0:0:
320,192,26268,1,0,0:0:0:0:
448,192,26417,1,0,0:0:0:0:
64,192,26417,1,0,0:0:0:0:
320,192,26492,1,0,0:0:0:0:
192,192,26567,1,0,0:0:0:0:
64,192,26567,1,0,0:0:0:0:
320,192,26641,1,0,0:0:0:0:
448,192,26641,1,0,0:0:0:0:
64,192,26716,1,0,0:0:0:0:
192,192,26716,1,0,0:0:0:0:
320,192,26791,1,0,0:0:0:0:
448,192,26791,1,0,0:0:0:0:
64,192,26865,1,0,0:0:0:0:
192,192,26865,1,0,0:0:0:0:
448,192,26865,1,0,0:0:0:0:
64,192,27014,1,0,0:0:0:0:
192,192,27014,1,0,0:0:0:0:
320,192,27089,1,0,0:0:0:0:
448,192,27164,128,0,27313:0:0:0:0:
64,192,27164,1,0,0:0:0:0:
320,192,27313,1,0,0:0:0:0:
192,192,27313,1,0,0:0:0:0:
448,192,27462,1,0,0:0:0:0:
64,192,27462,128,0,27910:0:0:0:0:
320,192,27462,1,0,0:0:0:0:
448,192,27910,1,0,0:0:0:0:
320,192,27960,1,0,0:0:0:0:
192,192,28009,1,0,0:0:0:0:
320,192,28059,1,0,0:0:0:0:
448,192,28059,128,0,28358:0:0:0:0:
64,192,28059,1,0,0:0:0:0:
64,192,28208,1,0,0:0:0:0:
192,192,28208,1,0,0:0:0:0:
320,192,28358,1,0,0:0:0:0:
64,192,28358,1,0,0:0:0:0:
192,192,28432,1,0,0:0:0:0:
320,192,28507,1,0,0:0:0:0:
64,192,28507,1,0,0:0:0:0:
448,192,28582,1,0,0:0:0:0:
192,192,28656,1,0,0:0:0:0:
64,192,28656,1,0,0:0:0:0:
320,192,28731,1,0,0:0:0:0:
448,192,28805,1,0,0:0:0:0:
64,192,28805,1,0,0:0:0:0:
320,192,28880,1,0,0:0:0:0:
192,192,28955,1,0,0:0:0:0:
64,192,28955,128,0,29253:0:0:0:0:
320,192,29104,1,0,0:0:0:0:
448,192,29104,1,0,0:0:0:0:
192,192,29253,1,0,0:0:0:0:
448,192,29253,1,0,0:0:0:0:
320,192,29253,128,0,29701:0:0:0:0:
64,192,29402,1,0,0:0:0:0:
192,192,29402,1,0,0:0:0:0:
64,192,29552,1,0,0:0:0:0:
192,192,29552,1,0,0:0:0:0:
64,192,29701,1,0,0:0:0:0:
192,192,29701,1,0,0:0:0:0:
192,192,29850,128,0,30149:0:0:0:0:
64,192,29850,1,0,0:0:0:0:
448,192,29850,1,0,0:0:0:0:
448,192,30149,128,0,30597:0:0:0:0:
320,192,30149,1,0,0:0:0:0:
320,192,30597,1,0,0:0:0:0:
192,192,30597,1,0,0:0:0:0:
320,192,30746,1,0,0:0:0:0:
448,192,30746,1,0,0:0:0:0:
192,192,30820,1,0,0:0:0:0:
64,192,30820,1,0,0:0:0:0:
320,192,30895,1,0,0:0:0:0:
448,192,30895,1,0,0:0:0:0:
192,192,30970,1,0,0:0:0:0:
64,192,30970,1,0,0:0:0:0:
320,192,31044,1,0,0:0:0:0:
448,192,31044,128,0,31343:0:0:0:0:
64,192,31343,128,0,31641:0:0:0:0:
192,192,31343,1,0,0:0:0:0:
320,192,31641,1,0,0:0:0:0:
448,192,31641,128,0,31940:0:0:0:0:
192,192,31716,1,0,0:0:0:0:
64,192,31791,1,0,0:0:0:0:
320,192,31865,1,0,0:0:0:0:
192,192,31940,1,0,0:0:0:0:
64,192,31940,128,0,32388:0:0:0:0:
448,192,32388,128,0,33134:0:0:0:0:
320,192,32537,1,0,0:0:0:0:
192,192,32611,1,0,0:0:0:0:
64,192,32686,1,0,0:0:0:0:
64,192,33134,128,0,33432:0:0:0:0:
320,192,33134,1,0,0:0:0:0:
192,192,33208,1,0,0:0:0:0:
320,192,33283,1,0,0:0:0:0:
448,192,33358,1,0,0:0:0:0:
192,192,33432,1,0,0:0:0:0:
320,192,33432,1,0,0:0:0:0:
192,192,33731,1,0,0:0:0:0:
64,192,33731,128,0,34179:0:0:0:0:
320,192,34179,1,0,0:0:0:0:
192,192,34179,128,0,34626:0:0:0:0:
320,192,34626,1,0,0:0:0:0:
448,192,34626,1,0,0:0:0:0:
64,192,34701,1,0,0:0:0:0:
192,192,34776,1,0,0:0:0:0:
320,192,34850,1,0,0:0:0:0:
448,192,34925,1,0,0:0:0:0:
320,192,34999,1,0,0:0:0:0:
64,192,35074,1,0,0:0:0:0:
192,192,35074,1,0,0:0:0:0:
320,192,35149,1,0,0:0:0:0:
448,192,35149,1,0,0:0:0:0:
64,192,35223,1,0,0:0:0:0:
192,192,35223,128,0,35522:0:0:0:0:
448,192,35522,1,0,0:0:0:0:
64,192,35522,128,0,36119:0:0:0:0:
448,192,35820,1,0,0:0:0:0:
320,192,35820,1,0,0:0:0:0:
192,192,36119,1,0,0:0:0:0:
448,192,36119,128,0,36716:0:0:0:0:
320,192,36268,1,0,0:0:0:0:
192,192,36417,1,0,0:0:0:0:
64,192,36567,1,0,0:0:0:0:
192,192,36716,1,0,0:0:0:0:
320,192,36865,1,0,0:0:0:0:
64,192,36865,1,0,0:0:0:0:
64,192,37014,128,0,38208:0:0:0:0:
320,192,37014,1,0,0:0:0:0:
448,192,37014,128,0,38208:0:0:0:0:
192,192,37164,1,0,0:0:0:0:
320,192,37313,1,0,0:0:0:0:
192,192,37462,1,0,0:0:0:0:
320,192,37611,1,0,0:0:0:0:
192,192,37686,1,0,0:0:0:0:
320,192,37761,1,0,0:0:0:0:
192,192,38059,1,0,0:0:0:0:
192,192,38208,128,0,39402:0:0:0:0:
320,192,38208,1,0,0:0:0:0:
320,192,38432,1,0,0:0:0:0:
64,192,38432,1,0,0:0:0:0:
448,192,38656,1,0,0:0:0:0:
64,192,38656,1,0,0:0:0:0:
448,192,38843,1,0,0:0:0:0:
320,192,38843,1,0,0:0:0:0:
320,192,39029,1,0,0:0:0:0:
64,192,39029,1,0,0:0:0:0:
320,192,39253,1,0,0:0:0:0:
448,192,39253,1,0,0:0:0:0:
320,192,39402,1,0,0:0:0:0:
64,192,39402,128,0,39999:0:0:0:0:
448,192,39552,1,0,0:0:0:0:
320,192,39701,1,0,0:0:0:0:
192,192,39850,1,0,0:0:0:0:
320,192,39999,1,0,0:0:0:0:
448,192,39999,128,0,40597:0:0:0:0:
192,192,40298,1,0,0:0:0:0:
320,192,40298,128,0,40597:0:0:0:0:
192,192,40597,128,0,41194:0:0:0:0:
64,192,40597,128,0,41194:0:0:0:0:
448,192,41194,1,0,0:0:0:0:
320,192,41194,1,0,0:0:0:0:
64,192,41343,1,0,0:0:0:0:
448,192,41343,1,0,0:0:0:0:
192,192,41343,1,0,0:0:0:0:
448,192,41492,1,0,0:0:0:0:
64,192,41492,1,0,0:0:0:0:
320,192,41492,1,0,0:0:0:0:
64,192,41641,1,0,0:0:0:0:
448,192,41641,1,0,0:0:0:0:
192,192,41641,1,0,0:0:0:0:
192,192,41791,1,0,0:0:0:0:
320,192,41791,128,0,42388:0:0:0:0:
448,192,41791,1,0,0:0:0:0:
64,192,42089,1,0,0:0:0:0:
448,192,42089,1,0,0:0:0:0:
64,192,42388,1,0,0:0:0:0:
448,192,42388,128,0,42985:0:0:0:0:
192,192,42686,1,0,0:0:0:0:
64,192,42686,128,0,42985:0:0:0:0:
320,192,42985,128,0,43582:0:0:0:0:
192,192,42985,1,0,0:0:0:0:
448,192,43283,128,0,43582:0:0:0:0:
64,192,43283,1,0,0:0:0:0:
64,192,43582,128,0,44179:0:0:0:0:
192,192,43582,128,0,44179:0:0:0:0:
320,192,43880,1,0,0:0:0:0:
448,192,43880,1,0,0:0:0:0:
320,192,44179,1,0,0:0:0:0:
448,192,44179,1,0,0:0:0:0:
192,192,44253,1,0,0:0:0:0:
64,192,44253,1,0,0:0:0:0:
320,192,44328,1,0,0:0:0:0:
448,192,44328,1,0,0:0:0:0:
192,192,44402,1,0,0:0:0:0:
64,192,44402,1,0,0:0:0:0:
320,192,44477,1,0,0:0:0:0:
448,192,44477,128,0,44776:0:0:0:0:
192,192,44776,128,0,45373:0:0:0:0:
320,192,44776,1,0,0:0:0:0:
64,192,44776,128,0,45373:0:0:0:0:
320,192,45373,1,0,0:0:0:0:
448,192,45373,128,0,45970:0:0:0:0:
320,192,45671,128,0,45970:0:0:0:0:
64,192,45671,1,0,0:0:0:0:
192,192,45970,1,0,0:0:0:0:
64,192,45970,1,0,0:0:0:0:
320,192,46119,1,0,0:0:0:0:
192,192,46119,1,0,0:0:0:0:
448,192,46119,1,0,0:0:0:0:
64,192,46268,1,0,0:0:0:0:
192,192,46268,1,0,0:0:0:0:
320,192,46268,1,0,0:0:0:0:
192,192,46417,1,0,0:0:0:0:
320,192,46417,1,0,0:0:0:0:
448,192,46417,1,0,0:0:0:0:
448,192,46567,1,0,0:0:0:0:
192,192,46567,1,0,0:0:0:0:
64,192,46567,128,0,47164:0:0:0:0:
192,192,46865,1,0,0:0:0:0:
320,192,46940,1,0,0:0:0:0:
448,192,47014,1,0,0:0:0:0:
192,192,47164,1,0,0:0:0:0:
320,192,47164,1,0,0:0:0:0:
448,192,47164,128,0,47761:0:0:0:0:
192,192,47462,1,0,0:0:0:0:
64,192,47462,128,0,47761:0:0:0:0:
192,192,47761,1,0,0:0:0:0:
320,192,47761,128,0,48358:0:0:0:0:
192,192,48358,1,0,0:0:0:0:
64,192,48358,1,0,0:0:0:0:
448,192,48656,1,0,0:0:0:0:
320,192,48656,1,0,0:0:0:0:
64,192,48656,1,0,0:0:0:0:
448,192,48955,1,0,0:0:0:0:
192,192,48955,1,0,0:0:0:0:
64,192,48955,128,0,49552:0:0:0:0:
320,192,48955,128,0,49552:0:0:0:0:
448,192,49253,1,0,0:0:0:0:
192,192,49253,1,0,0:0:0:0:
448,192,49552,1,0,0:0:0:0:
192,192,49552,128,0,50149:0:0:0:0:
448,192,49850,1,0,0:0:0:0:
64,192,49850,1,0,0:0:0:0:
64,192,50149,128,0,50746:0:0:0:0:
320,192,50149,128,0,50746:0:0:0:0:
448,192,50149,1,0,0:0:0:0:
192,192,50447,1,0,0:0:0:0:
448,192,50447,1,0,0:0:0:0:
192,192,50746,1,0,0:0:0:0:
448,192,50746,128,0,51044:0:0:0:0:
64,192,51044,1,0,0:0:0:0:
192,192,51044,1,0,0:0:0:0:
320,192,51094,1,0,0:0:0:0:
192,192,51144,1,0,0:0:0:0:
448,192,51194,1,0,0:0:0:0:
64,192,51194,1,0,0:0:0:0:
320,192,51243,1,0,0:0:0:0:
192,192,51293,1,0,0:0:0:0:
448,192,51343,1,0,0:0:0:0:
320,192,51343,128,0,51940:0:0:0:0:
64,192,51343,1,0,0:0:0:0:
448,192,51940,1,0,0:0:0:0:
192,192,51940,128,0,52537:0:0:0:0:
64,192,51940,128,0,52537:0:0:0:0:
448,192,52238,1,0,0:0:0:0:
320,192,52238,1,0,0:0:0:0:
320,192,52537,1,0,0:0:0:0:
448,192,52537,128,0,53134:0:0:0:0:
64,192,53134,1,0,0:0:0:0:
320,192,53134,1,0,0:0:0:0:
64,192,53283,1,0,0:0:0:0:
448,192,53283,1,0,0:0:0:0:
192,192,53283,1,0,0:0:0:0:
320,192,53432,1,0,0:0:0:0:
64,192,53432,1,0,0:0:0:0:
448,192,53432,1,0,0:0:0:0:
448,192,53582,1,0,0:0:0:0:
192,192,53582,1,0,0:0:0:0:
64,192,53582,1,0,0:0:0:0:
320,192,53731,1,0,0:0:0:0:
448,192,53731,1,0,0:0:0:0:
64,192,53731,128,0,54328:0:0:0:0:
192,192,54328,1,0,0:0:0:0:
320,192,54328,1,0,0:0:0:0:
448,192,54378,1,0,0:0:0:0:
320,192,54427,1,0,0:0:0:0:
192,192,54477,1,0,0:0:0:0:
64,192,54527,1,0,0:0:0:0:
448,192,54527,1,0,0:0:0:0:
320,192,54577,1,0,0:0:0:0:
64,192,54626,1,0,0:0:0:0:
192,192,54676,1,0,0:0:0:0:
448,192,54726,1,0,0:0:0:0:
320,192,54776,1,0,0:0:0:0:
64,192,54825,1,0,0:0:0:0:
192,192,54875,1,0,0:0:0:0:
320,192,54925,1,0,0:0:0:0:
448,192,54975,1,0,0:0:0:0:
192,192,54999,1,0,0:0:0:0:
320,192,54999,1,0,0:0:0:0:
64,192,54999,128,0,55522:0:0:0:0:
192,192,55522,1,0,0:0:0:0:
320,192,55597,1,0,0:0:0:0:
448,192,55597,1,0,0:0:0:0:
192,192,55671,1,0,0:0:0:0:
64,192,55671,1,0,0:0:0:0:
320,192,55746,1,0,0:0:0:0:
448,192,55746,1,0,0:0:0:0:
192,192,55820,1,0,0:0:0:0:
64,192,55820,1,0,0:0:0:0:
320,192,55895,1,0,0:0:0:0:
448,192,55895,1,0,0:0:0:0:
192,192,55970,1,0,0:0:0:0:
64,192,55970,1,0,0:0:0:0:
320,192,56044,1,0,0:0:0:0:
448,192,56044,1,0,0:0:0:0:
64,192,56119,1,0,0:0:0:0:
192,192,56119,128,0,56268:0:0:0:0:
448,192,56119,1,0,0:0:0:0:
320,192,56268,128,0,56417:0:0:0:0:
64,192,56268,1,0,0:0:0:0:
192,192,56417,1,0,0:0:0:0:
448,192,56417,128,0,56567:0:0:0:0:
192,192,56567,128,0,56716:0:0:0:0:
320,192,56567,1,0,0:0:0:0:
64,192,56716,128,0,56865:0:0:0:0:
448,192,56716,1,0,0:0:0:0:
320,192,56865,1,0,0:0:0:0:
448,192,56865,128,0,57014:0:0:0:0:
192,192,57014,1,0,0:0:0:0:
320,192,57014,128,0,57164:0:0:0:0:
64,192,57164,1,0,0:0:0:0:
192,192,57164,128,0,57313:0:0:0:0:
320,192,57313,1,0,0:0:0:0:
448,192,57313,128,0,57462:0:0:0:0:
320,192,57462,1,0,0:0:0:0:
192,192,57462,128,0,57611:0:0:0:0:
320,192,57611,1,0,0:0:0:0:
64,192,57611,128,0,57761:0:0:0:0:
448,192,57761,1,0,0:0:0:0:
192,192,57761,128,0,57910:0:0:0:0:
448,192,57910,1,0,0:0:0:0:
320,192,57910,128,0,58059:0:0:0:0:
448,192,58059,1,0,0:0:0:0:
64,192,58059,128,0,58208:0:0:0:0:
192,192,58208,1,0,0:0:0:0:
448,192,58208,128,0,58358:0:0:0:0:
192,192,58358,1,0,0:0:0:0:
320,192,58358,128,0,58507:0:0:0:0:
192,192,58507,1,0,0:0:0:0:
64,192,58507,1,0,0:0:0:0:
448,192,58507,1,0,0:0:0:0:
192,192,58656,1,0,0:0:0:0:
320,192,58656,1,0,0:0:0:0:
448,192,58656,1,0,0:0:0:0:
64,192,58656,1,0,0:0:0:0:
448,192,58955,1,0,0:0:0:0:
192,192,58955,1,0,0:0:0:0:
64,192,58955,1,0,0:0:0:0:
320,192,58955,1,0,0:0:0:0:
192,192,59104,1,0,0:0:0:0:
448,192,59104,1,0,0:0:0:0:
64,192,59104,1,0,0:0:0:0:
320,192,59253,1,0,0:0:0:0:
448,192,59253,1,0,0:0:0:0:
64,192,59253,1,0,0:0:0:0:
192,192,59253,1,0,0:0:0:0:
320,192,59552,1,0,0:0:0:0:
192,192,59552,1,0,0:0:0:0:
64,192,59552,1,0,0:0:0:0:
448,192,59552,1,0,0:0:0:0:
192,192,59850,1,0,0:0:0:0:
320,192,59850,1,0,0:0:0:0:
448,192,59850,1,0,0:0:0:0:
64,192,59850,1,0,0:0:0:0:
320,192,59999,1,0,0:0:0:0:
192,192,59999,1,0,0:0:0:0:
448,192,59999,1,0,0:0:0:0:
64,192,60895,1,0,0:0:0:0:
448,192,60895,128,0,61492:0:0:0:0:
192,192,60895,128,0,61492:0:0:0:0:
320,192,60895,1,0,0:0:0:0:
320,192,61194,1,0,0:0:0:0:
64,192,61194,1,0,0:0:0:0:
320,192,61492,1,0,0:0:0:0:
64,192,61492,128,0,61940:0:0:0:0:
448,192,61791,1,0,0:0:0:0:
192,192,61791,1,0,0:0:0:0:
192,192,61940,1,0,0:0:0:0:
448,192,61940,1,0,0:0:0:0:
320,192,62014,1,0,0:0:0:0:
64,192,62014,1,0,0:0:0:0:
192,192,62089,128,0,62686:0:0:0:0:
448,192,62089,1,0,0:0:0:0:
448,192,62238,1,0,0:0:0:0:
320,192,62238,1,0,0:0:0:0:
64,192,62238,1,0,0:0:0:0:
64,192,62686,128,0,63283:0:0:0:0:
448,192,62686,1,0,0:0:0:0:
320,192,62686,128,0,62985:0:0:0:0:
192,192,62985,128,0,63283:0:0:0:0:
448,192,62985,1,0,0:0:0:0:
448,192,63283,128,0,63880:0:0:0:0:
320,192,63283,128,0,63582:0:0:0:0:
192,192,63582,128,0,63880:0:0:0:0:
64,192,63582,1,0,0:0:0:0:
320,192,63880,1,0,0:0:0:0:
64,192,63880,128,0,64179:0:0:0:0:
448,192,64179,1,0,0:0:0:0:
320,192,64179,1,0,0:0:0:0:
192,192,64253,1,0,0:0:0:0:
64,192,64253,1,0,0:0:0:0:
320,192,64328,1,0,0:0:0:0:
448,192,64328,1,0,0:0:0:0:
192,192,64402,1,0,0:0:0:0:
64,192,64402,1,0,0:0:0:0:
448,192,64477,1,0,0:0:0:0:
320,192,64477,1,0,0:0:0:0:
192,192,64552,1,0,0:0:0:0:
64,192,64552,1,0,0:0:0:0:
320,192,64626,1,0,0:0:0:0:
64,192,64626,1,0,0:0:0:0:
448,192,64626,128,0,65074:0:0:0:0:
320,192,65074,1,0,0:0:0:0:
64,192,65074,1,0,0:0:0:0:
192,192,65074,1,0,0:0:0:0:
320,192,65223,1,0,0:0:0:0:
448,192,65223,1,0,0:0:0:0:
64,192,65223,1,0,0:0:0:0:
320,192,65373,1,0,0:0:0:0:
448,192,65373,1,0,0:0:0:0:
64,192,65373,1,0,0:0:0:0:
192,192,65373,1,0,0:0:0:0:
64,192,65522,1,0,0:0:0:0:
192,192,65522,1,0,0:0:0:0:
448,192,65522,1,0,0:0:0:0:
64,192,65671,1,0,0:0:0:0:
192,192,65671,1,0,0:0:0:0:
448,192,65671,1,0,0:0:0:0:
320,192,65671,1,0,0:0:0:0:
64,192,65895,1,0,0:0:0:0:
448,192,65895,1,0,0:0:0:0:
320,192,65970,1,0,0:0:0:0:
192,192,65970,1,0,0:0:0:0:
448,192,66044,1,0,0:0:0:0:
64,192,66044,1,0,0:0:0:0:
320,192,66119,1,0,0:0:0:0:
192,192,66119,1,0,0:0:0:0:
448,192,66194,1,0,0:0:0:0:
64,192,66194,1,0,0:0:0:0:
192,192,66268,128,0,66865:0:0:0:0:
320,192,66268,1,0,0:0:0:0:
448,192,66567,1,0,0:0:0:0:
64,192,66567,1,0,0:0:0:0:
448,192,66865,1,0,0:0:0:0:
64,192,66865,128,0,67462:0:0:0:0:
320,192,66865,1,0,0:0:0:0:
320,192,67164,1,0,0:0:0:0:
448,192,67164,1,0,0:0:0:0:
192,192,67238,1,0,0:0:0:0:
320,192,67313,1,0,0:0:0:0:
448,192,67313,1,0,0:0:0:0:
192,192,67388,1,0,0:0:0:0:
448,192,67462,128,0,68059:0:0:0:0:
320,192,67462,1,0,0:0:0:0:
192,192,67761,1,0,0:0:0:0:
320,192,67761,128,0,68059:0:0:0:0:
192,192,68059,1,0,0:0:0:0:
64,192,68059,128,0,68208:0:0:0:0:
320,192,68208,1,0,0:0:0:0:
192,192,68208,128,0,68358:0:0:0:0:
448,192,68358,1,0,0:0:0:0:
320,192,68358,128,0,68507:0:0:0:0:
192,192,68507,1,0,0:0:0:0:
448,192,68507,128,0,68656:0:0:0:0:
320,192,68656,1,0,0:0:0:0:
64,192,68656,128,0,68805:0:0:0:0:
192,192,68656,1,0,0:0:0:0:
320,192,68805,1,0,0:0:0:0:
192,192,68805,128,0,68955:0:0:0:0:
448,192,68955,1,0,0:0:0:0:
320,192,68955,128,0,69104:0:0:0:0:
448,192,69104,128,0,69253:0:0:0:0:
192,192,69104,1,0,0:0:0:0:
192,192,69253,1,0,0:0:0:0:
320,192,69253,128,0,69402:0:0:0:0:
64,192,69402,1,0,0:0:0:0:
192,192,69402,128,0,69552:0:0:0:0:
64,192,69552,128,0,69701:0:0:0:0:
192,192,69701,1,0,0:0:0:0:
320,192,69701,128,0,69850:0:0:0:0:
192,192,69850,1,0,0:0:0:0:
448,192,69850,1,0,0:0:0:0:
64,192,69850,1,0,0:0:0:0:
448,192,69999,1,0,0:0:0:0:
64,192,69999,1,0,0:0:0:0:
192,192,69999,1,0,0:0:0:0:
192,192,70149,1,0,0:0:0:0:
320,192,70149,1,0,0:0:0:0:
320,192,70298,1,0,0:0:0:0:
448,192,70298,1,0,0:0:0:0:
64,192,70298,1,0,0:0:0:0:
320,192,70447,128,0,71044:0:0:0:0:
192,192,70447,1,0,0:0:0:0:
448,192,70447,1,0,0:0:0:0:
64,192,70447,128,0,71044:0:0:0:0:
192,192,70746,1,0,0:0:0:0:
448,192,70746,1,0,0:0:0:0:
448,192,71044,128,0,71641:0:0:0:0:
192,192,71044,128,0,71641:0:0:0:0:
64,192,71641,128,0,72238:0:0:0:0:
320,192,71641,1,0,0:0:0:0:
320,192,71791,1,0,0:0:0:0:
192,192,71791,1,0,0:0:0:0:
320,192,71940,1,0,0:0:0:0:
448,192,71940,1,0,0:0:0:0:
320,192,72089,1,0,0:0:0:0:
192,192,72089,1,0,0:0:0:0:
192,192,72238,128,0,72835:0:0:0:0:
448,192,72238,1,0,0:0:0:0:
320,192,72238,1,0,0:0:0:0:
448,192,72537,1,0,0:0:0:0:
64,192,72537,1,0,0:0:0:0:
320,192,72835,128,0,73432:0:0:0:0:
448,192,72835,128,0,73432:0:0:0:0:
64,192,72835,1,0,0:0:0:0:
192,192,73134,1,0,0:0:0:0:
64,192,73134,1,0,0:0:0:0:
192,192,73432,1,0,0:0:0:0:
64,192,73432,128,0,73880:0:0:0:0:
192,192,73731,1,0,0:0:0:0:
448,192,73731,1,0,0:0:0:0:
320,192,73880,1,0,0:0:0:0:
448,192,73880,1,0,0:0:0:0:
192,192,73955,1,0,0:0:0:0:
64,192,73955,1,0,0:0:0:0:
448,192,74029,128,0,74626:0:0:0:0:
320,192,74029,128,0,74626:0:0:0:0:
64,192,74029,1,0,0:0:0:0:
64,192,74626,1,0,0:0:0:0:
448,192,74776,1,0,0:0:0:0:
64,192,74776,1,0,0:0:0:0:
192,192,74776,1,0,0:0:0:0:
320,192,74925,1,0,0:0:0:0:
448,192,74925,1,0,0:0:0:0:
64,192,74925,1,0,0:0:0:0:
64,192,75074,1,0,0:0:0:0:
192,192,75074,1,0,0:0:0:0:
448,192,75074,1,0,0:0:0:0:
64,192,75223,1,0,0:0:0:0:
192,192,75273,1,0,0:0:0:0:
320,192,75323,1,0,0:0:0:0:
448,192,75373,1,0,0:0:0:0:
64,192,75373,1,0,0:0:0:0:
192,192,75422,1,0,0:0:0:0:
320,192,75472,1,0,0:0:0:0:
448,192,75522,1,0,0:0:0:0:
64,192,75522,128,0,75820:0:0:0:0:
192,192,75522,128,0,75820:0:0:0:0:
448,192,75820,1,0,0:0:0:0:
320,192,75820,1,0,0:0:0:0:
192,192,76119,1,0,0:0:0:0:
320,192,76119,1,0,0:0:0:0:
448,192,76417,1,0,0:0:0:0:
320,192,76467,1,0,0:0:0:0:
192,192,76517,1,0,0:0:0:0:
64,192,76567,1,0,0:0:0:0:
448,192,76567,1,0,0:0:0:0:
320,192,76616,1,0,0:0:0:0:
192,192,76666,1,0,0:0:0:0:
64,192,76716,1,0,0:0:0:0:
320,192,76716,128,0,77014:0:0:0:0:
448,192,76716,128,0,77014:0:0:0:0:
64,192,77014,1,0,0:0:0:0:
192,192,77014,1,0,0:0:0:0:
320,192,77313,1,0,0:0:0:0:
192,192,77313,1,0,0:0:0:0:
320,192,77611,1,0,0:0:0:0:
64,192,77611,1,0,0:0:0:0:
448,192,77661,1,0,0:0:0:0:
192,192,77711,1,0,0:0:0:0:
64,192,77761,1,0,0:0:0:0:
320,192,77810,1,0,0:0:0:0:
448,192,77860,1,0,0:0:0:0:
192,192,77910,1,0,0:0:0:0:
64,192,77960,1,0,0:0:0:0:
448,192,78009,1,0,0:0:0:0:
320,192,78059,1,0,0:0:0:0:
192,192,78109,1,0,0:0:0:0:
64,192,78159,1,0,0:0:0:0:
192,192,78208,1,0,0:0:0:0:
320,192,78208,1,0,0:0:0:0:
448,192,78208,1,0,0:0:0:0:
64,192,78358,1,0,0:0:0:0:
192,192,78407,1,0,0:0:0:0:
448,192,78457,1,0,0:0:0:0:
320,192,78507,1,0,0:0:0:0:
64,192,78557,1,0,0:0:0:0:
192,192,78606,1,0,0:0:0:0:
320,192,78656,1,0,0:0:0:0:
448,192,78656,1,0,0:0:0:0:
64,192,78656,1,0,0:0:0:0:
448,192,79104,128,0,79552:0:0:0:0:
192,192,79104,1,0,0:0:0:0:
64,192,79104,1,0,0:0:0:0:
64,192,79552,128,0,79999:0:0:0:0:
320,192,79552,1,0,0:0:0:0:
192,192,79552,1,0,0:0:0:0:
192,192,79999,1,0,0:0:0:0:
448,192,79999,1,0,0:0:0:0:
320,192,80149,1,0,0:0:0:0:
64,192,80149,1,0,0:0:0:0:
192,192,80298,1,0,0:0:0:0:
320,192,80298,1,0,0:0:0:0:
192,192,80447,1,0,0:0:0:0:
64,192,80447,1,0,0:0:0:0:
320,192,80597,1,0,0:0:0:0:
448,192,80597,1,0,0:0:0:0:
64,192,80597,128,0,80895:0:0:0:0:
448,192,80746,1,0,0:0:0:0:
320,192,80746,1,0,0:0:0:0:
320,192,80895,1,0,0:0:0:0:
448,192,80895,1,0,0:0:0:0:
192,192,81044,1,0,0:0:0:0:
320,192,81044,1,0,0:0:0:0:
64,192,81194,1,0,0:0:0:0:
448,192,81194,1,0,0:0:0:0:
192,192,81194,1,0,0:0:0:0:
320,192,81268,1,0,0:0:0:0:
64,192,81343,1,0,0:0:0:0:
448,192,81343,1,0,0:0:0:0:
192,192,81417,1,0,0:0:0:0:
320,192,81492,1,0,0:0:0:0:
448,192,81492,1,0,0:0:0:0:
64,192,81567,1,0,0:0:0:0:
192,192,81641,1,0,0:0:0:0:
448,192,81641,1,0,0:0:0:0:
192,192,81791,1,0,0:0:0:0:
64,192,81791,1,0,0:0:0:0:
448,192,81791,1,0,0:0:0:0:
448,192,81940,1,0,0:0:0:0:
192,192,81940,1,0,0:0:0:0:
320,192,82089,1,0,0:0:0:0:
192,192,82089,1,0,0:0:0:0:
192,192,82238,1,0,0:0:0:0:
64,192,82238,1,0,0:0:0:0:
448,192,82238,1,0,0:0:0:0:
320,192,82388,1,0,0:0:0:0:
192,192,82388,1,0,0:0:0:0:
64,192,82388,128,0,82835:0:0:0:0:
448,192,82537,1,0,0:0:0:0:
320,192,82537,1,0,0:0:0:0:
448,192,82686,1,0,0:0:0:0:
192,192,82686,1,0,0:0:0:0:
320,192,82835,1,0,0:0:0:0:
192,192,82835,1,0,0:0:0:0:
192,192,82985,1,0,0:0:0:0:
64,192,82985,1,0,0:0:0:0:
320,192,83134,1,0,0:0:0:0:
448,192,83134,1,0,0:0:0:0:
64,192,83134,1,0,0:0:0:0:
320,192,83283,1,0,0:0:0:0:
192,192,83283,1,0,0:0:0:0:
192,192,83432,1,0,0:0:0:0:
64,192,83432,1,0,0:0:0:0:
320,192,83582,1,0,0:0:0:0:
448,192,83582,1,0,0:0:0:0:
192,192,83731,1,0,0:0:0:0:
64,192,83731,1,0,0:0:0:0:
320,192,83880,1,0,0:0:0:0:
448,192,83880,1,0,0:0:0:0:
320,192,84029,1,0,0:0:0:0:
192,192,84029,1,0,0:0:0:0:
64,192,84179,1,0,0:0:0:0:
192,192,84179,1,0,0:0:0:0:
448,192,84179,1,0,0:0:0:0:
64,192,84328,1,0,0:0:0:0:
192,192,84328,1,0,0:0:0:0:
448,192,84402,1,0,0:0:0:0:
320,192,84402,1,0,0:0:0:0:
192,192,84477,1,0,0:0:0:0:
64,192,84477,1,0,0:0:0:0:
320,192,84552,1,0,0:0:0:0:
448,192,84552,1,0,0:0:0:0:
192,192,84626,1,0,0:0:0:0:
64,192,84626,1,0,0:0:0:0:
320,192,84701,1,0,0:0:0:0:
448,192,84701,1,0,0:0:0:0:
64,192,84776,1,0,0:0:0:0:
192,192,84776,1,0,0:0:0:0:
320,192,84850,1,0,0:0:0:0:
64,192,84925,1,0,0:0:0:0:
448,192,84925,1,0,0:0:0:0:
192,192,84999,1,0,0:0:0:0:
448,192,85074,1,0,0:0:0:0:
64,192,85074,1,0,0:0:0:0:
320,192,85149,1,0,0:0:0:0:
192,192,85223,1,0,0:0:0:0:
64,192,85223,1,0,0:0:0:0:
320,192,85298,1,0,0:0:0:0:
192,192,85373,1,0,0:0:0:0:
64,192,85373,1,0,0:0:0:0:
448,192,85373,1,0,0:0:0:0:
320,192,85447,1,0,0:0:0:0:
192,192,85522,1,0,0:0:0:0:
448,192,85522,1,0,0:0:0:0:
64,192,85597,1,0,0:0:0:0:
320,192,85671,1,0,0:0:0:0:
192,192,85671,1,0,0:0:0:0:
448,192,85746,1,0,0:0:0:0:
64,192,85820,1,0,0:0:0:0:
320,192,85820,1,0,0:0:0:0:
192,192,85895,1,0,0:0:0:0:
448,192,85970,1,0,0:0:0:0:
320,192,85970,1,0,0:0:0:0:
64,192,86044,1,0,0:0:0:0:
320,192,86119,1,0,0:0:0:0:
192,192,86119,1,0,0:0:0:0:
448,192,86194,1,0,0:0:0:0:
64,192,86268,1,0,0:0:0:0:
320,192,86268,1,0,0:0:0:0:
192,192,86343,1,0,0:0:0:0:
64,192,86417,1,0,0:0:0:0:
448,192,86417,1,0,0:0:0:0:
320,192,86417,1,0,0:0:0:0:
192,192,86492,1,0,0:0:0:0:
64,192,86567,1,0,0:0:0:0:
448,192,86567,1,0,0:0:0:0:
320,192,86567,1,0,0:0:0:0:
192,192,86641,1,0,0:0:0:0:
64,192,86641,1,0,0:0:0:0:
448,192,86716,1,0,0:0:0:0:
320,192,86716,1,0,0:0:0:0:
64,192,86791,1,0,0:0:0:0:
192,192,86791,1,0,0:0:0:0:
448,192,86865,1,0,0:0:0:0:
320,192,86865,1,0,0:0:0:0:
192,192,86940,1,0,0:0:0:0:
64,192,86940,1,0,0:0:0:0:
320,192,87014,1,0,0:0:0:0:
448,192,87014,1,0,0:0:0:0:
64,192,87089,1,0,0:0:0:0:
192,192,87089,1,0,0:0:0:0:
320,192,87164,1,0,0:0:0:0:
448,192,87164,1,0,0:0:0:0:
192,192,87238,1,0,0:0:0:0:
320,192,87313,1,0,0:0:0:0:
64,192,87313,1,0,0:0:0:0:
448,192,87388,1,0,0:0:0:0:
320,192,87462,1,0,0:0:0:0:
192,192,87462,1,0,0:0:0:0:
64,192,87537,1,0,0:0:0:0:
192,192,87611,1,0,0:0:0:0:
448,192,87611,1,0,0:0:0:0:
320,192,87686,1,0,0:0:0:0:
448,192,87761,1,0,0:0:0:0:
64,192,87761,1,0,0:0:0:0:
192,192,87761,1,0,0:0:0:0:
320,192,87835,1,0,0:0:0:0:
192,192,87910,1,0,0:0:0:0:
448,192,87910,1,0,0:0:0:0:
64,192,87985,1,0,0:0:0:0:
448,192,88059,1,0,0:0:0:0:
192,192,88059,1,0,0:0:0:0:
320,192,88134,1,0,0:0:0:0:
448,192,88208,1,0,0:0:0:0:
64,192,88208,1,0,0:0:0:0:
192,192,88283,1,0,0:0:0:0:
64,192,88358,1,0,0:0:0:0:
448,192,88358,1,0,0:0:0:0:
320,192,88358,1,0,0:0:0:0:
192,192,88507,1,0,0:0:0:0:
64,192,88507,1,0,0:0:0:0:
448,192,88507,1,0,0:0:0:0:
448,192,88656,1,0,0:0:0:0:
192,192,88656,1,0,0:0:0:0:
320,192,88656,1,0,0:0:0:0:
320,192,88805,1,0,0:0:0:0:
192,192,88805,1,0,0:0:0:0:
64,192,88805,1,0,0:0:0:0:
448,192,88955,1,0,0:0:0:0:
192,192,88955,1,0,0:0:0:0:
64,192,88955,1,0,0:0:0:0:
320,192,89104,128,0,89141:0:0:0:0:
448,192,89104,128,0,89141:0:0:0:0:
192,192,89104,128,0,89141:0:0:0:0:
64,192,89104,128,0,89141:0:0:0:0:
