osu file format v14

[General]
AudioFilename: dj-Jo - Paradisus Paradoxum (ft. Myulee).mp3
AudioLeadIn: 0
PreviewTime: 60371
Countdown: 0
SampleSet: Normal
StackLeniency: 0.2
Mode: 0
LetterboxInBreaks: 0
WidescreenStoryboard: 1

[Editor]
DistanceSpacing: 0.5
BeatDivisor: 16
GridSize: 8
TimelineZoom: 3.399999

[Metadata]
Title:Paradisus-Paradoxum feat. Myulee -TV Size-
TitleUnicode:Paradisus-Paradoxum feat. Myulee -TV Size-
Artist:dj-Jo
ArtistUnicode:dj-Jo
Creator:SALZKARTOFFEEEL
Version:Oni
Source:Re:Zero kara Hajimeru Isekai Seikatsu
Tags:Rem <3 Ram Subaru Natskui Emilia Lia MYTH&ROID 2nd Anime Opening OP Glitch Hop Trap EDM Electronic ReZero Re Zero Re:ゼロから始める異世界生活 Anime Dubstep Remix djJo ppass1234
BeatmapID:1153465
BeatmapSetID:494469

[Difficulty]
HPDrainRate:6.3
CircleSize:3.3
OverallDifficulty:8.3
ApproachRate:9.3
SliderMultiplier:2.75
SliderTickRate:2

[Events]
//Background and Video events
0,0,"Rem ~ Oni.jpg",0,0
//Break Periods
//Storyboard Layer 0 (Background)
//Storyboard Layer 1 (Fail)
//Storyboard Layer 2 (Pass)
//Storyboard Layer 3 (Foreground)
//Storyboard Sound Samples

[TimingPoints]
8388,298.507462686567,4,1,0,35,1,0
10179,-100,4,1,0,60,0,1
15552,-400,4,1,0,60,0,1
18985,-100,4,1,0,60,0,1
20402,-100,4,2,0,5,0,1
20477,-100,4,1,0,60,0,1
20552,-100,4,2,0,5,0,1
20626,-100,4,1,0,60,0,1
20701,-100,4,2,0,5,0,1
20776,-100,4,1,0,60,0,1
20850,-100,4,2,0,5,0,1
20925,-100,4,1,0,60,0,1
25104,-133.333333333333,4,1,0,60,0,1
25999,-100,4,1,0,60,0,1
29880,597.014925373134,4,2,0,35,1,0
29880,-200,4,2,0,35,0,0
39357,-100,4,2,0,5,0,0
39432,-100,4,2,0,35,0,0
47044,-100,4,2,0,5,0,0
47193,-100,4,2,0,35,0,0
47641,-100,4,2,0,5,0,0
47790,-100,4,2,0,35,0,0
48238,-100,4,2,0,5,0,0
48387,-100,4,2,0,35,0,0
48984,-66.6666666666667,4,2,0,35,0,0
50178,-60.6060606060606,4,2,0,35,0,0
51372,-55.5555555555556,4,2,0,35,0,0
52566,-51.2820512820513,4,2,0,35,0,0
53760,-47.6666666666667,4,2,0,35,0,0
54357,-133.333333333333,4,2,0,35,0,0
54954,-44.5,4,2,0,35,0,0
55551,-41.6666666666667,4,2,0,35,0,0
58536,298.507462686567,4,1,0,35,1,0
60327,-100,4,1,0,60,0,1
65700,-200,4,1,0,60,0,1
66521,-200,4,2,0,5,0,1
66595,-200,4,1,0,60,0,1
66819,-200,4,2,0,5,0,1
66894,-200,4,1,0,60,0,1
67118,-200,4,2,0,5,0,1
67192,-200,4,1,0,60,0,1
67416,-200,4,2,0,5,0,1
67491,-200,4,1,0,60,0,1
67715,-200,4,2,0,5,0,1
67789,-200,4,1,0,60,0,1
68013,-200,4,2,0,5,0,1
68088,-200,4,1,0,60,0,1
69282,-100,4,1,0,60,0,1
75252,-200,4,1,0,60,0,1
75774,-200,4,2,0,5,0,1
75849,-200,4,1,0,60,0,1
76968,-200,4,2,0,5,0,1
77043,-200,4,1,0,60,0,1
78162,-200,4,2,0,5,0,1
78237,-200,4,1,0,60,0,1
78610,-200,4,2,0,5,0,1
78685,-100,4,1,0,60,0,1
80103,-100,4,2,0,5,0,1
80177,-100,4,1,0,60,0,1
80252,-100,4,2,0,5,0,1
80327,-100,4,1,0,60,0,1
80401,-100,4,2,0,5,0,1
80476,-100,4,1,0,60,0,1
80550,-100,4,2,0,5,0,1
80625,-100,4,1,0,60,0,1
88983,-100,4,1,0,35,0,0

[Colours]
Combo1 : 188,188,188
Combo2 : 75,166,239
Combo3 : 221,221,221
Combo4 : 253,121,148

[HitObjects]
65,47,8389,5,0,0:0:0:0:
400,134,8537,1,0,0:0:0:0:
127,117,8835,1,0,0:0:0:0:
357,375,8985,1,0,0:0:0:0:
298,37,9134,1,0,0:0:0:0:
292,312,9432,1,0,0:0:0:0:
382,53,9731,1,0,0:0:0:0:
147,304,9880,2,0,P|78:341|15:324,1,137.5
154,169,10179,5,0,0:0:0:0:
154,169,10477,1,0,0:0:0:0:
417,88,10776,2,0,P|443:170|429:242,1,137.5
195,91,11074,1,0,0:0:0:0:
324,333,11223,1,0,0:0:0:0:
301,57,11373,2,0,P|238:39|168:51,1,137.5
382,224,11671,6,0,P|382:279|316:335,1,137.5
282,96,11970,1,0,0:0:0:0:
131,283,12119,1,0,0:0:0:0:
360,210,12268,1,0,0:0:0:0:
155,121,12417,1,0,0:0:0:0:
282,327,12567,2,0,P|377:289|388:237,1,137.5
195,67,12865,2,0,P|113:82|87:138,1,137.5
361,172,13164,6,0,P|357:92|304:43,1,137.5
213,304,13462,1,0,0:0:0:0:
453,172,13611,2,0,P|482:251|447:304,1,137.5
199,201,13910,2,0,P|213:122|274:84,1,137.5
434,297,14208,1,0,0:0:0:0:
159,271,14358,2,0,P|89:233|22:244,1,137.5
301,178,14656,2,0,P|366:204|438:189,1,137.5
220,372,14955,5,0,0:0:0:0:
153,141,15104,1,0,0:0:0:0:
350,80,15253,1,0,0:0:0:0:
409,241,15402,1,0,0:0:0:0:
279,288,15552,2,0,P|244:273|294:222,1,137.5
268,285,16746,2,0,P|223:262|265:203,1,137.5
254,271,17940,2,0,P|186:247|276:161,1,240.625
262,152,19432,5,0,0:0:0:0:
262,152,19880,1,0,0:0:0:0:
469,127,20328,2,0,P|482:168|478:199,1,68.75
397,215,20477,2,0,P|367:279|340:293,1,68.75
268,264,20626,2,0,P|205:291|180:286,1,68.75
107,221,20776,2,0,P|53:208|42:197,1,68.75
4,68,20925,2,0,P|75:38|145:66,1,137.5
212,317,21223,5,0,0:0:0:0:
348,76,21373,1,0,0:0:0:0:
101,195,21522,2,0,P|63:112|92:52,1,137.5
306,221,21820,1,0,0:0:0:0:
48,321,21970,1,0,0:0:0:0:
194,89,22119,2,0,P|265:51|331:61,1,137.5
416,313,22417,2,0,P|337:364|286:357,1,137.5
120,149,22716,5,0,0:0:0:0:
131,81,22790,1,0,0:0:0:0:
198,67,22865,1,0,0:0:0:0:
242,118,22940,1,0,0:0:0:0:
240,187,23014,1,0,0:0:0:0:
225,254,23089,1,0,0:0:0:0:
263,198,23164,1,0,0:0:0:0:
320,161,23238,1,0,0:0:0:0:
387,153,23313,6,0,P|471:158|511:204,1,137.5
260,315,23611,2,0,P|181:289|162:227,1,137.5
379,72,23910,1,0,0:0:0:0:
104,70,24059,1,0,0:0:0:0:
195,329,24208,1,0,0:0:0:0:
279,65,24358,1,0,0:0:0:0:
10,119,24507,5,0,0:0:0:0:
284,133,24656,1,0,0:0:0:0:
94,331,24805,1,0,0:0:0:0:
96,54,24955,1,0,0:0:0:0:
285,228,25104,2,0,P|346:283|368:140,1,309.37501180172
329,279,25701,2,0,P|409:260|304:160,1,309.37501180172
396,272,26298,6,0,P|426:195|389:147,1,137.5
149,266,26596,2,0,P|117:337|148:383,1,137.5
329,175,26895,1,0,0:0:0:0:
59,227,27044,1,0,0:0:0:0:
59,227,27343,1,0,0:0:0:0:
329,175,27492,5,0,0:0:0:0:
394,163,27567,1,0,0:0:0:0:
427,217,27641,1,0,0:0:0:0:
384,266,27716,1,0,0:0:0:0:
317,281,27790,1,0,0:0:0:0:
248,280,27865,1,0,0:0:0:0:
186,253,27940,1,0,0:0:0:0:
129,215,28014,1,0,0:0:0:0:
97,154,28089,6,0,B|70:121|96:78|139:72|180:83,1,137.5
431,166,28387,1,0,0:0:0:0:
192,306,28537,1,0,0:0:0:0:
242,36,28686,5,0,0:0:0:0:
12,187,28835,1,0,0:0:0:0:
282,249,28985,1,0,0:0:0:0:
111,35,29134,1,0,0:0:0:0:
81,308,29283,1,0,0:0:0:0:
299,141,29432,1,0,0:0:0:0:
29,81,29582,1,0,0:0:0:0:
186,307,29731,1,0,0:0:0:0:
430,181,29880,6,0,B|492:158|487:85|429:27|305:108|305:108|292:-12|107:43|199:182,1,550
306,303,32566,2,0,B|349:350|434:327|434:327|430:277|454:249,1,206.25
284,201,33760,2,0,B|243:180|275:137|223:115,2,103.125
26,215,35103,1,0,3:0:0:0:
36,248,35178,1,0,3:0:0:0:
23,280,35253,1,0,3:0:0:0:
193,302,35551,6,0,B|214:251|254:225|299:231|299:231|281:200|288:142|306:109|331:95,1,275
391,151,36894,1,0,0:0:0:0:
384,237,37044,2,0,B|374:278|315:286|252:273|228:208|231:122|231:112|231:112|185:112|185:112|169:156|169:156|126:147|126:147|103:188|103:188|59:175|59:175|37:206,1,532.8125
30,301,39432,2,0,P|87:319|144:271,1,137.5
252,141,39879,2,0,P|309:106|374:145,1,137.5
367,134,40477,5,0,0:0:0:0:
367,134,40626,2,0,L|361:202,1,68.75
207,279,40924,2,0,L|254:229,1,68.75
191,68,41223,5,0,0:0:0:0:
34,201,41372,1,0,0:0:0:0:
167,358,41521,1,0,0:0:0:0:
325,224,41671,1,0,0:0:0:0:
191,68,41820,2,0,P|150:54|98:118,1,137.5
262,172,42268,2,0,P|318:199|369:151,1,137.5
368,153,42865,5,0,0:0:0:0:
368,153,43014,2,0,L|407:97,1,68.75
249,165,43312,2,0,L|186:190,1,68.75
385,326,43611,2,0,B|328:288|328:288|272:328|272:328|216:288|216:288,1,206.25
54,228,44208,1,0,0:0:0:0:
138,151,44307,1,0,0:0:0:0:
162,264,44407,1,0,0:0:0:0:
54,228,44506,6,0,B|11:175|11:175|31:109,1,137.5
31,108,45402,1,0,0:0:0:0:
31,108,45999,1,0,0:0:0:0:
230,56,46148,1,0,0:0:0:0:
130,236,46297,1,0,0:0:0:0:
330,182,46447,1,0,0:0:0:0:
244,369,46596,2,0,P|177:313|88:368,1,206.25
244,362,47193,6,0,P|177:306|88:361,1,206.25
244,355,47790,6,0,P|177:299|88:354,1,206.25
244,348,48387,5,0,0:0:0:0:
330,241,48685,1,0,0:0:0:0:
193,85,48984,2,0,P|146:50|191:136,1,309.37501180172
187,142,49581,5,0,0:0:0:0:
392,122,49879,1,0,0:0:0:0:
288,324,50178,2,0,P|185:366|259:252,1,340.312503245473
255,250,50775,5,0,0:0:0:0:
86,99,51074,1,0,0:0:0:0:
333,91,51372,2,0,P|384:55|354:194,1,371.249988670349
354,194,51969,5,0,0:0:0:0:
150,334,52268,1,0,0:0:0:0:
148,67,52566,2,0,P|112:135|281:99,1,402.187501534224
275,98,53163,5,0,0:0:0:0:
124,231,53312,1,0,0:0:0:0:
268,373,53462,1,0,0:0:0:0:
406,227,53611,1,0,0:0:0:0:
253,74,53760,2,0,P|145:57|223:246,1,432.692296149719
222,246,54357,6,0,L|236:245,1,12.8906254917383,0|0,3:0|3:0,3:0:0:0:
216,218,54432,2,0,L|231:220,1,12.8906254917383,0|0,3:0|3:0,3:0:0:0:
226,188,54506,2,0,L|244:201,1,12.8906254917383,0|0,3:0|3:0,3:0:0:0:
252,167,54581,2,0,L|258:181,1,12.8906254917383,0|0,3:0|3:0,3:0:0:0:
277,153,54656,2,0,L|278:166,1,12.8906254917383,0|0,3:0|3:0,3:0:0:0:
307,153,54730,2,0,L|304:166,1,12.8906254917383,0|0,3:0|3:0,3:0:0:0:
336,173,54805,2,0,L|325:180,1,12.8906254917383,0|0,3:0|3:0,3:0:0:0:
347,203,54879,2,0,L|334:206,1,12.8906254917383,0|0,3:0|3:0,3:0:0:0:
347,243,54954,2,0,P|304:347|63:229,1,463.483146067416
62,231,55551,5,0,0:0:0:0:
180,106,55700,1,0,0:0:0:0:
210,75,55775,1,0,0:0:0:0:
251,89,55850,1,0,0:0:0:0:
266,129,55924,1,0,0:0:0:0:
256,171,55999,1,0,0:0:0:0:
219,193,56074,1,0,0:0:0:0:
178,205,56148,2,0,P|99:52|270:147,1,494.999984893799
272,141,56745,5,0,0:0:0:0:
299,304,56894,1,0,0:0:0:0:
214,71,57044,1,0,0:0:0:0:
376,310,57193,1,0,0:0:0:0:
133,88,57342,5,0,0:0:0:0:
441,295,57491,1,0,0:0:0:0:
63,125,57641,1,0,0:0:0:0:
497,253,57790,1,0,0:0:0:0:
7,193,57939,5,0,0:0:0:0:
501,189,58088,1,0,0:0:0:0:
9,267,58238,1,0,0:0:0:0:
481,119,58387,1,0,0:0:0:0:
91,376,58536,5,0,0:0:0:0:
161,40,58685,1,0,0:0:0:0:
212,309,58983,1,0,0:0:0:0:
416,30,59133,1,0,0:0:0:0:
82,109,59282,1,0,0:0:0:0:
357,103,59580,1,0,0:0:0:0:
94,187,59879,1,0,0:0:0:0:
401,339,60028,2,0,P|443:311|464:227,1,137.5
259,203,60327,5,0,0:0:0:0:
259,203,60625,1,0,0:0:0:0:
25,57,60924,2,0,P|8:134|34:195,1,137.5
266,324,61222,1,0,0:0:0:0:
163,69,61371,1,0,0:0:0:0:
44,319,61521,2,0,P|127:320|181:270,1,137.5
345,79,61819,5,0,0:0:0:0:
91,184,61968,1,0,0:0:0:0:
350,281,62118,2,0,P|424:257|464:194,1,137.5
264,144,62416,2,0,P|181:171|148:218,1,137.5
395,341,62715,2,0,P|309:318|282:257,1,137.5
442,54,63013,2,0,P|493:119|493:178,1,137.5
237,71,63312,5,0,0:0:0:0:
352,320,63461,1,0,0:0:0:0:
89,243,63610,1,0,0:0:0:0:
339,131,63759,2,0,P|414:142|466:184,1,137.5
203,276,64058,1,0,0:0:0:0:
343,40,64207,5,0,0:0:0:0:
394,33,64282,1,0,0:0:0:0:
431,68,64356,1,0,0:0:0:0:
424,119,64431,1,0,0:0:0:0:
383,151,64506,1,0,0:0:0:0:
142,283,64655,1,0,0:0:0:0:
142,283,65103,5,0,0:0:0:0:
283,47,65252,1,0,0:0:0:0:
178,263,65401,1,0,0:0:0:0:
243,67,65550,1,0,0:0:0:0:
235,222,65700,2,0,P|250:274|294:286,1,91.6666666666667
388,246,65998,5,0,0:0:0:0:
365,133,66098,1,0,0:0:0:0:
278,207,66197,1,0,0:0:0:0:
388,246,66297,6,0,P|451:210|462:162,1,103.125
413,55,66595,2,0,P|365:26|313:40,1,103.125
255,158,66894,2,0,P|238:200|267:259,1,103.125
396,261,67192,2,0,P|442:257|463:202,1,103.125
384,95,67491,2,0,P|332:75|284:115,1,103.125
209,206,67789,2,0,P|145:229|107:207,1,103.125
147,79,68088,2,0,B|182:29|297:40|302:113|285:209|285:209|322:158|379:86|434:195|490:49,1,550
490,48,69879,5,0,0:0:0:0:
397,307,70028,1,0,0:0:0:0:
239,82,70177,1,0,0:0:0:0:
500,172,70327,1,0,0:0:0:0:
239,258,70476,2,0,P|163:261|115:214,1,137.5
358,87,70774,6,0,P|386:160|356:231,1,137.5
136,67,71073,1,0,0:0:0:0:
109,310,71222,1,0,0:0:0:0:
349,178,71371,1,0,0:0:0:0:
78,126,71521,1,0,0:0:0:0:
281,311,71670,1,0,0:0:0:0:
319,39,71819,5,0,0:0:0:0:
455,277,71968,1,0,0:0:0:0:
193,189,72118,1,0,0:0:0:0:
459,119,72267,2,0,P|409:188|344:189,1,137.5
95,130,72565,2,0,P|121:56|184:35,1,137.5
260,297,72864,1,0,0:0:0:0:
434,85,73013,1,0,0:0:0:0:
179,187,73162,1,0,0:0:0:0:
432,298,73312,5,0,0:0:0:0:
303,55,73461,1,0,0:0:0:0:
184,302,73610,1,0,0:0:0:0:
452,243,73759,2,0,P|505:188|511:126,1,137.5
295,301,74058,2,0,P|222:329|186:383,1,137.5
351,155,74356,2,0,P|321:81|263:44,1,137.5
451,263,74655,5,0,0:0:0:0:
178,238,74804,1,0,0:0:0:0:
393,68,74953,1,0,0:0:0:0:
123,129,75103,1,0,0:0:0:0:
390,193,75252,2,0,P|431:221|329:298,1,240.625
116,125,75849,1,0,0:0:0:0:
420,214,76446,6,0,P|461:242|359:319,1,240.625
146,146,77043,1,0,0:0:0:0:
448,239,77640,6,0,P|489:267|387:344,1,240.625
310,232,78237,2,0,P|287:142|347:116,1,171.875
145,165,78685,1,0,0:0:0:0:
145,165,79133,5,0,0:0:0:0:
145,165,79580,1,0,0:0:0:0:
5,314,80028,2,0,P|36:348|74:351,1,68.75
148,303,80177,2,0,P|192:303|224:282,1,68.75
286,216,80327,2,0,P|329:195|341:158,1,68.75
380,65,80476,2,0,P|411:23|409:0,1,68.75
276,35,80625,6,0,P|219:94|235:164,1,137.5
447,306,80924,1,0,0:0:0:0:
173,304,81073,1,0,0:0:0:0:
365,108,81222,5,0,0:0:0:0:
326,380,81371,1,0,0:0:0:0:
161,159,81521,1,0,0:0:0:0:
429,216,81670,1,0,0:0:0:0:
198,364,81819,5,0,0:0:0:0:
69,121,81968,1,0,0:0:0:0:
329,214,82118,1,0,0:0:0:0:
74,314,82267,1,0,0:0:0:0:
231,89,82416,5,0,0:0:0:0:
290,63,82491,1,0,0:0:0:0:
337,109,82565,1,0,0:0:0:0:
345,177,82640,1,0,0:0:0:0:
333,244,82715,1,0,0:0:0:0:
287,196,82789,1,0,0:0:0:0:
221,177,82864,1,0,0:0:0:0:
162,143,82938,1,0,0:0:0:0:
137,80,83013,6,0,P|171:17|238:0,1,137.5
199,274,83312,2,0,P|127:294|79:249,1,137.5
301,91,83610,5,0,0:0:0:0:
489,292,83759,1,0,0:0:0:0:
223,218,83909,1,0,0:0:0:0:
458,77,84058,1,0,0:0:0:0:
378,340,84207,1,0,0:0:0:0:
253,96,84356,1,0,0:0:0:0:
504,213,84506,1,0,0:0:0:0:
251,320,84655,1,0,0:0:0:0:
38,146,84804,6,0,P|18:228|59:279,1,137.5
311,196,85103,1,0,0:0:0:0:
119,0,85252,2,0,P|122:77|175:126,1,137.5
425,44,85550,1,0,0:0:0:0:
326,302,85700,1,0,0:0:0:0:
216,50,85849,6,0,P|154:102|161:177,1,137.5
304,382,86147,1,0,0:0:0:0:
443,143,86297,1,0,0:0:0:0:
181,226,86446,1,0,0:0:0:0:
441,313,86595,1,0,0:0:0:0:
261,105,86744,2,0,P|182:41|145:45,1,137.5
291,282,87043,6,0,P|360:294|404:243,1,137.5
153,134,87341,1,0,0:0:0:0:
419,58,87491,1,0,0:0:0:0:
389,331,87640,1,0,0:0:0:0:
136,223,87789,1,0,0:0:0:0:
297,1,87938,1,0,0:0:0:0:
460,225,88088,1,0,0:0:0:0:
214,102,88237,5,0,0:0:0:0:
370,344,88386,1,0,0:0:0:0:
128,164,88535,1,0,0:0:0:0:
429,268,88685,1,0,0:0:0:0:
231,5,88834,1,0,0:0:0:0:
282,344,88983,1,0,0:0:0:0:
