osu file format v14

[General]
AudioFilename: dj-Jo - Paradisus Paradoxum (ft. Myulee).mp3
AudioLeadIn: 0
PreviewTime: 60371
Countdown: 0
SampleSet: Normal
StackLeniency: 0.9
Mode: 0
LetterboxInBreaks: 0
WidescreenStoryboard: 1

[Editor]
DistanceSpacing: 1
BeatDivisor: 4
GridSize: 8
TimelineZoom: 2.1

[Metadata]
Title:Paradisus-Paradoxum feat. Myulee -TV Size-
TitleUnicode:Paradisus-Paradoxum feat. Myulee -TV Size-
Artist:dj-Jo
ArtistUnicode:dj-Jo
Creator:SALZKARTOFFEEEL
Version:Easy
Source:Re:Zero kara Hajimeru Isekai Seikatsu
Tags:Rem <3 Ram Subaru Natskui Emilia Lia MYTH&ROID 2nd Anime Opening OP Glitch Hop Trap EDM Electronic ReZero Re Zero Re:ゼロから始める異世界生活 Anime Dubstep Remix djJo ppass1234
BeatmapID:1153461
BeatmapSetID:494469

[Difficulty]
HPDrainRate:2
CircleSize:2.5
OverallDifficulty:1
ApproachRate:3
SliderMultiplier:0.8
SliderTickRate:1

[Events]
//Background and Video events
0,0,"Rem ~ being petted.jpg",0,0
//Break Periods
2,30080,37992
//Storyboard Layer 0 (Background)
//Storyboard Layer 1 (Fail)
//Storyboard Layer 2 (Pass)
//Storyboard Layer 3 (Foreground)
//Storyboard Sound Samples

[TimingPoints]
8388,298.507462686567,4,1,0,35,1,0
10179,-100,4,1,0,35,0,1
29880,-100,4,1,0,35,0,0
60328,-100,4,1,0,35,0,1
88985,-100,4,1,0,35,0,0

[Colours]
Combo1 : 188,188,188
Combo2 : 75,166,239
Combo3 : 221,221,221
Combo4 : 253,121,148

[HitObjects]
127,110,8387,6,0,P|172:81|278:95,1,160
212,195,9432,1,0,0:0:0:0:
223,215,10776,6,0,L|381:246,1,160
259,140,11970,2,0,P|190:139|140:224,1,160
243,329,13164,2,0,L|379:245,2,160
94,272,14955,2,0,L|146:197,1,80
186,141,15552,6,0,P|248:168|214:236,1,160
277,88,16746,2,0,P|321:151|313:246,1,160
369,79,17940,2,0,P|402:186|337:335,1,280
324,214,19432,2,0,P|322:153|293:102,1,120
207,186,20328,6,0,L|58:253,1,160
78,92,21522,2,0,L|222:197,1,160
265,335,22716,2,0,L|425:335,1,160
406,176,23910,6,0,L|372:100,1,80
293,106,24507,2,0,L|327:182,1,80
358,252,25104,6,0,L|201:289,1,160
354,336,26298,2,0,P|429:297|436:221,1,160
299,149,27492,2,0,P|304:239|359:253,1,160
359,92,28686,2,0,P|270:72|224:114,1,160
209,273,29880,1,0,0:0:0:0:
220,260,39432,6,0,P|271:252|325:165,2,160
230,164,41223,2,0,L|230:84,1,80
135,92,41820,6,0,L|134:252,2,160
203,24,43611,2,0,P|229:75|228:114,2,80
135,92,44507,2,0,L|64:24,1,80
49,128,45402,6,0,P|9:190|32:274,1,160
103,209,46298,1,0,0:0:0:0:
192,173,46596,2,0,L|351:173,2,160
272,272,48387,6,0,L|272:353,1,80
368,352,48985,2,0,P|437:352|479:272,1,160
479,182,49880,5,0,0:0:0:0:
479,85,50179,2,0,P|479:45|382:0,1,160
295,37,51074,5,0,0:0:0:0:
208,78,51373,2,0,P|191:159|259:188,1,160
345,189,52268,5,0,0:0:0:0:
441,189,52567,2,0,P|493:218|451:290,1,160
357,303,53462,5,0,0:0:0:0:
261,315,53761,2,0,L|99:331,1,160
90,203,54955,6,0,P|39:169|102:136,1,160
5,51,56149,2,0,P|61:32|100:34,1,80
177,31,56746,6,0,P|223:42|251:69,1,80
175,127,57343,2,0,P|128:138|100:165,1,80
177,223,57940,2,0,P|223:234|251:261,1,80
174,319,58537,6,0,P|111:291|85:202,1,160
87,89,59582,1,0,0:0:0:0:
71,103,60925,6,0,L|178:224,1,160
149,65,62119,2,0,P|123:33|3:50,1,160
119,157,63313,2,0,P|151:241|130:304,2,160
231,270,65104,2,0,P|219:313|198:352,1,80
123,349,65701,6,0,P|91:303|163:244,1,160
313,264,66895,2,0,P|373:284|401:280,1,80
366,205,67492,2,0,P|306:185|278:189,1,80
212,205,68089,2,0,P|149:252|133:328,2,160
351,283,69880,6,0,P|362:245|364:186,1,80
362,124,70477,2,0,P|345:71|260:0,1,160
206,150,71671,2,0,P|201:202|282:261,1,160
278,180,72567,1,0,0:0:0:0:
275,100,72865,6,0,P|325:114|349:212,1,160
192,237,74059,2,0,L|52:326,1,160
13,255,74955,1,0,0:0:0:0:
58,189,75253,6,0,P|96:147|186:99,1,160
110,239,76447,2,0,P|188:174|243:163,1,160
165,303,77641,2,0,P|219:246|296:249,1,160
252,333,78686,1,0,0:0:0:0:
206,221,79134,6,0,L|120:138,1,120
200,48,80029,2,0,P|315:50|341:89,1,160
319,235,81223,2,0,P|255:194|256:117,1,160
202,268,82417,6,0,P|162:187|165:113,1,160
327,156,83611,1,0,0:0:0:0:
240,290,84208,6,0,P|205:271|173:233,1,80
139,171,84805,2,0,P|135:122|207:47,1,160
356,103,85999,2,0,P|303:158|228:141,1,160
365,224,87193,2,0,P|274:247|211:232,1,160
281,84,88387,2,0,P|291:136|286:168,1,80
264,239,88985,5,0,0:0:0:0:
