osu file format v14

[General]
AudioFilename: audio.mp3
AudioLeadIn: 0
PreviewTime: 8254
Countdown: 0
SampleSet: Normal
StackLeniency: 0.7
Mode: 1
LetterboxInBreaks: 0
WidescreenStoryboard: 1

[Editor]
Bookmarks: 1533,10588,28700,37755,55867,64923,73978,83034,95486
DistanceSpacing: 1.7
BeatDivisor: 1
GridSize: 32
TimelineZoom: 2

[Metadata]
Title:Elemental Creation -GITADO ROCK ver.-
TitleUnicode:Elemental Creation -GITADO ROCK ver.-
Artist:dj TAKA meets DJ YOSHITAKA ft.guit.good-cool
ArtistUnicode:dj TAKA meets DJ YOSHITAKA ft.guit.good-cool
Creator:frukoyurdakul
Version:_DUSK_'s Kantan
Source:
Tags:guitarfreaks drummania beatmaniaiidx 20 tricoro sunny park dancedancerevolution reflec beat colette private bemani academy deathstream _DUSK_
BeatmapID:1474954
BeatmapSetID:690344

[Difficulty]
HPDrainRate:7
CircleSize:2
OverallDifficulty:3
ApproachRate:10
SliderMultiplier:1.4
SliderTickRate:1

[Events]
//Background and Video events
0,0,"BG.jpg",0,0
//Break Periods
//Storyboard Layer 0 (Background)
//Storyboard Layer 1 (Fail)
//Storyboard Layer 2 (Pass)
//Storyboard Layer 3 (Foreground)
//Storyboard Sound Samples

[TimingPoints]
1533,282.992170549948,4,1,0,80,1,0
8041,-100,4,1,0,70,0,0
10305,-100,4,1,0,80,0,0
28700,-100,4,1,0,80,0,1
37755,-100,4,1,0,80,0,0
73696,-100,4,1,0,70,0,0
81902,-100,4,1,0,80,0,0
93788,-100,4,1,0,70,0,0
95203,-100,4,1,0,80,0,0
113597,-100,4,1,0,80,0,1
123785,-100,4,1,0,80,0,0

[HitObjects]
160,96,1533,5,0,0:0:0:0:
160,96,2664,1,0,0:0:0:0:
160,96,3230,1,0,0:0:0:0:
160,96,4928,1,0,0:0:0:0:
352,96,5494,1,8,0:0:0:0:
160,96,6060,1,0,0:0:0:0:
160,96,7192,1,0,0:0:0:0:
160,96,7758,1,0,0:0:0:0:
352,96,8324,1,8,0:0:0:0:
352,96,9456,1,8,0:0:0:0:
352,96,10022,1,8,0:0:0:0:
352,288,10588,1,12,0:0:0:0:
352,96,11720,1,8,0:0:0:0:
160,96,12286,1,0,0:0:0:0:
352,96,12569,1,8,0:0:0:0:
352,96,12852,1,8,0:0:0:0:
352,96,13984,1,8,0:0:0:0:
352,96,14550,1,8,0:0:0:0:
160,96,14833,1,0,0:0:0:0:
352,96,15116,1,8,0:0:0:0:
352,96,15682,1,8,0:0:0:0:
160,96,16248,1,0,0:0:0:0:
352,96,16814,1,8,0:0:0:0:
352,96,17380,1,8,0:0:0:0:
352,96,17946,1,8,0:0:0:0:
160,96,18512,1,0,0:0:0:0:
160,96,18795,1,0,0:0:0:0:
352,96,19078,1,8,0:0:0:0:
160,96,19644,1,0,0:0:0:0:
160,96,20776,1,0,0:0:0:0:
352,96,21342,1,8,0:0:0:0:
160,96,21625,1,0,0:0:0:0:
160,96,21908,1,0,0:0:0:0:
160,96,23040,1,0,0:0:0:0:
352,96,23606,1,8,0:0:0:0:
160,96,23889,1,0,0:0:0:0:
352,96,24172,1,8,0:0:0:0:
160,96,24738,1,0,0:0:0:0:
352,96,25304,1,8,0:0:0:0:
352,96,25870,1,8,0:0:0:0:
352,96,26153,1,8,0:0:0:0:
160,96,26436,1,0,0:0:0:0:
352,96,27002,1,8,0:0:0:0:
160,96,27568,1,0,0:0:0:0:
160,96,27851,1,0,0:0:0:0:
160,96,28134,1,0,0:0:0:0:
352,96,28700,1,8,0:0:0:0:
160,96,29549,1,0,0:0:0:0:
352,96,29832,1,8,0:0:0:0:
160,96,30398,1,0,0:0:0:0:
160,96,30681,1,0,0:0:0:0:
352,96,30964,1,8,0:0:0:0:
352,96,31530,1,8,0:0:0:0:
256,192,32096,2,0,L|384:96,3,140
352,96,33228,1,8,0:0:0:0:
160,96,34077,1,0,0:0:0:0:
352,96,34360,1,8,0:0:0:0:
160,96,34926,1,0,0:0:0:0:
160,96,35209,1,0,0:0:0:0:
352,96,35492,1,8,0:0:0:0:
352,96,36058,1,8,0:0:0:0:
352,96,36624,1,8,0:0:0:0:
352,96,37473,1,8,0:0:0:0:
160,288,37755,1,4,0:0:0:0:
160,96,38887,1,0,0:0:0:0:
160,96,39453,1,0,0:0:0:0:
352,96,40019,1,8,0:0:0:0:
160,96,41151,1,0,0:0:0:0:
352,96,41717,1,8,0:0:0:0:
160,96,42000,1,0,0:0:0:0:
352,96,42283,1,8,0:0:0:0:
160,96,43132,1,0,0:0:0:0:
352,96,43415,1,8,0:0:0:0:
352,96,43981,1,8,0:0:0:0:
352,96,44264,1,8,0:0:0:0:
160,96,44547,1,0,0:0:0:0:
160,96,45113,1,0,0:0:0:0:
352,96,45679,1,8,0:0:0:0:
352,96,45962,1,8,0:0:0:0:
160,96,46245,1,0,0:0:0:0:
160,288,46811,1,4,0:0:0:0:
160,96,47943,1,0,0:0:0:0:
160,96,48509,1,0,0:0:0:0:
352,96,49075,1,8,0:0:0:0:
352,96,50207,1,8,0:0:0:0:
352,96,50773,1,8,0:0:0:0:
160,96,51056,1,0,0:0:0:0:
352,96,51339,1,8,0:0:0:0:
352,96,52188,1,8,0:0:0:0:
160,96,52471,1,0,0:0:0:0:
352,96,53037,1,8,0:0:0:0:
160,96,53320,1,0,0:0:0:0:
352,96,53603,1,8,0:0:0:0:
352,96,54169,1,8,0:0:0:0:
352,96,54735,1,8,0:0:0:0:
352,96,55018,1,8,0:0:0:0:
160,96,55301,1,0,0:0:0:0:
352,96,55867,1,8,0:0:0:0:
352,96,56433,1,8,0:0:0:0:
352,96,57565,1,8,0:0:0:0:
160,96,58131,1,0,0:0:0:0:
352,96,58697,1,8,0:0:0:0:
160,96,59829,1,0,0:0:0:0:
352,96,60112,1,8,0:0:0:0:
160,96,60395,1,0,0:0:0:0:
352,96,60961,1,8,0:0:0:0:
352,96,62093,1,8,0:0:0:0:
160,96,62659,1,0,0:0:0:0:
160,96,63791,1,0,0:0:0:0:
352,96,64357,1,8,0:0:0:0:
352,96,64923,1,8,0:0:0:0:
160,96,66055,1,0,0:0:0:0:
160,96,67187,1,0,0:0:0:0:
160,96,68319,1,0,0:0:0:0:
160,96,69451,1,0,0:0:0:0:
352,96,70583,1,8,0:0:0:0:
352,96,71715,1,8,0:0:0:0:
352,96,72847,1,8,0:0:0:0:
160,96,73978,1,0,0:0:0:0:
352,96,75110,1,8,0:0:0:0:
352,96,75959,1,8,0:0:0:0:
160,96,76242,1,0,0:0:0:0:
160,96,77374,1,0,0:0:0:0:
352,96,78223,1,8,0:0:0:0:
160,96,78506,1,0,0:0:0:0:
352,96,79638,1,8,0:0:0:0:
352,96,80487,1,8,0:0:0:0:
352,96,80770,1,8,0:0:0:0:
256,192,81902,12,0,82751,0:0:0:0:
160,288,83034,5,4,0:0:0:0:
160,288,84166,1,4,0:0:0:0:
160,288,85298,5,4,0:0:0:0:
160,288,86430,1,4,0:0:0:0:
352,288,87562,1,12,0:0:0:0:
160,288,88128,1,4,0:0:0:0:
352,288,88694,1,12,0:0:0:0:
352,288,89260,1,12,0:0:0:0:
288,192,89826,2,0,L|192:192,8,70
160,96,92090,5,0,0:0:0:0:
352,96,93222,1,8,0:0:0:0:
160,96,94354,1,0,0:0:0:0:
160,96,94920,1,0,0:0:0:0:
160,288,95486,5,4,0:0:0:0:
160,96,96618,1,0,0:0:0:0:
160,96,97184,1,0,0:0:0:0:
352,96,97467,1,8,0:0:0:0:
160,96,97750,1,0,0:0:0:0:
352,96,98882,1,8,0:0:0:0:
352,96,99448,1,8,0:0:0:0:
160,96,99731,1,0,0:0:0:0:
160,96,100014,1,0,0:0:0:0:
160,96,100580,1,0,0:0:0:0:
352,96,100863,1,8,0:0:0:0:
352,96,101146,1,8,0:0:0:0:
352,96,101712,1,8,0:0:0:0:
352,96,101995,1,8,0:0:0:0:
160,96,102278,1,0,0:0:0:0:
160,96,102844,1,0,0:0:0:0:
160,96,103127,1,0,0:0:0:0:
160,96,103410,1,0,0:0:0:0:
352,96,103976,1,8,0:0:0:0:
160,96,104542,1,0,0:0:0:0:
160,96,105674,1,0,0:0:0:0:
160,96,106240,1,0,0:0:0:0:
352,96,106523,1,8,0:0:0:0:
160,96,106806,1,0,0:0:0:0:
160,96,107938,1,0,0:0:0:0:
352,96,108504,1,8,0:0:0:0:
352,96,108787,1,8,0:0:0:0:
160,96,109070,1,0,0:0:0:0:
160,96,109636,1,0,0:0:0:0:
352,96,109919,1,8,0:0:0:0:
160,96,110201,1,0,0:0:0:0:
352,96,110767,1,8,0:0:0:0:
352,96,111050,1,8,0:0:0:0:
352,96,111333,1,8,0:0:0:0:
160,96,111899,1,0,0:0:0:0:
352,96,112182,1,8,0:0:0:0:
160,96,112465,1,0,0:0:0:0:
160,96,113031,1,0,0:0:0:0:
352,96,113597,1,8,0:0:0:0:
160,96,114446,1,0,0:0:0:0:
352,96,114729,1,8,0:0:0:0:
352,96,115295,1,8,0:0:0:0:
352,96,115578,1,8,0:0:0:0:
160,96,115861,1,0,0:0:0:0:
352,96,116427,1,8,0:0:0:0:
256,192,116993,2,0,L|384:96,3,140
352,96,118125,1,8,0:0:0:0:
160,96,118974,1,0,0:0:0:0:
352,96,119257,1,8,0:0:0:0:
160,96,119823,1,0,0:0:0:0:
160,96,120106,1,0,0:0:0:0:
352,96,120389,1,8,0:0:0:0:
352,96,120955,1,8,0:0:0:0:
160,96,121521,1,0,0:0:0:0:
352,96,122370,1,8,0:0:0:0:
160,96,122653,1,0,0:0:0:0:
352,96,123502,1,8,0:0:0:0:
352,288,123785,1,12,0:0:0:0:
