osu file format v14

[General]
AudioFilename: audio.mp3
AudioLeadIn: 0
PreviewTime: 8254
Countdown: 0
SampleSet: Normal
StackLeniency: 0.7
Mode: 1
LetterboxInBreaks: 0
WidescreenStoryboard: 1

[Editor]
Bookmarks: 1533,10588,28700,37755,55867,64923,73978,83034,95486
DistanceSpacing: 1.7
BeatDivisor: 2
GridSize: 32
TimelineZoom: 2.4

[Metadata]
Title:Elemental Creation -GITADO ROCK ver.-
TitleUnicode:Elemental Creation -GITADO ROCK ver.-
Artist:dj TAKA meets DJ YOSHITAKA ft.guit.good-cool
ArtistUnicode:dj TAKA meets DJ YOSHITAKA ft.guit.good-cool
Creator:frukoyurdakul
Version:Futsuu
Source:
Tags:guitarfreaks drummania beatmaniaiidx 20 tricoro sunny park dancedancerevolution reflec beat colette private bemani academy deathstream _DUSK_
BeatmapID:1461269
BeatmapSetID:690344

[Difficulty]
HPDrainRate:6
CircleSize:2
OverallDifficulty:4
ApproachRate:10
SliderMultiplier:1.4
SliderTickRate:1

[Events]
//Background and Video events
0,0,"BG.jpg",0,0
//Break Periods
//Storyboard Layer 0 (Background)
//Storyboard Layer 1 (Fail)
//Storyboard Layer 2 (Pass)
//Storyboard Layer 3 (Foreground)
//Storyboard Sound Samples

[TimingPoints]
1533,282.992170549948,4,1,0,80,1,0
8183,-100,4,1,0,70,0,0
10447,-100,4,1,0,80,0,0
28700,-100,4,1,0,80,0,1
37755,-100,4,1,0,80,0,0
64923,-102.040816326531,4,1,0,80,0,0
66904,-103.092783505155,4,1,0,80,0,0
67187,-104.166666666667,4,1,0,80,0,0
69026,-104.712041884817,4,1,0,80,0,0
69451,-106.382978723404,4,1,0,80,0,0
71432,-107.52688172043,4,1,0,80,0,0
71715,-108.695652173913,4,1,0,80,0,0
73554,-109.289617486339,4,1,0,80,0,0
73696,-109.89010989011,4,1,0,80,0,0
73978,-111.111111111111,4,1,0,70,0,0
81902,-100,4,1,0,80,0,0
83034,-100,4,1,0,80,0,0
93505,-100,4,1,0,70,0,0
95415,-100,4,1,0,80,0,0
113597,-100,4,1,0,80,0,1
123785,-100,4,1,0,80,0,0

[HitObjects]
352,288,1533,5,12,0:0:0:0:
352,288,1957,1,12,0:0:0:0:
352,288,2240,1,12,0:0:0:0:
352,288,2664,1,12,0:0:0:0:
352,96,2947,1,8,0:0:0:0:
160,96,3230,1,0,0:0:0:0:
352,96,3513,1,8,0:0:0:0:
352,288,4079,1,12,0:0:0:0:
352,288,4504,1,12,0:0:0:0:
352,288,4928,1,12,0:0:0:0:
352,96,5211,1,8,0:0:0:0:
160,96,5494,1,0,0:0:0:0:
160,96,5777,1,0,0:0:0:0:
160,96,5919,1,0,0:0:0:0:
352,288,6060,1,12,0:0:0:0:
160,96,6626,1,0,0:0:0:0:
352,96,6909,1,8,0:0:0:0:
352,288,7192,1,12,0:0:0:0:
352,96,7758,1,8,0:0:0:0:
160,96,8041,1,0,0:0:0:0:
256,192,8324,2,0,L|192:192,6,35
352,96,8890,1,8,0:0:0:0:
160,96,9173,1,0,0:0:0:0:
352,96,9456,1,8,0:0:0:0:
160,96,9739,1,0,0:0:0:0:
160,96,10022,1,0,0:0:0:0:
160,96,10164,1,0,0:0:0:0:
352,96,10305,1,8,0:0:0:0:
160,288,10588,1,4,0:0:0:0:
352,96,11154,1,8,0:0:0:0:
352,96,11437,1,8,0:0:0:0:
160,96,11720,1,0,0:0:0:0:
160,96,12003,1,0,0:0:0:0:
352,96,12286,1,8,0:0:0:0:
352,96,12852,1,8,0:0:0:0:
352,96,13277,1,8,0:0:0:0:
352,96,13701,1,8,0:0:0:0:
352,96,14126,1,8,0:0:0:0:
352,96,14550,1,8,0:0:0:0:
352,96,14692,1,8,0:0:0:0:
160,96,14833,1,0,0:0:0:0:
160,96,15116,1,0,0:0:0:0:
160,96,15682,1,0,0:0:0:0:
352,96,15965,1,8,0:0:0:0:
352,96,16248,1,8,0:0:0:0:
160,96,16531,1,0,0:0:0:0:
352,96,16814,1,8,0:0:0:0:
352,96,17380,1,8,0:0:0:0:
352,96,17522,1,8,0:0:0:0:
352,96,17805,1,8,0:0:0:0:
352,96,17946,1,8,0:0:0:0:
160,96,18229,1,0,0:0:0:0:
352,96,18512,1,8,0:0:0:0:
352,96,19078,1,8,0:0:0:0:
160,96,19220,1,0,0:0:0:0:
352,96,19361,1,8,0:0:0:0:
352,288,19644,1,12,0:0:0:0:
352,96,20210,1,8,0:0:0:0:
352,96,20493,1,8,0:0:0:0:
160,96,20776,1,0,0:0:0:0:
160,96,21059,1,0,0:0:0:0:
352,96,21342,1,8,0:0:0:0:
352,96,21908,1,8,0:0:0:0:
160,96,22332,1,0,0:0:0:0:
352,96,22757,1,8,0:0:0:0:
352,96,23181,1,8,0:0:0:0:
352,96,23606,1,8,0:0:0:0:
160,96,23889,1,0,0:0:0:0:
160,96,24030,1,0,0:0:0:0:
352,96,24172,1,8,0:0:0:0:
160,96,24738,1,0,0:0:0:0:
352,96,25021,1,8,0:0:0:0:
352,96,25304,1,8,0:0:0:0:
160,96,25587,1,0,0:0:0:0:
352,96,25870,1,8,0:0:0:0:
352,96,26436,1,8,0:0:0:0:
352,96,26577,1,8,0:0:0:0:
352,96,26861,1,8,0:0:0:0:
352,96,27002,1,8,0:0:0:0:
160,96,27568,1,0,0:0:0:0:
352,96,27851,1,8,0:0:0:0:
352,96,28134,1,8,0:0:0:0:
160,96,28275,1,0,0:0:0:0:
352,96,28417,1,8,0:0:0:0:
352,288,28700,1,12,0:0:0:0:
160,96,29266,1,0,0:0:0:0:
352,96,29832,1,8,0:0:0:0:
352,96,30115,1,8,0:0:0:0:
160,96,30256,1,0,0:0:0:0:
352,96,30398,1,8,0:0:0:0:
160,96,30681,1,0,0:0:0:0:
352,96,30964,1,8,0:0:0:0:
352,96,31388,1,8,0:0:0:0:
352,96,31530,1,8,0:0:0:0:
160,96,32096,1,0,0:0:0:0:
352,96,32237,1,8,0:0:0:0:
352,96,32379,1,8,0:0:0:0:
352,96,32662,1,8,0:0:0:0:
160,96,32945,1,0,0:0:0:0:
352,288,33228,1,12,0:0:0:0:
160,96,33794,1,0,0:0:0:0:
352,96,34360,1,8,0:0:0:0:
352,96,34643,1,8,0:0:0:0:
160,96,34784,1,0,0:0:0:0:
352,96,34926,1,8,0:0:0:0:
160,96,35209,1,0,0:0:0:0:
352,96,35492,1,8,0:0:0:0:
352,96,35916,1,8,0:0:0:0:
352,96,36058,1,8,0:0:0:0:
160,96,36341,1,0,0:0:0:0:
352,96,36624,1,8,0:0:0:0:
352,96,36765,1,8,0:0:0:0:
352,96,37048,1,8,0:0:0:0:
160,288,37331,1,4,0:0:0:0:
160,288,37473,1,4,0:0:0:0:
352,288,37755,1,12,0:0:0:0:
352,96,38321,1,8,0:0:0:0:
352,96,38604,1,8,0:0:0:0:
352,96,38887,1,8,0:0:0:0:
160,96,39170,1,0,0:0:0:0:
352,96,39453,1,8,0:0:0:0:
352,96,40019,1,8,0:0:0:0:
160,96,40444,1,0,0:0:0:0:
352,96,40868,1,8,0:0:0:0:
160,96,41293,1,0,0:0:0:0:
352,96,41717,1,8,0:0:0:0:
352,96,42000,1,8,0:0:0:0:
160,96,42142,1,0,0:0:0:0:
352,96,42283,1,8,0:0:0:0:
160,96,42849,1,0,0:0:0:0:
352,96,43132,1,8,0:0:0:0:
352,96,43415,1,8,0:0:0:0:
352,96,43698,1,8,0:0:0:0:
352,96,43981,1,8,0:0:0:0:
352,96,44547,1,8,0:0:0:0:
352,96,44689,1,8,0:0:0:0:
160,96,44971,1,0,0:0:0:0:
352,96,45113,1,8,0:0:0:0:
352,96,45396,1,8,0:0:0:0:
160,96,45679,1,0,0:0:0:0:
352,96,46245,1,8,0:0:0:0:
160,96,46387,1,0,0:0:0:0:
352,96,46528,1,8,0:0:0:0:
352,288,46811,1,12,0:0:0:0:
352,96,47377,1,8,0:0:0:0:
352,96,47660,1,8,0:0:0:0:
160,96,47943,1,0,0:0:0:0:
160,96,48226,1,0,0:0:0:0:
352,96,48509,1,8,0:0:0:0:
352,96,49075,1,8,0:0:0:0:
352,96,49500,1,8,0:0:0:0:
160,96,49924,1,0,0:0:0:0:
352,96,50349,1,8,0:0:0:0:
352,96,50773,1,8,0:0:0:0:
352,96,50915,1,8,0:0:0:0:
160,96,51056,1,0,0:0:0:0:
352,96,51339,1,8,0:0:0:0:
160,96,51905,1,0,0:0:0:0:
352,96,52188,1,8,0:0:0:0:
352,96,52471,1,8,0:0:0:0:
160,96,52754,1,0,0:0:0:0:
352,96,53037,1,8,0:0:0:0:
352,96,53603,1,8,0:0:0:0:
352,96,53745,1,8,0:0:0:0:
352,96,54028,1,8,0:0:0:0:
352,96,54169,1,8,0:0:0:0:
160,96,54452,1,0,0:0:0:0:
352,96,54735,1,8,0:0:0:0:
352,96,55018,1,8,0:0:0:0:
352,96,55301,1,8,0:0:0:0:
160,96,55443,1,0,0:0:0:0:
352,96,55584,1,8,0:0:0:0:
352,288,55867,1,12,0:0:0:0:
160,96,56433,1,0,0:0:0:0:
352,96,56857,1,8,0:0:0:0:
352,96,57423,1,8,0:0:0:0:
352,96,57565,1,8,0:0:0:0:
352,96,57848,1,8,0:0:0:0:
160,96,58131,1,0,0:0:0:0:
352,96,58697,1,8,0:0:0:0:
352,96,59121,1,8,0:0:0:0:
352,96,59687,1,8,0:0:0:0:
352,96,59829,1,8,0:0:0:0:
352,288,60112,1,12,0:0:0:0:
160,288,60395,1,4,0:0:0:0:
160,96,60961,1,0,0:0:0:0:
160,96,61385,1,0,0:0:0:0:
160,96,61952,1,0,0:0:0:0:
160,96,62093,1,0,0:0:0:0:
352,96,62376,1,8,0:0:0:0:
160,96,62659,1,0,0:0:0:0:
352,96,63508,1,8,0:0:0:0:
256,192,63791,2,0,L|192:192,14,35
160,96,64923,1,0,0:0:0:0:
352,96,65489,1,8,0:0:0:0:
160,96,65913,1,0,0:0:0:0:
352,96,66479,1,8,0:0:0:0:
352,96,66904,1,8,0:0:0:0:
160,96,67187,1,0,0:0:0:0:
160,96,67753,1,0,0:0:0:0:
352,96,68177,1,8,0:0:0:0:
352,96,68743,1,8,0:0:0:0:
352,96,69026,1,8,0:0:0:0:
352,288,69451,1,12,0:0:0:0:
352,96,70017,1,8,0:0:0:0:
352,96,70441,1,8,0:0:0:0:
352,96,71007,1,8,0:0:0:0:
352,96,71432,1,8,0:0:0:0:
160,96,71715,1,0,0:0:0:0:
352,96,71998,1,8,0:0:0:0:
352,96,72281,1,8,0:0:0:0:
352,96,72705,1,8,0:0:0:0:
160,96,72847,1,0,0:0:0:0:
352,96,73271,1,8,0:0:0:0:
352,96,73554,1,8,0:0:0:0:
160,96,73696,1,0,0:0:0:0:
160,96,73978,1,0,0:0:0:0:
352,96,74544,1,8,0:0:0:0:
160,96,74686,1,0,0:0:0:0:
352,96,74969,1,8,0:0:0:0:
160,96,75252,1,0,0:0:0:0:
352,96,75535,1,8,0:0:0:0:
352,96,75959,1,8,0:0:0:0:
160,96,76242,1,0,0:0:0:0:
352,96,76808,1,8,0:0:0:0:
352,96,76950,1,8,0:0:0:0:
352,96,77233,1,8,0:0:0:0:
160,96,77516,1,0,0:0:0:0:
352,96,77799,1,8,0:0:0:0:
352,96,78223,1,8,0:0:0:0:
352,96,78506,1,8,0:0:0:0:
352,96,79072,1,8,0:0:0:0:
160,96,79214,1,0,0:0:0:0:
352,96,79497,1,8,0:0:0:0:
160,96,79780,1,0,0:0:0:0:
352,96,80063,1,8,0:0:0:0:
352,96,80487,1,8,0:0:0:0:
160,96,80770,1,0,0:0:0:0:
160,96,81336,1,0,0:0:0:0:
352,96,81619,1,8,0:0:0:0:
256,192,81902,12,8,82893,0:0:0:0:
160,288,83034,5,4,0:0:0:0:
352,96,83317,1,8,0:0:0:0:
160,96,83883,1,0,0:0:0:0:
160,288,84166,1,4,0:0:0:0:
352,96,84449,1,8,0:0:0:0:
160,96,85015,1,0,0:0:0:0:
160,288,85298,1,4,0:0:0:0:
352,96,85581,1,8,0:0:0:0:
160,96,86147,1,0,0:0:0:0:
160,288,86430,1,4,0:0:0:0:
352,96,86713,1,8,0:0:0:0:
160,96,86996,1,0,0:0:0:0:
160,288,87562,1,4,0:0:0:0:
352,96,87845,1,8,0:0:0:0:
160,288,88128,1,4,0:0:0:0:
352,96,88411,1,8,0:0:0:0:
160,288,88694,1,4,0:0:0:0:
352,96,88977,1,8,0:0:0:0:
160,288,89260,1,4,0:0:0:0:
352,96,89543,1,8,0:0:0:0:
352,96,89685,1,8,0:0:0:0:
160,96,89826,1,0,0:0:0:0:
160,96,90109,1,0,0:0:0:0:
352,96,90392,1,8,0:0:0:0:
352,96,90675,1,8,0:0:0:0:
160,288,90958,1,4,0:0:0:0:
160,288,91100,1,4,0:0:0:0:
160,288,91383,1,4,0:0:0:0:
160,288,91666,1,4,0:0:0:0:
352,288,92090,1,12,0:0:0:0:
352,288,92231,1,12,0:0:0:0:
352,288,92514,1,12,0:0:0:0:
352,288,92797,1,12,0:0:0:0:
352,96,92939,1,8,0:0:0:0:
352,288,93222,1,12,0:0:0:0:
352,96,93788,1,8,0:0:0:0:
160,96,94071,1,0,0:0:0:0:
352,96,94354,1,8,0:0:0:0:
352,96,94637,1,8,0:0:0:0:
352,96,94920,1,8,0:0:0:0:
160,96,95203,1,0,0:0:0:0:
160,96,95344,1,0,0:0:0:0:
352,288,95486,1,12,0:0:0:0:
160,96,96052,1,0,0:0:0:0:
352,96,96335,1,8,0:0:0:0:
160,96,96618,1,0,0:0:0:0:
160,96,97184,1,0,0:0:0:0:
160,96,97325,1,0,0:0:0:0:
160,96,97467,1,0,0:0:0:0:
352,96,97750,1,8,0:0:0:0:
352,96,98174,1,8,0:0:0:0:
352,96,98599,1,8,0:0:0:0:
352,96,99023,1,8,0:0:0:0:
352,96,99448,1,8,0:0:0:0:
352,96,99589,1,8,0:0:0:0:
160,96,99731,1,0,0:0:0:0:
160,96,100014,1,0,0:0:0:0:
352,96,100580,1,8,0:0:0:0:
352,96,101004,1,8,0:0:0:0:
352,96,101146,1,8,0:0:0:0:
160,96,101429,1,0,0:0:0:0:
352,96,101712,1,8,0:0:0:0:
352,96,101995,1,8,0:0:0:0:
352,96,102136,1,8,0:0:0:0:
160,96,102278,1,0,0:0:0:0:
352,96,102844,1,8,0:0:0:0:
160,96,103127,1,0,0:0:0:0:
352,96,103410,1,8,0:0:0:0:
352,96,103693,1,8,0:0:0:0:
352,96,103976,1,8,0:0:0:0:
160,96,104117,1,0,0:0:0:0:
352,96,104259,1,8,0:0:0:0:
352,288,104542,1,12,0:0:0:0:
160,96,105108,1,0,0:0:0:0:
352,96,105391,1,8,0:0:0:0:
160,96,105674,1,0,0:0:0:0:
352,96,106240,1,8,0:0:0:0:
352,96,106381,1,8,0:0:0:0:
352,96,106523,1,8,0:0:0:0:
352,96,106806,1,8,0:0:0:0:
160,96,107230,1,0,0:0:0:0:
352,96,107655,1,8,0:0:0:0:
352,96,108079,1,8,0:0:0:0:
352,96,108504,1,8,0:0:0:0:
352,96,108645,1,8,0:0:0:0:
160,96,108787,1,0,0:0:0:0:
352,96,109070,1,8,0:0:0:0:
352,96,109636,1,8,0:0:0:0:
160,96,109919,1,0,0:0:0:0:
352,96,110060,1,8,0:0:0:0:
352,96,110201,1,8,0:0:0:0:
352,96,110768,1,8,0:0:0:0:
352,96,111051,1,8,0:0:0:0:
160,96,111334,1,0,0:0:0:0:
352,96,111616,1,8,0:0:0:0:
352,96,111899,1,8,0:0:0:0:
160,96,112182,1,0,0:0:0:0:
352,96,112465,1,8,0:0:0:0:
352,96,112748,1,8,0:0:0:0:
352,96,113031,1,8,0:0:0:0:
160,96,113173,1,0,0:0:0:0:
352,96,113314,1,8,0:0:0:0:
352,288,113597,1,12,0:0:0:0:
160,96,114163,1,0,0:0:0:0:
352,96,114446,1,8,0:0:0:0:
352,96,114729,1,8,0:0:0:0:
352,96,115012,1,8,0:0:0:0:
160,96,115154,1,0,0:0:0:0:
352,96,115295,1,8,0:0:0:0:
160,96,115578,1,0,0:0:0:0:
352,96,115861,1,8,0:0:0:0:
352,96,116286,1,8,0:0:0:0:
352,96,116427,1,8,0:0:0:0:
160,96,116993,1,0,0:0:0:0:
352,96,117135,1,8,0:0:0:0:
352,96,117276,1,8,0:0:0:0:
160,96,117559,1,0,0:0:0:0:
160,96,117842,1,0,0:0:0:0:
352,288,118125,1,12,0:0:0:0:
352,96,118833,1,8,0:0:0:0:
352,96,118974,1,8,0:0:0:0:
352,96,119257,1,8,0:0:0:0:
352,96,119540,1,8,0:0:0:0:
160,96,119682,1,0,0:0:0:0:
352,96,119823,1,8,0:0:0:0:
160,96,120106,1,0,0:0:0:0:
352,96,120389,1,8,0:0:0:0:
352,96,120814,1,8,0:0:0:0:
352,96,120955,1,8,0:0:0:0:
160,96,121238,1,0,0:0:0:0:
160,288,121521,1,4,0:0:0:0:
352,288,121946,1,12,0:0:0:0:
352,288,122229,1,12,0:0:0:0:
160,288,122653,1,4,0:0:0:0:
352,288,123078,1,12,0:0:0:0:
352,288,123361,1,12,0:0:0:0:
160,96,123644,1,0,0:0:0:0:
352,288,123785,1,12,0:0:0:0:
