osu file format v14

[General]
AudioFilename: audio.mp3
AudioLeadIn: 0
PreviewTime: 8254
Countdown: 0
SampleSet: Normal
StackLeniency: 0.7
Mode: 1
LetterboxInBreaks: 0
WidescreenStoryboard: 0

[Editor]
Bookmarks: 1533,10588,28700,37755,55867,64923,73978,83034,95486
DistanceSpacing: 1.7
BeatDivisor: 4
GridSize: 32
TimelineZoom: 3.499999

[Metadata]
Title:Elemental Creation -GITADO ROCK ver.-
TitleUnicode:Elemental Creation -GITADO ROCK ver.-
Artist:dj TAKA meets DJ YOSHITAKA ft.guit.good-cool
ArtistUnicode:dj TAKA meets DJ YOSHITAKA ft.guit.good-cool
Creator:frukoyurdakul
Version:Inner Oni
Source:
Tags:guitarfreaks drummania beatmaniaiidx 20 tricoro sunny park dancedancerevolution reflec beat colette private bemani academy deathstream _DUSK_
BeatmapID:1461118
BeatmapSetID:690344

[Difficulty]
HPDrainRate:6
CircleSize:2
OverallDifficulty:6.5
ApproachRate:10
SliderMultiplier:1.4
SliderTickRate:1

[Events]
//Background and Video events
0,0,"BG.jpg",0,0
//Break Periods
//Storyboard Layer 0 (Background)
//Storyboard Layer 1 (Fail)
//Storyboard Layer 2 (Pass)
//Storyboard Layer 3 (Foreground)
//Storyboard Sound Samples

[TimingPoints]
1533,282.992170549948,4,1,0,80,1,0
8254,-100,4,1,0,70,0,0
10518,-100,4,1,0,80,0,0
28700,-100,4,1,0,80,0,1
37755,-100,4,1,0,80,0,0
64923,-111.111111111111,4,1,0,80,0,0
66904,-114.942528735632,4,1,0,80,0,0
67045,-117.647058823529,4,1,0,80,0,0
67187,-119.047619047619,4,1,0,80,0,0
69168,-123.456790123457,4,1,0,80,0,0
69309,-126.582278481013,4,1,0,80,0,0
69451,-128.205128205128,4,1,0,80,0,0
71432,-131.578947368421,4,1,0,80,0,0
71573,-135.135135135135,4,1,0,80,0,0
71715,-136.986301369863,4,1,0,80,0,0
73696,-138.888888888889,4,1,0,80,0,0
73837,-140.845070422535,4,1,0,80,0,0
73978,-142.857142857143,4,1,0,70,0,0
81902,-25,4,1,0,80,0,0
83034,-100,4,1,0,80,0,0
89968,-99.009900990099,4,1,0,80,0,0
90109,-97.0873786407767,4,1,0,80,0,0
90251,-94.3396226415094,4,1,0,80,0,0
90392,-90.9090909090909,4,1,0,80,0,0
90534,-86.9565217391304,4,1,0,80,0,0
90675,-82.6446280991736,4,1,0,80,0,0
90817,-78.125,4,1,0,80,0,0
90958,-74.0740740740741,4,1,0,80,0,0
93505,-100,4,1,0,70,0,0
95415,-100,4,1,0,80,0,0
113597,-100,4,1,0,80,0,1
121026,-99.009900990099,4,1,0,80,0,1
121097,-97.0873786407767,4,1,0,80,0,1
121167,-94.3396226415094,4,1,0,80,0,1
121238,-90.9090909090909,4,1,0,80,0,1
121309,-86.9565217391304,4,1,0,80,0,1
121380,-82.6446280991736,4,1,0,80,0,1
121521,-74.0740740740741,4,1,0,80,0,1
123785,-74.0740740740741,4,1,0,80,0,0

[HitObjects]
352,288,1533,5,12,0:0:0:0:
160,96,1674,1,0,0:0:0:0:
160,96,1815,1,0,0:0:0:0:
352,288,1957,1,12,0:0:0:0:
352,288,2240,1,12,0:0:0:0:
352,288,2523,1,12,0:0:0:0:
352,288,2664,1,12,0:0:0:0:
160,96,2806,1,0,0:0:0:0:
352,96,2947,1,8,0:0:0:0:
160,96,3089,1,0,0:0:0:0:
160,96,3160,1,0,0:0:0:0:
352,96,3230,1,8,0:0:0:0:
160,96,3372,1,0,0:0:0:0:
352,96,3513,1,8,0:0:0:0:
160,96,3655,1,0,0:0:0:0:
160,96,3938,1,0,0:0:0:0:
352,288,4079,1,12,0:0:0:0:
352,288,4221,1,12,0:0:0:0:
160,288,4362,1,4,0:0:0:0:
352,288,4504,1,12,0:0:0:0:
160,288,4787,1,4,0:0:0:0:
352,288,4928,1,12,0:0:0:0:
160,96,5070,1,0,0:0:0:0:
160,96,5141,1,0,0:0:0:0:
352,96,5211,1,8,0:0:0:0:
352,96,5353,1,8,0:0:0:0:
160,96,5494,1,0,0:0:0:0:
352,96,5636,1,8,0:0:0:0:
160,96,5707,1,0,0:0:0:0:
352,96,5777,1,8,0:0:0:0:
352,96,5848,1,8,0:0:0:0:
160,96,5919,1,0,0:0:0:0:
352,288,6060,1,12,0:0:0:0:
160,96,6202,1,0,0:0:0:0:
352,96,6343,1,8,0:0:0:0:
352,96,6485,1,8,0:0:0:0:
160,96,6626,1,0,0:0:0:0:
160,96,6768,1,0,0:0:0:0:
160,96,6839,1,0,0:0:0:0:
352,96,6909,1,8,0:0:0:0:
160,96,7051,1,0,0:0:0:0:
352,288,7192,1,12,0:0:0:0:
352,96,7334,1,8,0:0:0:0:
160,96,7475,1,0,0:0:0:0:
160,96,7546,1,0,0:0:0:0:
352,96,7617,1,8,0:0:0:0:
160,96,7688,1,0,0:0:0:0:
352,96,7758,1,8,0:0:0:0:
160,96,7900,1,0,0:0:0:0:
160,96,7971,1,0,0:0:0:0:
352,96,8041,1,8,0:0:0:0:
352,96,8112,1,8,0:0:0:0:
160,96,8183,1,0,0:0:0:0:
256,192,8324,2,0,L|192:192,6,35
352,96,8890,1,8,0:0:0:0:
160,96,9173,1,0,0:0:0:0:
352,96,9456,1,8,0:0:0:0:
160,96,9527,1,0,0:0:0:0:
352,96,9598,1,8,0:0:0:0:
352,96,9669,1,8,0:0:0:0:
160,96,9739,1,0,0:0:0:0:
352,96,9810,1,8,0:0:0:0:
160,96,9881,1,0,0:0:0:0:
160,96,9952,1,0,0:0:0:0:
352,96,10022,1,8,0:0:0:0:
160,96,10093,1,0,0:0:0:0:
160,96,10164,1,0,0:0:0:0:
352,96,10235,1,8,0:0:0:0:
352,96,10305,1,8,0:0:0:0:
160,96,10376,1,0,0:0:0:0:
352,96,10447,1,8,0:0:0:0:
160,288,10588,1,4,0:0:0:0:
160,96,10730,1,0,0:0:0:0:
160,96,10800,1,0,0:0:0:0:
352,96,10871,1,8,0:0:0:0:
352,96,11013,1,8,0:0:0:0:
160,96,11154,1,0,0:0:0:0:
160,96,11296,1,0,0:0:0:0:
352,96,11437,1,8,0:0:0:0:
352,96,11508,1,8,0:0:0:0:
160,96,11579,1,0,0:0:0:0:
352,96,11720,1,8,0:0:0:0:
352,96,11862,1,8,0:0:0:0:
352,96,11932,1,8,0:0:0:0:
160,96,12003,1,0,0:0:0:0:
160,96,12145,1,0,0:0:0:0:
352,96,12286,1,8,0:0:0:0:
352,96,12357,1,8,0:0:0:0:
160,96,12428,1,0,0:0:0:0:
160,96,12498,1,0,0:0:0:0:
352,96,12569,1,8,0:0:0:0:
160,96,12711,1,0,0:0:0:0:
352,96,12852,1,8,0:0:0:0:
160,96,12994,1,0,0:0:0:0:
160,96,13064,1,0,0:0:0:0:
352,96,13135,1,8,0:0:0:0:
352,96,13277,1,8,0:0:0:0:
352,96,13347,1,8,0:0:0:0:
160,96,13418,1,0,0:0:0:0:
160,96,13560,1,0,0:0:0:0:
352,96,13701,1,8,0:0:0:0:
160,96,13843,1,0,0:0:0:0:
160,96,13913,1,0,0:0:0:0:
352,96,13984,1,8,0:0:0:0:
352,96,14126,1,8,0:0:0:0:
160,96,14267,1,0,0:0:0:0:
352,96,14338,1,8,0:0:0:0:
160,96,14409,1,0,0:0:0:0:
160,96,14479,1,0,0:0:0:0:
352,96,14550,1,8,0:0:0:0:
352,96,14692,1,8,0:0:0:0:
352,96,14762,1,8,0:0:0:0:
160,96,14833,1,0,0:0:0:0:
352,96,14904,1,8,0:0:0:0:
160,96,14975,1,0,0:0:0:0:
160,96,15045,1,0,0:0:0:0:
352,96,15116,1,8,0:0:0:0:
160,96,15258,1,0,0:0:0:0:
160,96,15328,1,0,0:0:0:0:
352,96,15399,1,8,0:0:0:0:
352,96,15541,1,8,0:0:0:0:
160,96,15682,1,0,0:0:0:0:
160,96,15824,1,0,0:0:0:0:
160,96,15894,1,0,0:0:0:0:
352,96,15965,1,8,0:0:0:0:
160,96,16036,1,0,0:0:0:0:
352,96,16107,1,8,0:0:0:0:
352,96,16248,1,8,0:0:0:0:
160,96,16390,1,0,0:0:0:0:
352,96,16531,1,8,0:0:0:0:
352,96,16673,1,8,0:0:0:0:
352,96,16743,1,8,0:0:0:0:
352,96,16814,1,8,0:0:0:0:
160,96,16956,1,0,0:0:0:0:
352,96,17097,1,8,0:0:0:0:
352,96,17239,1,8,0:0:0:0:
352,96,17380,1,8,0:0:0:0:
160,96,17451,1,0,0:0:0:0:
352,96,17522,1,8,0:0:0:0:
160,96,17592,1,0,0:0:0:0:
160,96,17663,1,0,0:0:0:0:
352,96,17734,1,8,0:0:0:0:
160,96,17805,1,0,0:0:0:0:
352,96,17875,1,8,0:0:0:0:
160,96,17946,1,0,0:0:0:0:
352,96,18017,1,8,0:0:0:0:
352,96,18088,1,8,0:0:0:0:
160,96,18158,1,0,0:0:0:0:
352,96,18229,1,8,0:0:0:0:
352,96,18300,1,8,0:0:0:0:
352,96,18371,1,8,0:0:0:0:
160,96,18441,1,0,0:0:0:0:
352,96,18512,1,8,0:0:0:0:
160,96,18654,1,0,0:0:0:0:
352,96,18724,1,8,0:0:0:0:
352,96,18795,1,8,0:0:0:0:
160,96,18937,1,0,0:0:0:0:
160,96,19007,1,0,0:0:0:0:
352,96,19078,1,8,0:0:0:0:
352,96,19149,1,8,0:0:0:0:
160,96,19220,1,0,0:0:0:0:
160,96,19290,1,0,0:0:0:0:
352,96,19361,1,8,0:0:0:0:
352,96,19432,1,8,0:0:0:0:
160,96,19503,1,0,0:0:0:0:
352,288,19644,1,12,0:0:0:0:
160,96,19785,1,0,0:0:0:0:
160,96,19856,1,0,0:0:0:0:
352,96,19927,1,8,0:0:0:0:
352,96,20068,1,8,0:0:0:0:
160,96,20210,1,0,0:0:0:0:
160,96,20281,1,0,0:0:0:0:
160,96,20351,1,0,0:0:0:0:
352,96,20493,1,8,0:0:0:0:
160,96,20564,1,0,0:0:0:0:
160,96,20634,1,0,0:0:0:0:
160,96,20705,1,0,0:0:0:0:
352,96,20776,1,8,0:0:0:0:
352,96,20917,1,8,0:0:0:0:
160,96,21059,1,0,0:0:0:0:
160,96,21130,1,0,0:0:0:0:
160,96,21200,1,0,0:0:0:0:
352,96,21342,1,8,0:0:0:0:
160,96,21483,1,0,0:0:0:0:
160,96,21554,1,0,0:0:0:0:
352,96,21625,1,8,0:0:0:0:
160,96,21766,1,0,0:0:0:0:
160,96,21837,1,0,0:0:0:0:
352,96,21908,1,8,0:0:0:0:
160,96,22049,1,0,0:0:0:0:
352,96,22191,1,8,0:0:0:0:
352,96,22332,1,8,0:0:0:0:
352,96,22403,1,8,0:0:0:0:
160,96,22474,1,0,0:0:0:0:
160,96,22615,1,0,0:0:0:0:
160,96,22686,1,0,0:0:0:0:
352,96,22757,1,8,0:0:0:0:
160,96,22898,1,0,0:0:0:0:
160,96,23040,1,0,0:0:0:0:
160,96,23111,1,0,0:0:0:0:
352,96,23181,1,8,0:0:0:0:
160,96,23323,1,0,0:0:0:0:
352,96,23394,1,8,0:0:0:0:
160,96,23464,1,0,0:0:0:0:
160,96,23535,1,0,0:0:0:0:
352,96,23606,1,8,0:0:0:0:
352,96,23747,1,8,0:0:0:0:
160,96,23818,1,0,0:0:0:0:
352,96,23889,1,8,0:0:0:0:
352,96,23960,1,8,0:0:0:0:
160,96,24030,1,0,0:0:0:0:
160,96,24101,1,0,0:0:0:0:
352,96,24172,1,8,0:0:0:0:
160,96,24313,1,0,0:0:0:0:
160,96,24384,1,0,0:0:0:0:
160,96,24455,1,0,0:0:0:0:
352,96,24596,1,8,0:0:0:0:
160,96,24738,1,0,0:0:0:0:
160,96,24879,1,0,0:0:0:0:
160,96,24950,1,0,0:0:0:0:
352,96,25021,1,8,0:0:0:0:
160,96,25092,1,0,0:0:0:0:
352,96,25162,1,8,0:0:0:0:
352,96,25233,1,8,0:0:0:0:
352,96,25304,1,8,0:0:0:0:
160,96,25445,1,0,0:0:0:0:
352,96,25587,1,8,0:0:0:0:
160,96,25728,1,0,0:0:0:0:
160,96,25799,1,0,0:0:0:0:
352,96,25870,1,8,0:0:0:0:
352,96,25941,1,8,0:0:0:0:
160,96,26011,1,0,0:0:0:0:
352,96,26153,1,8,0:0:0:0:
352,96,26294,1,8,0:0:0:0:
352,96,26436,1,8,0:0:0:0:
160,96,26507,1,0,0:0:0:0:
352,96,26577,1,8,0:0:0:0:
160,96,26648,1,0,0:0:0:0:
160,96,26719,1,0,0:0:0:0:
352,96,26790,1,8,0:0:0:0:
160,96,26860,1,0,0:0:0:0:
352,96,26931,1,8,0:0:0:0:
160,96,27002,1,0,0:0:0:0:
352,96,27073,1,8,0:0:0:0:
352,96,27143,1,8,0:0:0:0:
160,96,27214,1,0,0:0:0:0:
352,96,27285,1,8,0:0:0:0:
352,96,27356,1,8,0:0:0:0:
160,96,27426,1,0,0:0:0:0:
160,96,27497,1,0,0:0:0:0:
352,96,27568,1,8,0:0:0:0:
352,96,27709,1,8,0:0:0:0:
352,96,27780,1,8,0:0:0:0:
352,96,27851,1,8,0:0:0:0:
160,96,27992,1,0,0:0:0:0:
160,96,28063,1,0,0:0:0:0:
352,96,28134,1,8,0:0:0:0:
352,96,28205,1,8,0:0:0:0:
352,96,28275,1,8,0:0:0:0:
160,96,28346,1,0,0:0:0:0:
352,96,28417,1,8,0:0:0:0:
352,96,28488,1,8,0:0:0:0:
160,96,28558,1,0,0:0:0:0:
352,288,28700,1,12,0:0:0:0:
160,96,28841,1,0,0:0:0:0:
160,96,28912,1,0,0:0:0:0:
352,96,28983,1,8,0:0:0:0:
160,96,29124,1,0,0:0:0:0:
160,96,29195,1,0,0:0:0:0:
352,96,29266,1,8,0:0:0:0:
352,96,29407,1,8,0:0:0:0:
160,96,29478,1,0,0:0:0:0:
352,96,29549,1,8,0:0:0:0:
352,96,29619,1,8,0:0:0:0:
160,96,29690,1,0,0:0:0:0:
160,96,29761,1,0,0:0:0:0:
352,96,29832,1,8,0:0:0:0:
160,96,29973,1,0,0:0:0:0:
352,96,30044,1,8,0:0:0:0:
160,96,30115,1,0,0:0:0:0:
352,96,30256,1,8,0:0:0:0:
160,96,30327,1,0,0:0:0:0:
352,96,30398,1,8,0:0:0:0:
160,96,30539,1,0,0:0:0:0:
352,96,30610,1,8,0:0:0:0:
160,96,30681,1,0,0:0:0:0:
352,96,30822,1,8,0:0:0:0:
160,96,30893,1,0,0:0:0:0:
352,96,30964,1,8,0:0:0:0:
352,96,31034,1,8,0:0:0:0:
160,96,31105,1,0,0:0:0:0:
160,96,31176,1,0,0:0:0:0:
160,96,31247,1,0,0:0:0:0:
160,96,31317,1,0,0:0:0:0:
352,96,31388,1,8,0:0:0:0:
352,96,31530,1,8,0:0:0:0:
160,96,31671,1,0,0:0:0:0:
352,96,31742,1,8,0:0:0:0:
352,96,31813,1,8,0:0:0:0:
160,96,31883,1,0,0:0:0:0:
352,96,31954,1,8,0:0:0:0:
160,96,32096,1,0,0:0:0:0:
352,96,32166,1,8,0:0:0:0:
352,96,32237,1,8,0:0:0:0:
160,96,32308,1,0,0:0:0:0:
352,96,32379,1,8,0:0:0:0:
352,96,32449,1,8,0:0:0:0:
352,96,32520,1,8,0:0:0:0:
160,96,32591,1,0,0:0:0:0:
352,96,32662,1,8,0:0:0:0:
352,96,32732,1,8,0:0:0:0:
160,96,32803,1,0,0:0:0:0:
352,96,32874,1,8,0:0:0:0:
352,96,32945,1,8,0:0:0:0:
160,96,33015,1,0,0:0:0:0:
160,96,33086,1,0,0:0:0:0:
352,288,33228,1,12,0:0:0:0:
352,96,33369,1,8,0:0:0:0:
160,96,33440,1,0,0:0:0:0:
352,96,33511,1,8,0:0:0:0:
160,96,33652,1,0,0:0:0:0:
160,96,33723,1,0,0:0:0:0:
352,96,33794,1,8,0:0:0:0:
160,96,33864,1,0,0:0:0:0:
160,96,33935,1,0,0:0:0:0:
160,96,34006,1,0,0:0:0:0:
352,96,34077,1,8,0:0:0:0:
160,96,34147,1,0,0:0:0:0:
352,96,34218,1,8,0:0:0:0:
352,96,34360,1,8,0:0:0:0:
160,96,34501,1,0,0:0:0:0:
352,96,34572,1,8,0:0:0:0:
160,96,34643,1,0,0:0:0:0:
352,96,34784,1,8,0:0:0:0:
160,96,34855,1,0,0:0:0:0:
352,96,34926,1,8,0:0:0:0:
160,96,35067,1,0,0:0:0:0:
352,96,35138,1,8,0:0:0:0:
160,96,35209,1,0,0:0:0:0:
352,96,35350,1,8,0:0:0:0:
160,96,35421,1,0,0:0:0:0:
352,96,35492,1,8,0:0:0:0:
352,96,35562,1,8,0:0:0:0:
160,96,35633,1,0,0:0:0:0:
160,96,35704,1,0,0:0:0:0:
160,96,35775,1,0,0:0:0:0:
160,96,35845,1,0,0:0:0:0:
352,96,35916,1,8,0:0:0:0:
352,96,36058,1,8,0:0:0:0:
352,96,36199,1,8,0:0:0:0:
352,96,36270,1,8,0:0:0:0:
352,96,36341,1,8,0:0:0:0:
160,96,36411,1,0,0:0:0:0:
160,96,36482,1,0,0:0:0:0:
160,96,36553,1,0,0:0:0:0:
352,96,36624,1,8,0:0:0:0:
352,96,36765,1,8,0:0:0:0:
352,96,37048,1,8,0:0:0:0:
160,288,37331,1,4,0:0:0:0:
160,288,37473,1,4,0:0:0:0:
352,288,37755,1,12,0:0:0:0:
160,96,37897,1,0,0:0:0:0:
160,96,37968,1,0,0:0:0:0:
352,96,38038,1,8,0:0:0:0:
352,96,38180,1,8,0:0:0:0:
160,96,38321,1,0,0:0:0:0:
160,96,38392,1,0,0:0:0:0:
160,96,38463,1,0,0:0:0:0:
352,96,38604,1,8,0:0:0:0:
160,96,38746,1,0,0:0:0:0:
160,96,38817,1,0,0:0:0:0:
352,96,38887,1,8,0:0:0:0:
352,96,39029,1,8,0:0:0:0:
160,96,39100,1,0,0:0:0:0:
160,96,39170,1,0,0:0:0:0:
160,96,39312,1,0,0:0:0:0:
352,96,39453,1,8,0:0:0:0:
160,96,39595,1,0,0:0:0:0:
160,96,39666,1,0,0:0:0:0:
352,96,39736,1,8,0:0:0:0:
352,96,39807,1,8,0:0:0:0:
160,96,39878,1,0,0:0:0:0:
352,96,40019,1,8,0:0:0:0:
160,96,40161,1,0,0:0:0:0:
160,96,40232,1,0,0:0:0:0:
160,96,40302,1,0,0:0:0:0:
352,96,40444,1,8,0:0:0:0:
160,96,40585,1,0,0:0:0:0:
160,96,40727,1,0,0:0:0:0:
160,96,40798,1,0,0:0:0:0:
352,96,40868,1,8,0:0:0:0:
160,96,41010,1,0,0:0:0:0:
160,96,41081,1,0,0:0:0:0:
352,96,41151,1,8,0:0:0:0:
160,96,41222,1,0,0:0:0:0:
352,96,41293,1,8,0:0:0:0:
160,96,41434,1,0,0:0:0:0:
160,96,41505,1,0,0:0:0:0:
160,96,41576,1,0,0:0:0:0:
352,96,41717,1,8,0:0:0:0:
352,96,41859,1,8,0:0:0:0:
160,96,41930,1,0,0:0:0:0:
352,96,42000,1,8,0:0:0:0:
352,96,42071,1,8,0:0:0:0:
160,96,42142,1,0,0:0:0:0:
160,96,42213,1,0,0:0:0:0:
352,96,42283,1,8,0:0:0:0:
160,96,42425,1,0,0:0:0:0:
160,96,42496,1,0,0:0:0:0:
352,96,42566,1,8,0:0:0:0:
352,96,42708,1,8,0:0:0:0:
160,96,42849,1,0,0:0:0:0:
352,96,42920,1,8,0:0:0:0:
160,96,42991,1,0,0:0:0:0:
160,96,43062,1,0,0:0:0:0:
352,96,43132,1,8,0:0:0:0:
160,96,43203,1,0,0:0:0:0:
352,96,43274,1,8,0:0:0:0:
352,96,43415,1,8,0:0:0:0:
160,96,43557,1,0,0:0:0:0:
160,96,43628,1,0,0:0:0:0:
352,96,43698,1,8,0:0:0:0:
160,96,43840,1,0,0:0:0:0:
352,96,43981,1,8,0:0:0:0:
352,96,44123,1,8,0:0:0:0:
160,96,44194,1,0,0:0:0:0:
352,96,44264,1,8,0:0:0:0:
352,96,44406,1,8,0:0:0:0:
352,96,44547,1,8,0:0:0:0:
160,96,44618,1,0,0:0:0:0:
352,96,44689,1,8,0:0:0:0:
160,96,44760,1,0,0:0:0:0:
160,96,44830,1,0,0:0:0:0:
352,96,44901,1,8,0:0:0:0:
160,96,44972,1,0,0:0:0:0:
352,96,45043,1,8,0:0:0:0:
160,96,45113,1,0,0:0:0:0:
160,96,45184,1,0,0:0:0:0:
352,96,45255,1,8,0:0:0:0:
352,96,45326,1,8,0:0:0:0:
160,96,45396,1,0,0:0:0:0:
352,96,45467,1,8,0:0:0:0:
352,96,45538,1,8,0:0:0:0:
160,96,45609,1,0,0:0:0:0:
352,96,45679,1,8,0:0:0:0:
160,96,45821,1,0,0:0:0:0:
352,96,45892,1,8,0:0:0:0:
352,96,45962,1,8,0:0:0:0:
160,96,46104,1,0,0:0:0:0:
160,96,46175,1,0,0:0:0:0:
352,96,46245,1,8,0:0:0:0:
352,96,46316,1,8,0:0:0:0:
160,96,46387,1,0,0:0:0:0:
160,96,46458,1,0,0:0:0:0:
352,96,46528,1,8,0:0:0:0:
352,96,46599,1,8,0:0:0:0:
160,96,46670,1,0,0:0:0:0:
352,288,46811,1,12,0:0:0:0:
160,96,46953,1,0,0:0:0:0:
160,96,47023,1,0,0:0:0:0:
352,96,47094,1,8,0:0:0:0:
352,96,47236,1,8,0:0:0:0:
160,96,47377,1,0,0:0:0:0:
160,96,47448,1,0,0:0:0:0:
160,96,47519,1,0,0:0:0:0:
160,96,47589,1,0,0:0:0:0:
352,96,47660,1,8,0:0:0:0:
160,96,47802,1,0,0:0:0:0:
352,96,47943,1,8,0:0:0:0:
160,96,48014,1,0,0:0:0:0:
352,96,48085,1,8,0:0:0:0:
160,96,48226,1,0,0:0:0:0:
160,96,48368,1,0,0:0:0:0:
160,96,48438,1,0,0:0:0:0:
352,96,48509,1,8,0:0:0:0:
160,96,48651,1,0,0:0:0:0:
160,96,48721,1,0,0:0:0:0:
352,96,48792,1,8,0:0:0:0:
160,96,48934,1,0,0:0:0:0:
352,96,49075,1,8,0:0:0:0:
160,96,49217,1,0,0:0:0:0:
160,96,49287,1,0,0:0:0:0:
160,96,49358,1,0,0:0:0:0:
352,96,49500,1,8,0:0:0:0:
160,96,49641,1,0,0:0:0:0:
160,96,49783,1,0,0:0:0:0:
160,96,49853,1,0,0:0:0:0:
352,96,49924,1,8,0:0:0:0:
160,96,50066,1,0,0:0:0:0:
352,96,50136,1,8,0:0:0:0:
160,96,50207,1,0,0:0:0:0:
352,96,50349,1,8,0:0:0:0:
160,96,50490,1,0,0:0:0:0:
160,96,50561,1,0,0:0:0:0:
160,96,50632,1,0,0:0:0:0:
352,96,50773,1,8,0:0:0:0:
352,96,50915,1,8,0:0:0:0:
352,96,50985,1,8,0:0:0:0:
160,96,51056,1,0,0:0:0:0:
352,96,51127,1,8,0:0:0:0:
160,96,51198,1,0,0:0:0:0:
160,96,51268,1,0,0:0:0:0:
352,96,51339,1,8,0:0:0:0:
160,96,51481,1,0,0:0:0:0:
160,96,51551,1,0,0:0:0:0:
160,96,51622,1,0,0:0:0:0:
352,96,51764,1,8,0:0:0:0:
160,96,51905,1,0,0:0:0:0:
160,96,52047,1,0,0:0:0:0:
160,96,52117,1,0,0:0:0:0:
352,96,52188,1,8,0:0:0:0:
160,96,52259,1,0,0:0:0:0:
352,96,52330,1,8,0:0:0:0:
352,96,52471,1,8,0:0:0:0:
160,96,52613,1,0,0:0:0:0:
160,96,52683,1,0,0:0:0:0:
352,96,52754,1,8,0:0:0:0:
160,96,52896,1,0,0:0:0:0:
160,96,52966,1,0,0:0:0:0:
352,96,53037,1,8,0:0:0:0:
160,96,53179,1,0,0:0:0:0:
352,96,53320,1,8,0:0:0:0:
352,96,53462,1,8,0:0:0:0:
352,96,53603,1,8,0:0:0:0:
160,96,53674,1,0,0:0:0:0:
352,96,53745,1,8,0:0:0:0:
160,96,53815,1,0,0:0:0:0:
160,96,53886,1,0,0:0:0:0:
352,96,53957,1,8,0:0:0:0:
160,96,54028,1,0,0:0:0:0:
352,96,54098,1,8,0:0:0:0:
352,96,54169,1,8,0:0:0:0:
352,96,54240,1,8,0:0:0:0:
160,96,54311,1,0,0:0:0:0:
352,96,54381,1,8,0:0:0:0:
352,96,54452,1,8,0:0:0:0:
160,96,54523,1,0,0:0:0:0:
352,96,54594,1,8,0:0:0:0:
160,96,54664,1,0,0:0:0:0:
352,96,54735,1,8,0:0:0:0:
352,96,54877,1,8,0:0:0:0:
352,96,54947,1,8,0:0:0:0:
352,96,55018,1,8,0:0:0:0:
160,96,55160,1,0,0:0:0:0:
160,96,55230,1,0,0:0:0:0:
352,96,55301,1,8,0:0:0:0:
352,96,55372,1,8,0:0:0:0:
352,96,55443,1,8,0:0:0:0:
160,96,55513,1,0,0:0:0:0:
352,96,55584,1,8,0:0:0:0:
352,96,55655,1,8,0:0:0:0:
160,96,55726,1,0,0:0:0:0:
352,288,55867,1,12,0:0:0:0:
160,96,56008,1,0,0:0:0:0:
352,96,56150,1,8,0:0:0:0:
160,96,56291,1,0,0:0:0:0:
160,96,56362,1,0,0:0:0:0:
352,96,56433,1,8,0:0:0:0:
352,96,56574,1,8,0:0:0:0:
160,96,56716,1,0,0:0:0:0:
352,96,56857,1,8,0:0:0:0:
352,96,57140,1,8,0:0:0:0:
352,96,57176,1,8,0:0:0:0:
352,96,57282,1,8,0:0:0:0:
352,96,57317,1,8,0:0:0:0:
352,96,57423,1,8,0:0:0:0:
352,96,57459,1,8,0:0:0:0:
352,96,57565,1,8,0:0:0:0:
352,96,57600,1,8,0:0:0:0:
352,96,57706,1,8,0:0:0:0:
352,96,57742,1,8,0:0:0:0:
256,192,57848,2,0,L|192:192,2,35
160,96,58131,1,0,0:0:0:0:
160,96,58272,1,0,0:0:0:0:
160,96,58343,1,0,0:0:0:0:
352,96,58414,1,8,0:0:0:0:
160,96,58555,1,0,0:0:0:0:
352,96,58697,1,8,0:0:0:0:
352,96,58838,1,8,0:0:0:0:
160,96,58980,1,0,0:0:0:0:
352,96,59121,1,8,0:0:0:0:
352,96,59404,1,8,0:0:0:0:
352,96,59440,1,8,0:0:0:0:
352,96,59546,1,8,0:0:0:0:
352,96,59581,1,8,0:0:0:0:
352,96,59687,1,8,0:0:0:0:
352,96,59723,1,8,0:0:0:0:
352,96,59829,1,8,0:0:0:0:
352,96,59864,1,8,0:0:0:0:
352,96,59970,1,8,0:0:0:0:
352,96,60006,1,8,0:0:0:0:
256,192,60112,2,0,L|192:192,2,35
160,96,60395,1,0,0:0:0:0:
160,96,60466,1,0,0:0:0:0:
160,96,60536,1,0,0:0:0:0:
352,96,60678,1,8,0:0:0:0:
160,96,60819,1,0,0:0:0:0:
352,96,60961,1,8,0:0:0:0:
160,96,61102,1,0,0:0:0:0:
352,96,61244,1,8,0:0:0:0:
160,96,61385,1,0,0:0:0:0:
160,96,61668,1,0,0:0:0:0:
160,96,61704,1,0,0:0:0:0:
160,96,61810,1,0,0:0:0:0:
160,96,61845,1,0,0:0:0:0:
160,96,61951,1,0,0:0:0:0:
160,96,61987,1,0,0:0:0:0:
160,96,62093,1,0,0:0:0:0:
160,96,62128,1,0,0:0:0:0:
160,96,62234,1,0,0:0:0:0:
160,96,62270,1,0,0:0:0:0:
256,192,62376,2,0,L|192:192,2,35
160,96,62659,1,0,0:0:0:0:
160,96,62800,1,0,0:0:0:0:
352,96,62942,1,8,0:0:0:0:
160,96,63083,1,0,0:0:0:0:
352,96,63225,1,8,0:0:0:0:
352,96,63296,1,8,0:0:0:0:
160,96,63366,1,0,0:0:0:0:
160,96,63508,1,0,0:0:0:0:
352,96,63649,1,8,0:0:0:0:
256,192,63791,2,0,L|192:192,14,35
160,96,64923,1,0,0:0:0:0:
352,96,65206,1,8,0:0:0:0:
352,96,65489,1,8,0:0:0:0:
160,96,65630,1,0,0:0:0:0:
160,96,65913,1,0,0:0:0:0:
352,96,66196,1,8,0:0:0:0:
352,96,66479,1,8,0:0:0:0:
160,96,66762,1,0,0:0:0:0:
352,96,66904,1,8,0:0:0:0:
352,96,67045,1,8,0:0:0:0:
160,96,67187,1,0,0:0:0:0:
352,96,67470,1,8,0:0:0:0:
160,96,67753,1,0,0:0:0:0:
352,96,67894,1,8,0:0:0:0:
352,96,68177,1,8,0:0:0:0:
160,96,68460,1,0,0:0:0:0:
352,96,68743,1,8,0:0:0:0:
352,96,69026,1,8,0:0:0:0:
352,96,69168,1,8,0:0:0:0:
352,96,69309,1,8,0:0:0:0:
352,288,69451,1,12,0:0:0:0:
352,96,69734,1,8,0:0:0:0:
352,96,70017,1,8,0:0:0:0:
160,96,70158,1,0,0:0:0:0:
352,96,70441,1,8,0:0:0:0:
160,96,70724,1,0,0:0:0:0:
352,96,71007,1,8,0:0:0:0:
160,96,71290,1,0,0:0:0:0:
352,96,71432,1,8,0:0:0:0:
352,96,71573,1,8,0:0:0:0:
160,96,71715,1,0,0:0:0:0:
352,96,71998,1,8,0:0:0:0:
352,96,72281,1,8,0:0:0:0:
352,96,72422,1,8,0:0:0:0:
352,96,72705,1,8,0:0:0:0:
160,96,72988,1,0,0:0:0:0:
352,96,73271,1,8,0:0:0:0:
352,96,73554,1,8,0:0:0:0:
160,96,73696,1,0,0:0:0:0:
352,96,73837,1,8,0:0:0:0:
160,96,73978,1,0,0:0:0:0:
160,96,74120,1,0,0:0:0:0:
352,96,74261,1,8,0:0:0:0:
352,96,74544,1,8,0:0:0:0:
160,96,74686,1,0,0:0:0:0:
352,96,74827,1,8,0:0:0:0:
352,96,74969,1,8,0:0:0:0:
160,96,75252,1,0,0:0:0:0:
352,96,75535,1,8,0:0:0:0:
160,96,75818,1,0,0:0:0:0:
352,96,75959,1,8,0:0:0:0:
352,96,76101,1,8,0:0:0:0:
160,96,76242,1,0,0:0:0:0:
160,96,76384,1,0,0:0:0:0:
352,96,76525,1,8,0:0:0:0:
352,96,76808,1,8,0:0:0:0:
352,96,76950,1,8,0:0:0:0:
160,96,77091,1,0,0:0:0:0:
352,96,77233,1,8,0:0:0:0:
160,96,77516,1,0,0:0:0:0:
352,96,77799,1,8,0:0:0:0:
160,96,78082,1,0,0:0:0:0:
352,96,78223,1,8,0:0:0:0:
160,96,78365,1,0,0:0:0:0:
352,96,78506,1,8,0:0:0:0:
160,96,78648,1,0,0:0:0:0:
352,96,78789,1,8,0:0:0:0:
352,96,79072,1,8,0:0:0:0:
160,96,79214,1,0,0:0:0:0:
352,96,79355,1,8,0:0:0:0:
160,96,79497,1,0,0:0:0:0:
160,96,79780,1,0,0:0:0:0:
160,96,80063,1,0,0:0:0:0:
352,96,80346,1,8,0:0:0:0:
352,96,80629,1,8,0:0:0:0:
160,96,80770,1,0,0:0:0:0:
352,96,80912,1,8,0:0:0:0:
352,96,81053,1,8,0:0:0:0:
160,96,81336,1,0,0:0:0:0:
352,96,81619,1,8,0:0:0:0:
352,96,81761,1,8,0:0:0:0:
256,192,81902,12,8,82893,0:0:0:0:
160,288,83034,5,4,0:0:0:0:
160,288,83176,1,4,0:0:0:0:
352,96,83317,1,8,0:0:0:0:
160,96,83388,1,0,0:0:0:0:
160,96,83459,1,0,0:0:0:0:
352,96,83529,1,8,0:0:0:0:
160,96,83600,1,0,0:0:0:0:
160,96,83671,1,0,0:0:0:0:
352,96,83742,1,8,0:0:0:0:
160,96,83812,1,0,0:0:0:0:
352,96,83883,1,8,0:0:0:0:
160,288,84166,1,4,0:0:0:0:
160,288,84308,1,4,0:0:0:0:
352,96,84449,1,8,0:0:0:0:
352,96,84520,1,8,0:0:0:0:
160,96,84591,1,0,0:0:0:0:
352,96,84661,1,8,0:0:0:0:
352,96,84732,1,8,0:0:0:0:
160,96,84803,1,0,0:0:0:0:
352,96,84874,1,8,0:0:0:0:
160,96,84944,1,0,0:0:0:0:
352,96,85015,1,8,0:0:0:0:
160,288,85298,1,4,0:0:0:0:
160,288,85440,1,4,0:0:0:0:
352,96,85581,1,8,0:0:0:0:
160,96,85652,1,0,0:0:0:0:
160,96,85723,1,0,0:0:0:0:
352,96,85793,1,8,0:0:0:0:
160,96,85864,1,0,0:0:0:0:
160,96,85935,1,0,0:0:0:0:
352,96,86006,1,8,0:0:0:0:
160,96,86076,1,0,0:0:0:0:
352,96,86147,1,8,0:0:0:0:
160,288,86430,1,4,0:0:0:0:
160,288,86572,1,4,0:0:0:0:
352,96,86713,1,8,0:0:0:0:
352,96,86784,1,8,0:0:0:0:
352,96,86855,1,8,0:0:0:0:
352,96,86925,1,8,0:0:0:0:
160,96,86996,1,0,0:0:0:0:
160,96,87090,1,0,0:0:0:0:
160,96,87185,1,0,0:0:0:0:
160,96,87279,1,0,0:0:0:0:
352,96,87373,1,8,0:0:0:0:
160,288,87562,1,4,0:0:0:0:
160,288,87704,1,4,0:0:0:0:
352,96,87845,1,8,0:0:0:0:
352,96,87916,1,8,0:0:0:0:
352,96,87987,1,8,0:0:0:0:
160,288,88128,1,4,0:0:0:0:
160,288,88270,1,4,0:0:0:0:
352,96,88411,1,8,0:0:0:0:
352,96,88482,1,8,0:0:0:0:
352,96,88553,1,8,0:0:0:0:
160,288,88694,1,4,0:0:0:0:
160,288,88836,1,4,0:0:0:0:
352,96,88977,1,8,0:0:0:0:
352,96,89048,1,8,0:0:0:0:
352,96,89119,1,8,0:0:0:0:
160,288,89260,1,4,0:0:0:0:
160,288,89402,1,4,0:0:0:0:
352,96,89543,1,8,0:0:0:0:
352,96,89614,1,8,0:0:0:0:
352,96,89685,1,8,0:0:0:0:
352,96,89755,1,8,0:0:0:0:
160,96,89826,1,0,0:0:0:0:
160,96,89968,1,0,0:0:0:0:
160,96,90109,1,0,0:0:0:0:
160,96,90251,1,0,0:0:0:0:
352,96,90392,1,8,0:0:0:0:
352,96,90534,1,8,0:0:0:0:
352,96,90675,1,8,0:0:0:0:
352,96,90817,1,8,0:0:0:0:
160,288,90958,1,4,0:0:0:0:
160,288,91100,1,4,0:0:0:0:
160,288,91383,1,4,0:0:0:0:
160,288,91666,1,4,0:0:0:0:
160,288,91948,1,4,0:0:0:0:
352,288,92090,1,12,0:0:0:0:
352,288,92231,1,12,0:0:0:0:
352,288,92514,1,12,0:0:0:0:
352,288,92797,1,12,0:0:0:0:
352,96,92939,1,8,0:0:0:0:
352,96,93010,1,8,0:0:0:0:
160,96,93080,1,0,0:0:0:0:
352,288,93222,1,12,0:0:0:0:
352,96,93788,1,8,0:0:0:0:
160,96,94071,1,0,0:0:0:0:
352,96,94354,1,8,0:0:0:0:
352,96,94495,1,8,0:0:0:0:
160,96,94566,1,0,0:0:0:0:
352,96,94637,1,8,0:0:0:0:
160,96,94778,1,0,0:0:0:0:
160,96,94849,1,0,0:0:0:0:
352,96,94920,1,8,0:0:0:0:
160,96,94991,1,0,0:0:0:0:
160,96,95061,1,0,0:0:0:0:
352,96,95132,1,8,0:0:0:0:
352,96,95203,1,8,0:0:0:0:
352,96,95274,1,8,0:0:0:0:
160,96,95344,1,0,0:0:0:0:
352,288,95486,1,12,0:0:0:0:
160,96,95627,1,0,0:0:0:0:
160,96,95698,1,0,0:0:0:0:
160,96,95769,1,0,0:0:0:0:
352,96,95910,1,8,0:0:0:0:
160,96,96052,1,0,0:0:0:0:
160,96,96123,1,0,0:0:0:0:
160,96,96193,1,0,0:0:0:0:
352,96,96335,1,8,0:0:0:0:
160,96,96406,1,0,0:0:0:0:
352,96,96476,1,8,0:0:0:0:
352,96,96547,1,8,0:0:0:0:
160,96,96618,1,0,0:0:0:0:
352,96,96759,1,8,0:0:0:0:
160,96,96901,1,0,0:0:0:0:
160,96,96972,1,0,0:0:0:0:
160,96,97042,1,0,0:0:0:0:
352,96,97184,1,8,0:0:0:0:
160,96,97255,1,0,0:0:0:0:
352,96,97325,1,8,0:0:0:0:
352,96,97467,1,8,0:0:0:0:
160,96,97608,1,0,0:0:0:0:
352,96,97750,1,8,0:0:0:0:
160,96,97891,1,0,0:0:0:0:
160,96,97962,1,0,0:0:0:0:
352,96,98033,1,8,0:0:0:0:
352,96,98174,1,8,0:0:0:0:
160,96,98316,1,0,0:0:0:0:
160,96,98457,1,0,0:0:0:0:
160,96,98528,1,0,0:0:0:0:
352,96,98599,1,8,0:0:0:0:
160,96,98740,1,0,0:0:0:0:
352,96,98811,1,8,0:0:0:0:
160,96,98882,1,0,0:0:0:0:
352,96,99023,1,8,0:0:0:0:
160,96,99165,1,0,0:0:0:0:
160,96,99306,1,0,0:0:0:0:
352,96,99448,1,8,0:0:0:0:
352,96,99589,1,8,0:0:0:0:
160,96,99660,1,0,0:0:0:0:
352,96,99731,1,8,0:0:0:0:
352,96,99802,1,8,0:0:0:0:
160,96,99872,1,0,0:0:0:0:
352,96,99943,1,8,0:0:0:0:
160,96,100014,1,0,0:0:0:0:
160,96,100155,1,0,0:0:0:0:
352,96,100297,1,8,0:0:0:0:
160,96,100438,1,0,0:0:0:0:
352,96,100509,1,8,0:0:0:0:
352,96,100580,1,8,0:0:0:0:
160,96,100651,1,0,0:0:0:0:
160,96,100721,1,0,0:0:0:0:
352,96,100792,1,8,0:0:0:0:
160,96,100863,1,0,0:0:0:0:
352,96,100933,1,8,0:0:0:0:
352,96,101004,1,8,0:0:0:0:
352,96,101075,1,8,0:0:0:0:
160,96,101146,1,0,0:0:0:0:
352,96,101287,1,8,0:0:0:0:
352,96,101358,1,8,0:0:0:0:
160,96,101429,1,0,0:0:0:0:
160,96,101570,1,0,0:0:0:0:
160,96,101641,1,0,0:0:0:0:
352,96,101712,1,8,0:0:0:0:
160,96,101782,1,0,0:0:0:0:
352,96,101853,1,8,0:0:0:0:
352,96,101924,1,8,0:0:0:0:
352,96,101995,1,8,0:0:0:0:
160,96,102065,1,0,0:0:0:0:
352,96,102136,1,8,0:0:0:0:
352,96,102207,1,8,0:0:0:0:
160,96,102278,1,0,0:0:0:0:
352,96,102348,1,8,0:0:0:0:
352,96,102419,1,8,0:0:0:0:
160,96,102490,1,0,0:0:0:0:
160,96,102561,1,0,0:0:0:0:
352,96,102631,1,8,0:0:0:0:
160,96,102702,1,0,0:0:0:0:
352,96,102844,1,8,0:0:0:0:
352,96,102914,1,8,0:0:0:0:
352,96,102985,1,8,0:0:0:0:
352,96,103056,1,8,0:0:0:0:
160,96,103127,1,0,0:0:0:0:
160,96,103197,1,0,0:0:0:0:
160,96,103268,1,0,0:0:0:0:
160,96,103339,1,0,0:0:0:0:
352,96,103410,1,8,0:0:0:0:
160,96,103551,1,0,0:0:0:0:
352,96,103622,1,8,0:0:0:0:
352,96,103693,1,8,0:0:0:0:
160,96,103834,1,0,0:0:0:0:
160,96,103905,1,0,0:0:0:0:
352,96,103976,1,8,0:0:0:0:
352,96,104046,1,8,0:0:0:0:
160,96,104117,1,0,0:0:0:0:
160,96,104188,1,0,0:0:0:0:
352,96,104259,1,8,0:0:0:0:
352,96,104329,1,8,0:0:0:0:
160,96,104400,1,0,0:0:0:0:
352,288,104542,1,12,0:0:0:0:
160,96,104683,1,0,0:0:0:0:
160,96,104754,1,0,0:0:0:0:
160,96,104825,1,0,0:0:0:0:
352,96,104966,1,8,0:0:0:0:
160,96,105108,1,0,0:0:0:0:
160,96,105178,1,0,0:0:0:0:
160,96,105249,1,0,0:0:0:0:
352,96,105391,1,8,0:0:0:0:
160,96,105461,1,0,0:0:0:0:
352,96,105532,1,8,0:0:0:0:
352,96,105603,1,8,0:0:0:0:
160,96,105674,1,0,0:0:0:0:
352,96,105815,1,8,0:0:0:0:
160,96,105957,1,0,0:0:0:0:
160,96,106027,1,0,0:0:0:0:
352,96,106098,1,8,0:0:0:0:
160,96,106169,1,0,0:0:0:0:
352,96,106240,1,8,0:0:0:0:
352,96,106381,1,8,0:0:0:0:
352,96,106523,1,8,0:0:0:0:
160,96,106664,1,0,0:0:0:0:
160,96,106735,1,0,0:0:0:0:
352,96,106806,1,8,0:0:0:0:
160,96,106947,1,0,0:0:0:0:
352,96,107089,1,8,0:0:0:0:
352,96,107230,1,8,0:0:0:0:
352,96,107301,1,8,0:0:0:0:
160,96,107372,1,0,0:0:0:0:
160,96,107513,1,0,0:0:0:0:
160,96,107584,1,0,0:0:0:0:
352,96,107655,1,8,0:0:0:0:
160,96,107796,1,0,0:0:0:0:
352,96,107867,1,8,0:0:0:0:
160,96,107938,1,0,0:0:0:0:
352,96,108079,1,8,0:0:0:0:
160,96,108221,1,0,0:0:0:0:
160,96,108362,1,0,0:0:0:0:
160,96,108433,1,0,0:0:0:0:
352,96,108504,1,8,0:0:0:0:
352,96,108645,1,8,0:0:0:0:
160,96,108716,1,0,0:0:0:0:
352,96,108787,1,8,0:0:0:0:
352,96,108857,1,8,0:0:0:0:
160,96,108928,1,0,0:0:0:0:
160,96,108999,1,0,0:0:0:0:
352,96,109070,1,8,0:0:0:0:
160,96,109211,1,0,0:0:0:0:
352,96,109353,1,8,0:0:0:0:
160,96,109423,1,0,0:0:0:0:
160,96,109494,1,0,0:0:0:0:
352,96,109565,1,8,0:0:0:0:
352,96,109636,1,8,0:0:0:0:
160,96,109706,1,0,0:0:0:0:
160,96,109777,1,0,0:0:0:0:
352,96,109848,1,8,0:0:0:0:
160,96,109919,1,0,0:0:0:0:
352,96,109989,1,8,0:0:0:0:
352,96,110060,1,8,0:0:0:0:
160,96,110131,1,0,0:0:0:0:
352,96,110201,1,8,0:0:0:0:
352,96,110343,1,8,0:0:0:0:
352,96,110414,1,8,0:0:0:0:
160,96,110484,1,0,0:0:0:0:
160,96,110626,1,0,0:0:0:0:
160,96,110697,1,0,0:0:0:0:
352,96,110768,1,8,0:0:0:0:
160,96,110838,1,0,0:0:0:0:
352,96,110909,1,8,0:0:0:0:
352,96,110980,1,8,0:0:0:0:
352,96,111051,1,8,0:0:0:0:
160,96,111121,1,0,0:0:0:0:
352,96,111192,1,8,0:0:0:0:
352,96,111263,1,8,0:0:0:0:
160,96,111334,1,0,0:0:0:0:
352,96,111404,1,8,0:0:0:0:
352,96,111475,1,8,0:0:0:0:
160,96,111546,1,0,0:0:0:0:
160,96,111616,1,0,0:0:0:0:
352,96,111687,1,8,0:0:0:0:
160,96,111758,1,0,0:0:0:0:
352,96,111899,1,8,0:0:0:0:
352,96,111970,1,8,0:0:0:0:
352,96,112041,1,8,0:0:0:0:
352,96,112112,1,8,0:0:0:0:
160,96,112182,1,0,0:0:0:0:
160,96,112253,1,0,0:0:0:0:
160,96,112324,1,0,0:0:0:0:
160,96,112395,1,0,0:0:0:0:
352,96,112465,1,8,0:0:0:0:
352,96,112607,1,8,0:0:0:0:
352,96,112678,1,8,0:0:0:0:
352,96,112748,1,8,0:0:0:0:
160,96,112890,1,0,0:0:0:0:
160,96,112961,1,0,0:0:0:0:
352,96,113031,1,8,0:0:0:0:
352,96,113102,1,8,0:0:0:0:
352,96,113173,1,8,0:0:0:0:
160,96,113244,1,0,0:0:0:0:
352,96,113314,1,8,0:0:0:0:
352,96,113385,1,8,0:0:0:0:
160,96,113456,1,0,0:0:0:0:
352,288,113597,1,12,0:0:0:0:
160,96,113739,1,0,0:0:0:0:
160,96,113810,1,0,0:0:0:0:
352,96,113880,1,8,0:0:0:0:
160,96,113951,1,0,0:0:0:0:
352,96,114022,1,8,0:0:0:0:
352,96,114093,1,8,0:0:0:0:
160,96,114163,1,0,0:0:0:0:
160,96,114234,1,0,0:0:0:0:
352,96,114305,1,8,0:0:0:0:
160,96,114376,1,0,0:0:0:0:
352,96,114446,1,8,0:0:0:0:
160,96,114517,1,0,0:0:0:0:
352,96,114588,1,8,0:0:0:0:
160,96,114659,1,0,0:0:0:0:
352,96,114729,1,8,0:0:0:0:
160,96,114800,1,0,0:0:0:0:
160,96,114871,1,0,0:0:0:0:
352,96,114942,1,8,0:0:0:0:
352,96,115012,1,8,0:0:0:0:
160,96,115083,1,0,0:0:0:0:
160,96,115154,1,0,0:0:0:0:
352,96,115225,1,8,0:0:0:0:
352,96,115295,1,8,0:0:0:0:
160,96,115366,1,0,0:0:0:0:
160,96,115437,1,0,0:0:0:0:
352,96,115508,1,8,0:0:0:0:
352,96,115578,1,8,0:0:0:0:
160,96,115649,1,0,0:0:0:0:
160,96,115720,1,0,0:0:0:0:
160,96,115791,1,0,0:0:0:0:
352,96,115861,1,8,0:0:0:0:
352,96,115932,1,8,0:0:0:0:
160,96,116003,1,0,0:0:0:0:
160,96,116074,1,0,0:0:0:0:
160,96,116144,1,0,0:0:0:0:
160,96,116215,1,0,0:0:0:0:
352,96,116286,1,8,0:0:0:0:
160,96,116357,1,0,0:0:0:0:
352,96,116427,1,8,0:0:0:0:
160,96,116498,1,0,0:0:0:0:
160,96,116569,1,0,0:0:0:0:
160,96,116640,1,0,0:0:0:0:
352,96,116710,1,8,0:0:0:0:
352,96,116781,1,8,0:0:0:0:
352,96,116852,1,8,0:0:0:0:
352,96,116923,1,8,0:0:0:0:
160,96,116993,1,0,0:0:0:0:
352,96,117064,1,8,0:0:0:0:
352,96,117135,1,8,0:0:0:0:
352,96,117206,1,8,0:0:0:0:
160,96,117276,1,0,0:0:0:0:
352,96,117347,1,8,0:0:0:0:
352,96,117418,1,8,0:0:0:0:
160,96,117489,1,0,0:0:0:0:
352,96,117559,1,8,0:0:0:0:
352,96,117630,1,8,0:0:0:0:
352,96,117701,1,8,0:0:0:0:
160,96,117772,1,0,0:0:0:0:
352,96,117842,1,8,0:0:0:0:
352,96,117913,1,8,0:0:0:0:
160,96,117984,1,0,0:0:0:0:
352,96,118125,1,8,0:0:0:0:
352,96,118196,1,8,0:0:0:0:
160,96,118267,1,0,0:0:0:0:
160,96,118338,1,0,0:0:0:0:
352,96,118408,1,8,0:0:0:0:
160,96,118479,1,0,0:0:0:0:
352,96,118550,1,8,0:0:0:0:
160,96,118621,1,0,0:0:0:0:
160,96,118691,1,0,0:0:0:0:
160,96,118762,1,0,0:0:0:0:
352,96,118833,1,8,0:0:0:0:
160,96,118904,1,0,0:0:0:0:
352,96,118974,1,8,0:0:0:0:
160,96,119045,1,0,0:0:0:0:
352,96,119116,1,8,0:0:0:0:
160,96,119186,1,0,0:0:0:0:
352,96,119257,1,8,0:0:0:0:
160,96,119328,1,0,0:0:0:0:
160,96,119399,1,0,0:0:0:0:
352,96,119469,1,8,0:0:0:0:
352,96,119540,1,8,0:0:0:0:
160,96,119611,1,0,0:0:0:0:
160,96,119682,1,0,0:0:0:0:
352,96,119752,1,8,0:0:0:0:
352,96,119823,1,8,0:0:0:0:
160,96,119894,1,0,0:0:0:0:
160,96,119965,1,0,0:0:0:0:
352,96,120035,1,8,0:0:0:0:
352,96,120106,1,8,0:0:0:0:
160,96,120177,1,0,0:0:0:0:
352,96,120248,1,8,0:0:0:0:
160,96,120318,1,0,0:0:0:0:
352,96,120389,1,8,0:0:0:0:
352,96,120460,1,8,0:0:0:0:
160,96,120531,1,0,0:0:0:0:
160,96,120601,1,0,0:0:0:0:
160,96,120672,1,0,0:0:0:0:
160,96,120743,1,0,0:0:0:0:
352,96,120814,1,8,0:0:0:0:
160,96,120884,1,0,0:0:0:0:
352,96,120955,1,8,0:0:0:0:
352,96,121026,1,8,0:0:0:0:
160,96,121097,1,0,0:0:0:0:
160,96,121167,1,0,0:0:0:0:
352,96,121238,1,8,0:0:0:0:
352,96,121309,1,8,0:0:0:0:
160,96,121380,1,0,0:0:0:0:
160,288,121521,1,4,0:0:0:0:
160,288,121663,1,4,0:0:0:0:
352,288,121946,1,12,0:0:0:0:
352,288,122229,1,12,0:0:0:0:
352,288,122370,1,12,0:0:0:0:
160,96,122512,1,0,0:0:0:0:
160,288,122653,1,4,0:0:0:0:
160,288,122795,1,4,0:0:0:0:
352,288,123078,1,12,0:0:0:0:
352,96,123219,1,8,0:0:0:0:
352,96,123290,1,8,0:0:0:0:
160,96,123361,1,0,0:0:0:0:
160,96,123431,1,0,0:0:0:0:
160,96,123502,1,0,0:0:0:0:
160,96,123573,1,0,0:0:0:0:
160,96,123644,1,0,0:0:0:0:
352,288,123785,1,12,0:0:0:0:
