osu file format v14

[General]
AudioFilename: audio.mp3
AudioLeadIn: 0
PreviewTime: -1
Countdown: 1
SampleSet: None
StackLeniency: 0.7
Mode: 0
LetterboxInBreaks: 0
WidescreenStoryboard: 0

[Editor]
Bookmarks: 66621
DistanceSpacing: 1.8
BeatDivisor: 4
GridSize: 4
TimelineZoom: 2.3

[Metadata]
Title:Elemental Creation -GITADO ROCK ver.-
TitleUnicode:Elemental Creation -GITADO ROCK ver.-
Artist:dj TAKA meets DJ YOSHITAKA ft.guit.good-cool
ArtistUnicode:dj TAKA meets DJ YOSHITAKA ft.guit.good-cool
Creator:DJKratos
Version:The Creation of Element
Source:GITADORA
Tags:
BeatmapID:1699016
BeatmapSetID:809701

[Difficulty]
HPDrainRate:6
CircleSize:4
OverallDifficulty:9
ApproachRate:9.5
SliderMultiplier:2
SliderTickRate:1

[Events]
//Background and Video events
0,0,"crystallize-background.jpg",0,0
//Break Periods
2,65122,68501
2,69651,72322
//Storyboard Layer 0 (Background)
//Storyboard Layer 1 (Fail)
//Storyboard Layer 2 (Pass)
//Storyboard Layer 3 (Foreground)
//Storyboard Sound Samples

[TimingPoints]
1533,282.992170549948,4,3,0,60,1,0

[HitObjects]
96,54,1533,6,0,P|127:99|118:183,1,100
64,248,1815,1,0,0:0:0:0:
168,312,1957,1,0,0:0:0:0:
264,232,2098,2,0,P|320:268|344:324,1,100
464,264,2381,1,0,0:0:0:0:
416,140,2523,1,0,0:0:0:0:
336,296,2664,6,0,P|252:328|224:368,1,100
136,268,2947,1,0,0:0:0:0:
248,204,3089,1,0,0:0:0:0:
140,132,3230,2,0,P|188:56|228:48,1,100
320,32,3513,1,0,0:0:0:0:
416,124,3655,1,0,0:0:0:0:
176,244,3938,5,0,0:0:0:0:
60,312,4079,2,0,P|100:352|156:360,1,100
176,244,4362,1,0,0:0:0:0:
256,344,4504,1,0,0:0:0:0:
336,248,4645,2,0,P|396:288|444:292,1,100
484,160,4928,5,0,0:0:0:0:
336,248,5070,1,0,0:0:0:0:
364,72,5211,1,0,0:0:0:0:
224,136,5353,1,0,0:0:0:0:
136,8,5494,2,0,P|76:48|28:60,1,100
80,200,5777,5,0,0:0:0:0:
99,216,5847,1,0,0:0:0:0:
118,232,5918,1,0,0:0:0:0:
137,248,5989,1,0,0:0:0:0:
152,264,6060,2,0,P|208:236|252:240,1,100
328,348,6343,5,0,0:0:0:0:
440,284,6485,1,0,0:0:0:0:
352,200,6626,2,0,P|324:132|332:92,1,100
424,28,6909,2,0,P|452:96|444:136,1,100
352,200,7192,1,0,0:0:0:0:
252,124,7334,1,0,0:0:0:0:
152,196,7475,6,0,P|76:216|32:200,1,100
144,80,7758,1,0,0:0:0:0:
248,204,7900,1,0,0:0:0:0:
132,312,8041,1,0,0:0:0:0:
132,312,8112,1,0,0:0:0:0:
132,312,8183,1,0,0:0:0:0:
132,312,8254,1,0,0:0:0:0:
132,312,8324,2,0,B|192:320|224:284|224:284|252:340|304:336|304:336|364:328|372:268|372:268|420:276|464:220,1,400
368,100,9173,1,0,0:0:0:0:
112,76,9456,5,0,0:0:0:0:
123,67,9526,1,0,0:0:0:0:
135,60,9597,1,0,0:0:0:0:
148,55,9668,1,0,0:0:0:0:
156,52,9739,1,0,0:0:0:0:
188,65,9809,1,0,0:0:0:0:
222,71,9880,1,0,0:0:0:0:
257,70,9951,1,0,0:0:0:0:
288,64,10022,5,0,0:0:0:0:
301,67,10092,1,0,0:0:0:0:
314,73,10163,1,0,0:0:0:0:
326,82,10234,1,0,0:0:0:0:
336,92,10305,1,0,0:0:0:0:
305,137,10375,1,0,0:0:0:0:
298,191,10446,1,0,0:0:0:0:
317,242,10517,1,0,0:0:0:0:
360,280,10588,2,0,P|328:356|288:360,1,100
180,228,10871,5,0,0:0:0:0:
76,344,11013,1,0,0:0:0:0:
60,184,11154,2,0,P|120:112|120:76,1,100
280,76,11437,2,0,P|250:35|205:15,1,100
216,172,11720,2,0,P|288:232|324:232,1,100
472,140,12003,5,0,0:0:0:0:
348,204,12144,1,0,0:0:0:0:
283,79,12286,1,0,0:0:0:0:
408,16,12427,1,0,0:0:0:0:
276,156,12569,6,0,P|200:120|176:64,1,100
92,228,12852,1,0,0:0:0:0:
104,76,12994,1,0,0:0:0:0:
208,232,13135,1,0,0:0:0:0:
40,148,13277,1,0,0:0:0:0:
96,340,13418,2,0,P|160:320|224:352,1,100
312,212,13701,5,0,0:0:0:0:
380,352,13843,1,0,0:0:0:0:
368,144,13984,1,0,0:0:0:0:
436,284,14126,2,0,P|472:224|464:176,1,100
312,212,14409,1,0,0:0:0:0:
228,64,14550,5,0,0:0:0:0:
207,78,14620,1,0,0:0:0:0:
183,84,14691,1,0,0:0:0:0:
158,80,14762,1,0,0:0:0:0:
138,70,14833,1,0,0:0:0:0:
115,89,14903,1,0,0:0:0:0:
101,115,14974,1,0,0:0:0:0:
96,145,15045,1,0,0:0:0:0:
103,174,15115,1,0,0:0:0:0:
302,272,15258,5,0,0:0:0:0:
200,188,15399,2,0,P|188:256|168:292,1,100
61,349,15682,2,0,P|73:281|93:245,1,100
224,356,15965,1,0,0:0:0:0:
224,356,16036,1,0,0:0:0:0:
224,356,16107,1,0,0:0:0:0:
296,184,16248,5,0,0:0:0:0:
432,272,16390,1,0,0:0:0:0:
280,308,16531,2,0,P|228:256|216:216,1,100
276,64,16814,1,0,0:0:0:0:
128,148,16956,1,0,0:0:0:0:
296,184,17097,1,0,0:0:0:0:
184,68,17239,1,0,0:0:0:0:
216,236,17380,5,0,0:0:0:0:
210,251,17450,1,0,0:0:0:0:
201,265,17521,1,0,0:0:0:0:
189,277,17592,1,0,0:0:0:0:
180,288,17663,1,0,0:0:0:0:
174,238,17733,1,0,0:0:0:0:
186,190,17804,1,0,0:0:0:0:
213,148,17875,1,0,0:0:0:0:
253,118,17945,1,0,0:0:0:0:
300,104,18017,2,0,L|336:152,1,50
344,324,18158,5,0,0:0:0:0:
344,324,18229,1,0,0:0:0:0:
344,324,18300,2,0,L|292:264,1,50
136,352,18512,1,0,0:0:0:0:
244,240,18654,1,0,0:0:0:0:
88,212,18795,1,0,0:0:0:0:
216,324,18937,1,0,0:0:0:0:
384,244,19078,5,0,0:0:0:0:
389,255,19148,1,0,0:0:0:0:
395,266,19219,1,0,0:0:0:0:
401,277,19290,1,0,0:0:0:0:
408,288,19361,1,0,0:0:0:0:
438,255,19431,1,0,0:0:0:0:
459,215,19502,1,0,0:0:0:0:
469,171,19573,1,0,0:0:0:0:
465,123,19644,2,0,L|382:56,1,100
192,84,19927,5,0,0:0:0:0:
328,176,20068,1,0,0:0:0:0:
172,212,20210,2,0,P|112:176|68:168,1,100
128,316,20493,2,0,P|188:352|232:360,1,100
344,264,20776,1,0,0:0:0:0:
192,280,20917,1,0,0:0:0:0:
340,352,21059,6,0,P|412:320|432:288,1,100
456,140,21342,2,0,P|384:172|364:204,1,100
328,32,21625,2,0,P|296:104|264:124,1,100
128,52,21908,1,0,0:0:0:0:
144,208,22049,1,0,0:0:0:0:
20,120,22191,6,0,P|52:184|44:248,1,100
8,360,22474,1,0,0:0:0:0:
144,284,22615,1,0,0:0:0:0:
280,360,22757,2,0,L|316:244,1,100
240,104,23040,2,0,L|210:199,1,100
360,160,23323,2,0,L|389:64,1,100
176,20,23606,5,0,0:0:0:0:
208,200,23747,1,0,0:0:0:0:
192,200,23818,1,0,0:0:0:0:
178,200,23889,1,0,0:0:0:0:
215,167,23959,1,0,0:0:0:0:
261,148,24030,1,0,0:0:0:0:
311,146,24101,1,0,0:0:0:0:
352,156,24172,2,0,L|392:272,1,100
260,356,24455,5,0,0:0:0:0:
412,320,24596,1,0,0:0:0:0:
464,168,24738,2,0,P|432:112|376:88,1,100
252,52,25021,1,0,0:0:0:0:
252,52,25092,1,0,0:0:0:0:
252,52,25162,2,0,L|204:116,1,50
88,172,25304,1,0,0:0:0:0:
108,20,25445,1,0,0:0:0:0:
176,200,25587,6,0,P|116:256|64:260,1,100
232,352,25870,1,0,0:0:0:0:
312,208,26011,1,0,0:0:0:0:
180,288,26153,1,0,0:0:0:0:
336,320,26294,1,0,0:0:0:0:
424,184,26436,5,0,0:0:0:0:
390,162,26506,1,0,0:0:0:0:
370,128,26577,1,0,0:0:0:0:
367,89,26648,1,0,0:0:0:0:
384,52,26719,1,0,0:0:0:0:
349,32,26789,1,0,0:0:0:0:
311,21,26860,1,0,0:0:0:0:
271,19,26931,1,0,0:0:0:0:
232,28,27002,5,0,0:0:0:0:
203,55,27072,1,0,0:0:0:0:
167,73,27143,1,0,0:0:0:0:
128,80,27214,1,0,0:0:0:0:
88,76,27285,2,0,L|76:16,1,50
136,268,27426,1,0,0:0:0:0:
136,268,27497,1,0,0:0:0:0:
136,268,27568,6,0,L|160:336,1,50
288,188,27709,1,0,0:0:0:0:
288,188,27780,1,0,0:0:0:0:
288,188,27851,2,0,L|264:120,1,50
256,332,27992,1,0,0:0:0:0:
297,331,28062,1,0,0:0:0:0:
336,317,28133,5,0,0:0:0:0:
369,292,28204,1,0,0:0:0:0:
392,258,28274,1,0,0:0:0:0:
403,218,28345,1,0,0:0:0:0:
400,176,28417,2,0,L|448:136,1,50
272,44,28558,2,0,L|224:84,1,50
256,244,28700,1,0,0:0:0:0:
336,112,28841,1,0,0:0:0:0:
168,204,28983,6,0,P|128:176|108:124,1,100
256,244,29266,2,0,P|296:272|316:324,1,100
160,360,29549,1,0,0:0:0:0:
84,224,29690,1,0,0:0:0:0:
20,364,29832,2,0,P|80:304|120:288,1,100
176,268,30044,1,0,0:0:0:0:
176,268,30115,6,0,P|212:192|196:152,1,100
152,96,30327,1,0,0:0:0:0:
152,96,30398,2,0,P|224:72|280:88,1,100
328,124,30610,1,0,0:0:0:0:
328,124,30681,2,0,P|388:104|424:68,1,100
464,168,30893,1,0,0:0:0:0:
464,168,30964,6,0,P|424:252|300:260,1,200
152,340,31388,1,0,0:0:0:0:
136,156,31530,2,0,B|96:128|36:136|36:136|32:64|116:52,1,200
232,24,31954,1,0,0:0:0:0:
336,148,32096,5,0,0:0:0:0:
308,189,32166,1,0,0:0:0:0:
270,221,32237,1,0,0:0:0:0:
225,242,32308,1,0,0:0:0:0:
175,248,32378,1,0,0:0:0:0:
126,241,32449,1,0,0:0:0:0:
80,224,32520,1,0,0:0:0:0:
75,273,32590,1,0,0:0:0:0:
92,319,32661,5,0,0:0:0:0:
128,353,32732,1,0,0:0:0:0:
176,368,32803,1,0,0:0:0:0:
187,352,32873,1,0,0:0:0:0:
196,335,32944,1,0,0:0:0:0:
203,317,33015,1,0,0:0:0:0:
208,299,33085,1,0,0:0:0:0:
211,280,33156,1,0,0:0:0:0:
212,268,33228,2,0,L|312:232,1,100
380,96,33511,5,0,0:0:0:0:
468,228,33652,1,0,0:0:0:0:
476,68,33794,2,0,P|428:24|384:12,1,100
188,40,34077,2,0,P|234:58|268:94,1,100
100,172,34360,5,0,0:0:0:0:
40,320,34501,1,0,0:0:0:0:
40,320,34572,1,0,0:0:0:0:
40,320,34643,1,0,0:0:0:0:
216,264,34784,1,0,0:0:0:0:
216,264,34855,1,0,0:0:0:0:
216,264,34926,5,0,0:0:0:0:
96,72,35067,1,0,0:0:0:0:
96,72,35138,1,0,0:0:0:0:
96,72,35209,1,0,0:0:0:0:
140,340,35350,1,0,0:0:0:0:
140,340,35421,1,0,0:0:0:0:
140,340,35492,2,0,B|196:356|244:327|244:327|296:296|376:336,1,200
440,156,35916,1,0,0:0:0:0:
280,48,36058,5,0,0:0:0:0:
238,75,36128,1,0,0:0:0:0:
212,117,36199,1,0,0:0:0:0:
206,166,36270,1,0,0:0:0:0:
224,208,36341,2,0,L|176:276,1,50
120,112,36482,2,0,L|168:44,1,50
56,272,36624,1,0,0:0:0:0:
232,344,36765,1,0,0:0:0:0:
336,104,37048,5,0,0:0:0:0:
408,284,37331,1,0,0:0:0:0:
408,284,37473,2,0,B|448:244|428:184|428:184|408:120|460:80,1,200
272,208,37897,1,0,0:0:0:0:
204,64,38038,1,0,0:0:0:0:
344,136,38180,1,0,0:0:0:0:
160,140,38321,6,0,P|112:112|88:64,1,100
112,256,38604,2,0,P|155:279|181:321,1,100
64,356,38887,1,0,0:0:0:0:
208,216,39029,1,0,0:0:0:0:
332,360,39170,2,0,P|408:352|432:336,1,100
308,200,39453,5,0,0:0:0:0:
444,72,39595,1,0,0:0:0:0:
320,276,39736,1,0,0:0:0:0:
456,148,39878,1,0,0:0:0:0:
296,52,40019,2,0,P|200:44|168:32,1,100
64,176,40302,2,0,P|54:127|55:77,1,100
188,164,40585,5,0,0:0:0:0:
104,304,40727,1,0,0:0:0:0:
256,360,40868,2,0,P|320:336|384:336,1,100
460,168,41151,2,0,P|414:187|364:194,1,100
228,56,41434,1,0,0:0:0:0:
384,92,41576,1,0,0:0:0:0:
244,164,41717,5,0,0:0:0:0:
210,200,41787,1,0,0:0:0:0:
186,244,41858,1,0,0:0:0:0:
175,293,41929,1,0,0:0:0:0:
176,344,42000,1,0,0:0:0:0:
153,333,42070,1,0,0:0:0:0:
129,327,42141,1,0,0:0:0:0:
104,327,42212,1,0,0:0:0:0:
79,331,42282,1,0,0:0:0:0:
32,180,42425,1,0,0:0:0:0:
160,76,42566,6,0,P|112:44|56:40,1,100
176,212,42849,2,0,P|224:244|280:248,1,100
440,180,43132,1,0,0:0:0:0:
449,157,43202,1,0,0:0:0:0:
455,132,43273,1,0,0:0:0:0:
455,107,43344,1,0,0:0:0:0:
452,88,43415,2,0,P|384:56|344:52,1,100
320,204,43698,5,0,0:0:0:0:
420,320,43840,1,0,0:0:0:0:
264,312,43981,1,0,0:0:0:0:
220,152,44123,1,0,0:0:0:0:
168,308,44264,1,0,0:0:0:0:
320,204,44406,1,0,0:0:0:0:
128,196,44547,5,0,0:0:0:0:
83,173,44617,1,0,0:0:0:0:
60,130,44688,1,0,0:0:0:0:
66,81,44759,1,0,0:0:0:0:
100,48,44830,1,0,0:0:0:0:
148,61,44900,1,0,0:0:0:0:
197,67,44971,1,0,0:0:0:0:
247,66,45042,1,0,0:0:0:0:
296,56,45113,2,0,L|340:16,1,50
408,196,45255,1,0,0:0:0:0:
408,196,45326,1,0,0:0:0:0:
408,196,45396,6,0,L|360:256,1,50
172,240,45538,1,0,0:0:0:0:
172,240,45609,1,0,0:0:0:0:
172,240,45679,2,0,L|220:180,1,50
80,104,45821,2,0,L|124:64,1,50
84,276,45962,2,0,L|124:320,1,50
272,160,46104,2,0,L|228:120,1,50
328,308,46245,5,0,0:0:0:0:
394,275,46315,1,0,0:0:0:0:
429,210,46386,1,0,0:0:0:0:
421,137,46457,1,0,0:0:0:0:
376,80,46528,1,0,0:0:0:0:
354,93,46598,1,0,0:0:0:0:
331,103,46669,1,0,0:0:0:0:
307,110,46740,1,0,0:0:0:0:
283,113,46810,1,0,0:0:0:0:
128,44,46953,1,0,0:0:0:0:
180,196,47094,6,0,P|172:236|116:296,1,100
85,130,47377,2,0,P|93:90|149:30,1,100
256,136,47660,1,0,0:0:0:0:
384,48,47802,1,0,0:0:0:0:
440,192,47943,2,0,P|456:248|488:276,1,100
302,218,48226,2,0,P|286:162|254:134,1,100
136,296,48509,5,0,0:0:0:0:
320,332,48651,1,0,0:0:0:0:
196,188,48792,1,0,0:0:0:0:
212,356,48934,1,0,0:0:0:0:
96,208,49075,2,0,P|64:148|64:88,1,100
200,0,49358,2,0,P|232:60|232:120,1,100
208,256,49641,6,0,P|176:196|176:136,1,100
352,240,49924,2,0,P|384:300|384:360,1,100
236,324,50207,1,0,0:0:0:0:
302,172,50349,1,0,0:0:0:0:
452,236,50490,2,0,P|488:172|480:120,1,100
352,64,50773,5,0,0:0:0:0:
200,128,50915,1,0,0:0:0:0:
184,108,50985,1,0,0:0:0:0:
176,84,51056,1,0,0:0:0:0:
176,64,51127,1,0,0:0:0:0:
137,95,51197,1,0,0:0:0:0:
111,137,51268,1,0,0:0:0:0:
104,188,51339,2,0,P|88:252|32:296,1,100
204,352,51622,5,0,0:0:0:0:
276,208,51764,1,0,0:0:0:0:
312,360,51905,1,0,0:0:0:0:
384,216,52047,1,0,0:0:0:0:
240,132,52188,2,0,L|188:76,1,50
360,108,52330,2,0,L|412:164,1,50
256,24,52471,5,0,0:0:0:0:
136,140,52613,1,0,0:0:0:0:
32,24,52754,2,0,P|20:92|40:148,1,100
128,280,53037,1,0,0:0:0:0:
236,132,53179,1,0,0:0:0:0:
64,200,53320,1,0,0:0:0:0:
220,304,53462,1,0,0:0:0:0:
148,72,53603,5,0,0:0:0:0:
163,61,53673,1,0,0:0:0:0:
181,55,53744,1,0,0:0:0:0:
199,53,53815,1,0,0:0:0:0:
216,56,53886,1,0,0:0:0:0:
264,68,53956,1,0,0:0:0:0:
314,71,54027,1,0,0:0:0:0:
363,64,54098,1,0,0:0:0:0:
408,52,54169,5,0,0:0:0:0:
436,120,54239,1,0,0:0:0:0:
439,195,54310,1,0,0:0:0:0:
415,266,54381,1,0,0:0:0:0:
368,320,54452,1,0,0:0:0:0:
340,312,54522,1,0,0:0:0:0:
312,308,54593,1,0,0:0:0:0:
283,307,54664,1,0,0:0:0:0:
252,312,54735,6,0,L|220:368,1,50
160,196,54877,1,0,0:0:0:0:
160,196,54947,1,0,0:0:0:0:
160,196,55018,2,0,L|184:128,1,50
356,88,55160,1,0,0:0:0:0:
356,88,55230,1,0,0:0:0:0:
356,88,55301,6,0,L|332:156,1,50
148,32,55443,1,0,0:0:0:0:
112,43,55513,1,0,0:0:0:0:
83,66,55584,1,0,0:0:0:0:
63,98,55655,1,0,0:0:0:0:
44,136,55726,1,0,0:0:0:0:
36,184,55796,1,0,0:0:0:0:
48,232,55867,1,0,0:0:0:0:
192,160,56008,1,0,0:0:0:0:
128,308,56150,2,0,P|192:328|224:320,1,100
344,208,56433,5,0,0:0:0:0:
448,332,56574,1,0,0:0:0:0:
292,288,56716,2,0,P|252:224|264:164,1,100
112,104,56999,1,0,0:0:0:0:
264,68,57140,1,0,0:0:0:0:
168,200,57282,2,0,P|88:216|40:248,1,100
180,340,57565,5,0,0:0:0:0:
300,248,57706,1,0,0:0:0:0:
400,360,57848,2,0,P|460:304|468:264,1,100
376,156,58131,1,0,0:0:0:0:
224,228,58272,1,0,0:0:0:0:
176,44,58414,2,0,P|116:100|108:140,1,100
268,56,58697,5,0,0:0:0:0:
332,236,58838,1,0,0:0:0:0:
120,200,58980,2,0,P|96:264|52:312,1,100
36,108,59263,1,0,0:0:0:0:
200,192,59404,1,0,0:0:0:0:
264,372,59546,2,0,P|340:352|408:360,1,100
308,168,59829,5,0,0:0:0:0:
448,288,59970,1,0,0:0:0:0:
400,104,60112,2,0,P|436:64|488:48,1,100
264,24,60395,1,0,0:0:0:0:
224,208,60536,1,0,0:0:0:0:
132,48,60678,2,0,P|96:108|96:172,1,100
200,296,60961,5,0,0:0:0:0:
232,104,61102,1,0,0:0:0:0:
112,216,61244,2,0,P|72:272|24:296,1,100
216,376,61527,1,0,0:0:0:0:
316,220,61668,1,0,0:0:0:0:
200,296,61810,2,0,P|184:224|200:188,1,100
52,48,62093,5,0,0:0:0:0:
204,120,62234,1,0,0:0:0:0:
368,24,62376,2,0,P|432:64|460:112,1,100
416,240,62659,1,0,0:0:0:0:
300,136,62800,1,0,0:0:0:0:
272,296,62942,2,0,P|208:336|160:340,1,100
144,156,63225,5,0,0:0:0:0:
296,216,63366,1,0,0:0:0:0:
80,236,63508,2,0,L|48:128,1,100
184,24,63791,2,0,L|216:132,1,100
264,304,64074,1,0,0:0:0:0:
392,172,64215,1,0,0:0:0:0:
364,16,64357,2,0,B|384:120|284:148|284:148|268:220|384:252|384:252|348:292|364:336,1,400
110,324,69026,5,0,0:0:0:0:
179,140,69168,1,0,0:0:0:0:
218,310,69309,1,0,0:0:0:0:
287,126,69451,1,0,0:0:0:0:
415,62,72847,5,0,0:0:0:0:
344,221,73271,1,0,0:0:0:0:
150,175,73554,1,0,0:0:0:0:
100,125,73696,1,0,0:0:0:0:
150,76,73837,1,0,0:0:0:0:
199,125,73978,1,0,0:0:0:0:
114,330,74261,5,0,0:0:0:0:
176,260,74403,1,0,0:0:0:0:
220,348,74544,2,0,P|280:336|324:352,1,100
424,280,74827,5,0,0:0:0:0:
320,216,74969,1,0,0:0:0:0:
240,40,75252,1,0,0:0:0:0:
124,192,75535,1,0,0:0:0:0:
292,332,75818,1,0,0:0:0:0:
324,164,75959,1,0,0:0:0:0:
224,240,76101,1,0,0:0:0:0:
460,348,76384,5,0,0:0:0:0:
292,332,76525,2,0,B|252:304|200:324|200:324|128:360|88:280,1,200
160,192,76950,1,0,0:0:0:0:
52,128,77091,2,0,P|56:60|88:32,1,100
248,188,77516,1,0,0:0:0:0:
312,36,77799,1,0,0:0:0:0:
448,160,78082,1,0,0:0:0:0:
348,280,78223,2,0,P|292:336|284:360,1,100
124,328,78506,6,0,B|80:320|111:249|144:184|84:160|84:160,1,150
60,184,78789,2,0,B|112:164|131:109|131:109|152:56|204:40,1,200
164,208,79214,1,0,0:0:0:0:
92,68,79355,2,0,P|152:36|188:8,1,100
364,83,79780,1,0,0:0:0:0:
252,236,80063,1,0,0:0:0:0:
444,208,80346,1,0,0:0:0:0:
316,352,80629,1,0,0:0:0:0:
168,296,80770,6,0,P|96:340|48:332,1,100
88,172,81053,1,0,0:0:0:0:
244,216,81195,1,0,0:0:0:0:
224,56,81336,2,0,P|168:32|112:36,1,100
244,216,81619,2,0,P|300:240|356:236,1,100
76,88,81902,5,0,0:0:0:0:
80,106,81972,1,0,0:0:0:0:
85,124,82043,1,0,0:0:0:0:
90,142,82114,1,0,0:0:0:0:
95,160,82184,1,0,0:0:0:0:
100,178,82255,1,0,0:0:0:0:
105,196,82326,1,0,0:0:0:0:
110,214,82397,1,0,0:0:0:0:
116,232,82468,5,0,0:0:0:0:
144,266,82538,1,0,0:0:0:0:
182,290,82609,1,0,0:0:0:0:
226,300,82680,1,0,0:0:0:0:
270,296,82750,1,0,0:0:0:0:
311,278,82821,1,0,0:0:0:0:
348,248,82893,2,0,L|396:192,1,50
408,40,83034,5,0,0:0:0:0:
408,40,83105,1,0,0:0:0:0:
420,52,83176,1,0,0:0:0:0:
420,52,83246,1,0,0:0:0:0:
420,52,83317,1,0,0:0:0:0:
420,52,83388,1,0,0:0:0:0:
401,82,83458,1,0,0:0:0:0:
372,101,83529,1,0,0:0:0:0:
337,100,83600,1,0,0:0:0:0:
304,86,83670,1,0,0:0:0:0:
269,79,83741,1,0,0:0:0:0:
238,95,83812,1,0,0:0:0:0:
216,123,83883,1,0,0:0:0:0:
96,292,84166,5,0,0:0:0:0:
96,292,84237,1,0,0:0:0:0:
96,292,84308,1,0,0:0:0:0:
96,292,84378,1,0,0:0:0:0:
96,292,84449,1,0,0:0:0:0:
123,320,84519,1,0,0:0:0:0:
160,333,84590,1,0,0:0:0:0:
200,326,84661,1,0,0:0:0:0:
236,309,84731,1,0,0:0:0:0:
270,288,84802,1,0,0:0:0:0:
307,273,84873,1,0,0:0:0:0:
346,270,84944,1,0,0:0:0:0:
384,283,85014,1,0,0:0:0:0:
376,40,85298,5,0,0:0:0:0:
377,58,85368,1,0,0:0:0:0:
372,76,85439,1,0,0:0:0:0:
362,91,85510,1,0,0:0:0:0:
352,104,85581,1,0,0:0:0:0:
281,125,85651,1,0,0:0:0:0:
238,185,85722,1,0,0:0:0:0:
240,258,85793,1,0,0:0:0:0:
284,320,85864,1,0,0:0:0:0:
262,333,85934,1,0,0:0:0:0:
239,341,86005,1,0,0:0:0:0:
214,344,86076,1,0,0:0:0:0:
196,344,86147,2,0,B|132:336|147:275|147:275|168:204|72:188,1,200
144,28,86572,5,0,0:0:0:0:
175,66,86642,1,0,0:0:0:0:
216,93,86713,1,0,0:0:0:0:
265,106,86784,1,0,0:0:0:0:
314,103,86854,1,0,0:0:0:0:
360,85,86925,1,0,0:0:0:0:
400,56,86996,1,0,0:0:0:0:
423,88,87066,1,0,0:0:0:0:
440,124,87137,1,0,0:0:0:0:
448,168,87208,1,0,0:0:0:0:
422,183,87278,1,0,0:0:0:0:
401,205,87349,1,0,0:0:0:0:
387,231,87420,1,0,0:0:0:0:
379,260,87490,1,0,0:0:0:0:
379,290,87561,1,0,0:0:0:0:
272,204,87704,5,0,0:0:0:0:
120,300,87845,2,0,L|112:228,1,50
210,106,87987,2,0,L|218:178,1,50
88,68,88128,1,0,0:0:0:0:
280,28,88270,1,0,0:0:0:0:
420,192,88411,6,0,L|380:140,1,50
215,155,88553,2,0,L|245:194,1,50
344,312,88694,1,0,0:0:0:0:
156,348,88836,1,0,0:0:0:0:
88,168,88977,2,0,L|56:104,1,50
256,84,89119,2,0,L|288:20,1,50
180,236,89260,1,0,0:0:0:0:
344,312,89402,1,0,0:0:0:0:
324,152,89543,6,0,L|384:212,1,50
215,271,89685,2,0,L|155:211,1,50
120,88,89826,1,0,0:0:0:0:
224,168,89968,1,0,0:0:0:0:
220,72,90109,1,0,0:0:0:0:
324,152,90251,1,0,0:0:0:0:
404,48,90392,1,0,0:0:0:0:
324,152,90534,1,0,0:0:0:0:
420,148,90675,1,0,0:0:0:0:
340,252,90817,1,0,0:0:0:0:
236,184,90958,5,0,0:0:0:0:
88,300,91100,1,0,0:0:0:0:
92,88,91383,1,0,0:0:0:0:
208,284,91666,1,0,0:0:0:0:
372,184,91948,1,0,0:0:0:0:
412,304,92090,5,0,0:0:0:0:
296,248,92231,1,0,0:0:0:0:
348,68,92514,1,0,0:0:0:0:
200,132,92797,1,0,0:0:0:0:
68,36,92939,1,0,0:0:0:0:
67,60,93009,1,0,0:0:0:0:
66,85,93080,1,0,0:0:0:0:
65,110,93151,1,0,0:0:0:0:
64,128,93222,2,0,B|156:160|96:244|96:244|112:292|112:292|168:296|168:296|232:240|328:312,1,400
456,340,94071,1,0,0:0:0:0:
280,112,94354,6,0,P|340:52|384:48,1,100
320,236,94637,2,0,P|260:296|216:300,1,100
84,256,94920,1,0,0:0:0:0:
63,184,94990,1,0,0:0:0:0:
78,111,95061,1,0,0:0:0:0:
125,54,95132,1,0,0:0:0:0:
192,24,95203,1,0,0:0:0:0:
225,40,95273,1,0,0:0:0:0:
262,48,95344,1,0,0:0:0:0:
299,49,95415,1,0,0:0:0:0:
340,40,95486,2,0,P|400:64|432:108,1,100
372,300,95769,5,0,0:0:0:0:
238,340,95910,1,0,0:0:0:0:
197,207,96052,1,0,0:0:0:0:
331,166,96193,1,0,0:0:0:0:
220,272,96335,2,0,P|156:284|112:272,1,100
276,104,96618,2,0,P|340:92|384:104,1,100
208,196,96901,5,0,0:0:0:0:
160,48,97042,1,0,0:0:0:0:
36,156,97184,2,0,P|56:240|92:280,1,100
192,344,97467,1,0,0:0:0:0:
312,240,97608,1,0,0:0:0:0:
436,340,97750,2,0,P|476:292|492:232,1,100
400,40,98033,6,0,P|360:88|344:148,1,100
156,192,98316,2,0,P|196:144|212:84,1,100
40,184,98599,1,0,0:0:0:0:
168,328,98740,1,0,0:0:0:0:
268,164,98882,2,0,P|336:212|356:256,1,100
188,256,99165,2,0,P|120:208|100:164,1,100
195,26,99448,5,0,0:0:0:0:
193,83,99518,1,0,0:0:0:0:
191,141,99589,1,0,0:0:0:0:
190,199,99660,1,0,0:0:0:0:
188,256,99731,1,0,0:0:0:0:
214,276,99801,1,0,0:0:0:0:
244,290,99872,1,0,0:0:0:0:
277,295,99943,1,0,0:0:0:0:
310,293,100013,1,0,0:0:0:0:
336,132,100155,1,0,0:0:0:0:
432,256,100297,5,0,0:0:0:0:
453,211,100367,1,0,0:0:0:0:
456,161,100438,1,0,0:0:0:0:
441,114,100509,1,0,0:0:0:0:
408,76,100580,1,0,0:0:0:0:
385,100,100650,1,0,0:0:0:0:
357,118,100721,1,0,0:0:0:0:
326,128,100792,1,0,0:0:0:0:
292,128,100862,1,0,0:0:0:0:
260,120,100933,1,0,0:0:0:0:
228,100,101004,2,0,L|200:44,1,50
84,208,101146,5,0,0:0:0:0:
208,320,101287,1,0,0:0:0:0:
208,320,101358,1,0,0:0:0:0:
208,320,101429,1,0,0:0:0:0:
328,212,101570,1,0,0:0:0:0:
366,199,101640,1,0,0:0:0:0:
406,210,101711,1,0,0:0:0:0:
431,242,101782,1,0,0:0:0:0:
434,283,101852,1,0,0:0:0:0:
413,318,101923,1,0,0:0:0:0:
372,336,101995,5,0,0:0:0:0:
312,291,102065,1,0,0:0:0:0:
240,272,102136,1,0,0:0:0:0:
166,282,102207,1,0,0:0:0:0:
100,320,102278,1,0,0:0:0:0:
90,246,102348,1,0,0:0:0:0:
115,176,102419,1,0,0:0:0:0:
170,126,102490,1,0,0:0:0:0:
241,107,102560,1,0,0:0:0:0:
316,120,102631,2,0,L|352:168,1,50
260,200,102773,5,0,0:0:0:0:
208,200,102844,1,0,0:0:0:0:
166,173,102914,1,0,0:0:0:0:
142,130,102985,1,0,0:0:0:0:
143,80,103056,1,0,0:0:0:0:
172,40,103127,1,0,0:0:0:0:
194,50,103197,1,0,0:0:0:0:
219,55,103268,1,0,0:0:0:0:
244,55,103339,1,0,0:0:0:0:
268,50,103409,1,0,0:0:0:0:
404,136,103551,1,0,0:0:0:0:
404,136,103622,1,0,0:0:0:0:
404,136,103693,5,0,0:0:0:0:
272,200,103834,1,0,0:0:0:0:
416,268,103976,1,0,0:0:0:0:
408,304,104046,1,0,0:0:0:0:
385,333,104117,1,0,0:0:0:0:
351,348,104188,1,0,0:0:0:0:
312,348,104259,1,0,0:0:0:0:
269,287,104329,1,0,0:0:0:0:
200,259,104400,1,0,0:0:0:0:
127,270,104471,1,0,0:0:0:0:
72,319,104541,1,0,0:0:0:0:
192,352,104683,1,0,0:0:0:0:
120,180,104825,6,0,L|96:80,1,100
256,192,105108,2,0,L|280:292,1,100
400,136,105391,2,0,L|376:36,1,100
256,192,105674,1,0,0:0:0:0:
216,36,105815,1,0,0:0:0:0:
64,92,105957,2,0,P|40:148|48:204,1,100
188,312,106240,5,0,0:0:0:0:
152,132,106381,1,0,0:0:0:0:
296,324,106523,1,0,0:0:0:0:
260,144,106664,1,0,0:0:0:0:
400,328,106806,2,0,P|424:264|424:216,1,100
285,48,107089,2,0,P|261:112|261:160,1,100
148,268,107372,5,0,0:0:0:0:
144,112,107513,1,0,0:0:0:0:
264,224,107655,2,0,P|248:288|212:320,1,100
388,232,107938,2,0,P|404:168|440:136,1,100
316,32,108221,2,0,P|300:96|264:128,1,100
100,240,108504,5,0,0:0:0:0:
79,209,108574,1,0,0:0:0:0:
72,172,108645,1,0,0:0:0:0:
80,136,108716,1,0,0:0:0:0:
104,104,108787,1,0,0:0:0:0:
151,161,108857,1,0,0:0:0:0:
218,192,108928,1,0,0:0:0:0:
292,190,108999,1,0,0:0:0:0:
359,156,109069,1,0,0:0:0:0:
192,84,109211,1,0,0:0:0:0:
192,272,109353,5,0,0:0:0:0:
240,261,109423,1,0,0:0:0:0:
290,267,109494,1,0,0:0:0:0:
334,289,109565,1,0,0:0:0:0:
372,328,109636,1,0,0:0:0:0:
396,296,109706,1,0,0:0:0:0:
414,261,109777,1,0,0:0:0:0:
426,222,109848,1,0,0:0:0:0:
431,183,109918,1,0,0:0:0:0:
428,143,109989,1,0,0:0:0:0:
420,112,110060,2,0,L|456:44,1,50
256,76,110201,5,0,0:0:0:0:
80,60,110343,1,0,0:0:0:0:
80,60,110414,1,0,0:0:0:0:
80,60,110484,1,0,0:0:0:0:
200,168,110626,1,0,0:0:0:0:
200,192,110696,1,0,0:0:0:0:
192,208,110767,1,0,0:0:0:0:
241,205,110837,1,0,0:0:0:0:
291,213,110908,1,0,0:0:0:0:
337,232,110979,1,0,0:0:0:0:
376,264,111050,5,0,0:0:0:0:
419,204,111120,1,0,0:0:0:0:
419,130,111191,1,0,0:0:0:0:
375,71,111262,1,0,0:0:0:0:
304,52,111333,1,0,0:0:0:0:
268,116,111403,1,0,0:0:0:0:
204,155,111474,1,0,0:0:0:0:
130,158,111545,1,0,0:0:0:0:
64,124,111615,1,0,0:0:0:0:
36,56,111687,2,0,L|80:16,1,50
24,184,111829,1,0,0:0:0:0:
40,228,111899,5,0,0:0:0:0:
73,265,111969,1,0,0:0:0:0:
117,287,112040,1,0,0:0:0:0:
167,291,112111,1,0,0:0:0:0:
216,272,112182,1,0,0:0:0:0:
218,242,112252,1,0,0:0:0:0:
226,213,112323,1,0,0:0:0:0:
239,186,112394,1,0,0:0:0:0:
256,168,112465,2,0,L|240:104,1,50
392,264,112607,1,0,0:0:0:0:
392,264,112678,1,0,0:0:0:0:
392,264,112748,6,0,L|464:212,1,50
408,48,112890,1,0,0:0:0:0:
359,61,112960,1,0,0:0:0:0:
310,64,113031,1,0,0:0:0:0:
260,57,113102,1,0,0:0:0:0:
212,40,113173,1,0,0:0:0:0:
189,51,113243,1,0,0:0:0:0:
169,65,113314,1,0,0:0:0:0:
152,84,113385,1,0,0:0:0:0:
139,105,113455,1,0,0:0:0:0:
129,128,113526,1,0,0:0:0:0:
124,152,113597,1,0,0:0:0:0:
276,208,113739,1,0,0:0:0:0:
412,132,113880,6,0,P|460:196|472:260,1,100
296,136,114163,2,0,P|248:72|236:8,1,100
80,152,114446,1,0,0:0:0:0:
264,212,114588,1,0,0:0:0:0:
144,348,114729,1,0,0:0:0:0:
336,288,114871,1,0,0:0:0:0:
336,288,114942,1,0,0:0:0:0:
336,288,115012,5,0,0:0:0:0:
428,120,115154,1,0,0:0:0:0:
428,120,115225,1,0,0:0:0:0:
428,120,115296,1,0,0:0:0:0:
252,56,115437,1,0,0:0:0:0:
252,56,115508,1,0,0:0:0:0:
252,56,115579,1,0,0:0:0:0:
132,212,115720,1,0,0:0:0:0:
132,212,115791,1,0,0:0:0:0:
132,212,115861,2,0,B|236:216|236:216|316:304,1,200
160,344,116286,1,0,0:0:0:0:
44,232,116427,2,0,B|76:168|36:92|36:92|92:28,1,200
224,168,116852,1,0,0:0:0:0:
380,40,116993,5,0,0:0:0:0:
359,85,117063,1,0,0:0:0:0:
357,134,117134,1,0,0:0:0:0:
375,181,117205,1,0,0:0:0:0:
412,216,117276,1,0,0:0:0:0:
380,254,117346,1,0,0:0:0:0:
338,280,117417,1,0,0:0:0:0:
289,292,117488,1,0,0:0:0:0:
240,288,117559,5,0,0:0:0:0:
221,271,117629,1,0,0:0:0:0:
206,251,117700,1,0,0:0:0:0:
194,229,117771,1,0,0:0:0:0:
185,206,117841,1,0,0:0:0:0:
180,181,117912,1,0,0:0:0:0:
180,156,117983,1,0,0:0:0:0:
183,131,118054,1,0,0:0:0:0:
190,107,118124,1,0,0:0:0:0:
328,172,118267,1,0,0:0:0:0:
416,48,118408,6,0,P|440:104|472:132,1,100
412,340,118691,2,0,P|388:284|356:256,1,100
208,324,118974,1,0,0:0:0:0:
240,164,119116,1,0,0:0:0:0:
64,200,119257,5,0,0:0:0:0:
168,60,119399,1,0,0:0:0:0:
168,60,119469,1,0,0:0:0:0:
168,60,119540,1,0,0:0:0:0:
224,240,119682,1,0,0:0:0:0:
224,240,119752,1,0,0:0:0:0:
224,240,119823,1,0,0:0:0:0:
320,72,119965,1,0,0:0:0:0:
320,72,120035,1,0,0:0:0:0:
320,72,120106,1,0,0:0:0:0:
404,240,120248,1,0,0:0:0:0:
404,240,120318,1,0,0:0:0:0:
404,240,120389,6,0,P|316:316|204:328,1,200
96,248,120814,1,0,0:0:0:0:
140,96,120955,2,0,P|296:92|340:56,1,200
480,172,121380,1,0,0:0:0:0:
480,172,121450,1,0,0:0:0:0:
480,172,121521,1,0,0:0:0:0:
360,284,121663,1,0,0:0:0:0:
60,236,121946,5,0,0:0:0:0:
200,336,122229,1,0,0:0:0:0:
200,148,122370,1,0,0:0:0:0:
56,52,122653,1,0,0:0:0:0:
156,224,122795,1,0,0:0:0:0:
288,76,123078,1,0,0:0:0:0:
448,236,123361,1,0,0:0:0:0:
280,320,123502,2,0,P|160:332|132:240,1,200
256,192,123820,12,0,124917,0:0:0:0:
