osu file format v14

[General]
AudioFilename: audio.mp3
AudioLeadIn: 0
PreviewTime: 93756
Countdown: 0
SampleSet: Normal
StackLeniency: 0.7
Mode: 1
LetterboxInBreaks: 0
WidescreenStoryboard: 0

[Editor]
Bookmarks: 10152,28265,55435,95058
DistanceSpacing: 0.9
BeatDivisor: 4
GridSize: 32
TimelineZoom: 1.4

[Metadata]
Title:Elemental Creation
TitleUnicode:Elemental Creation
Artist:dj TAKA meets DJ YOSHITAKA
ArtistUnicode:dj TAKA meets DJ YOSHITAKA
Creator:Nifty
Version:Oni
Source:pop'n music Sunny Park
Tags:HARD RENAISSANCE electronic instrumental beatmania iidx 20 tricoro ddr dance dance revolution rhythm game video jubeat saucer plus konami sdvx sound voltex IV 4 heavenly haven futuretomtom future tom tom reflect beat colette -spring-
BeatmapID:1658845
BeatmapSetID:790594

[Difficulty]
HPDrainRate:6
CircleSize:2
OverallDifficulty:5
ApproachRate:10
SliderMultiplier:1.4
SliderTickRate:1

[Events]
//Background and Video events
0,0,"d59a7e5c-ae8f-4163-bc08-d5a5ddd9fb21.png",0,0
//Break Periods
2,65654,74060
//Storyboard Layer 0 (Background)
//Storyboard Layer 1 (Fail)
//Storyboard Layer 2 (Pass)
//Storyboard Layer 3 (Foreground)
//Storyboard Layer 4 (Overlay)
//Storyboard Sound Samples

[TimingPoints]
2058,283.018867924528,4,1,0,80,1,0
11114,-100,4,1,0,80,0,1
29227,-100,4,1,0,80,0,0
38284,-100,4,1,0,80,0,1
56397,-100,4,1,0,80,0,0
56678,-102.564102564103,4,1,0,80,0,0
56820,-103.896103896104,4,1,0,80,0,0
56961,-105.263157894737,4,1,0,80,0,0
57103,-106.666666666667,4,1,0,80,0,0
57244,-108.108108108108,4,1,0,80,0,0
57386,-109.58904109589,4,1,0,80,0,0
57669,-112.676056338028,4,1,0,80,0,0
57810,-114.285714285714,4,1,0,80,0,0
57952,-115.942028985507,4,1,0,80,0,0
58093,-117.647058823529,4,1,0,80,0,0
58235,-119.402985074627,4,1,0,80,0,0
58376,-121.212121212121,4,1,0,80,0,0
58518,-123.076923076923,4,1,0,80,0,0
58589,-124.031007751938,4,1,0,80,0,0
58659,-125,4,1,0,70,0,0
58942,-129.032258064516,4,1,0,70,0,0
59084,-131.147540983607,4,1,0,70,0,0
59225,-133.333333333333,4,1,0,70,0,0
59367,-135.593220338983,4,1,0,70,0,0
59508,-137.931034482759,4,1,0,70,0,0
59650,-140.350877192982,4,1,0,60,0,0
59933,-145.454545454545,4,1,0,60,0,0
60074,-148.148148148148,4,1,0,60,0,0
60216,-150.943396226415,4,1,0,60,0,0
60357,-153.846153846154,4,1,0,60,0,0
60499,-156.862745098039,4,1,0,60,0,0
60640,-160,4,1,0,60,0,0
60782,-163.265306122449,4,1,0,60,0,0
60853,-164.948453608247,4,1,0,60,0,0
60923,-166.666666666667,4,1,0,60,0,0
62055,-166.666666666667,4,1,0,55,0,0
63117,-166.666666666667,4,1,0,50,0,0
64037,-166.666666666667,4,1,0,45,0,0
64320,-166.666666666667,4,1,0,40,0,0
65310,-125,4,1,0,80,0,0
65593,-125,4,1,0,5,0,0
74225,-125,4,1,0,60,0,0
83494,-100,4,1,0,80,0,0
96020,-100,4,1,0,80,0,1
114133,-100,4,1,0,80,0,0
123188,-83.3333333333333,4,1,0,80,0,0

[HitObjects]
256,128,2058,5,12,0:0:0:0:
256,128,2199,1,12,0:0:0:0:
256,128,2482,1,12,0:0:0:0:
256,128,2765,1,12,0:0:0:0:
256,128,3048,1,12,0:0:0:0:
256,128,3190,1,12,0:0:0:0:
256,128,3473,1,8,0:0:0:0:
256,128,3614,1,0,0:0:0:0:
256,128,3756,1,8,0:0:0:0:
256,128,3897,1,0,0:0:0:0:
256,128,4039,1,8,0:0:0:0:
256,128,4180,1,0,0:0:0:0:
256,128,4463,1,0,0:0:0:0:
256,128,4605,1,12,0:0:0:0:
256,128,4746,1,12,0:0:0:0:
256,128,5029,1,12,0:0:0:0:
256,128,5312,1,12,0:0:0:0:
256,128,5454,1,12,0:0:0:0:
256,128,5737,1,8,0:0:0:0:
256,128,5878,1,0,0:0:0:0:
256,128,6020,1,8,0:0:0:0:
256,128,6161,1,8,0:0:0:0:
256,96,6303,1,0,0:0:0:0:
256,128,6444,1,0,0:0:0:0:
256,128,6586,1,12,0:0:0:0:
256,128,6869,1,0,0:0:0:0:
256,128,7010,1,8,0:0:0:0:
256,128,7293,1,8,0:0:0:0:
256,128,7435,1,0,0:0:0:0:
256,128,7576,1,0,0:0:0:0:
256,128,7718,1,12,0:0:0:0:
256,128,8001,1,8,0:0:0:0:
256,128,8142,1,0,0:0:0:0:
256,128,8425,1,0,0:0:0:0:
256,128,8567,1,8,0:0:0:0:
256,128,8708,1,0,0:0:0:0:
256,192,8850,12,0,10831,0:0:0:0:
256,160,11114,5,12,0:0:0:0:
256,160,11256,1,0,0:0:0:0:
256,160,11397,1,0,0:0:0:0:
256,160,11468,1,0,0:0:0:0:
256,160,11539,1,8,0:0:0:0:
256,160,11680,1,0,0:0:0:0:
256,160,11822,1,0,0:0:0:0:
256,160,11892,1,0,0:0:0:0:
256,160,11963,1,8,0:0:0:0:
256,160,12105,1,0,0:0:0:0:
256,160,12246,1,0,0:0:0:0:
256,160,12317,1,0,0:0:0:0:
256,160,12388,1,8,0:0:0:0:
256,160,12529,1,0,0:0:0:0:
256,160,12671,1,0,0:0:0:0:
256,160,12741,1,0,0:0:0:0:
256,160,12812,1,8,0:0:0:0:
256,160,12954,1,0,0:0:0:0:
256,160,13095,1,8,0:0:0:0:
256,160,13237,1,0,0:0:0:0:
256,160,13378,1,8,0:0:0:0:
256,160,13520,1,0,0:0:0:0:
256,160,13662,1,0,0:0:0:0:
256,160,13732,1,0,0:0:0:0:
256,160,13803,1,8,0:0:0:0:
256,160,13944,1,0,0:0:0:0:
256,160,14086,1,0,0:0:0:0:
256,160,14156,1,0,0:0:0:0:
256,160,14227,1,8,0:0:0:0:
256,160,14369,1,0,0:0:0:0:
256,160,14511,1,0,0:0:0:0:
256,160,14581,1,0,0:0:0:0:
256,160,14652,1,8,0:0:0:0:
256,160,14793,1,0,0:0:0:0:
256,160,14935,1,0,0:0:0:0:
256,160,15006,1,0,0:0:0:0:
256,160,15076,1,8,0:0:0:0:
256,160,15218,1,0,0:0:0:0:
256,160,15359,1,8,0:0:0:0:
256,160,15430,1,8,0:0:0:0:
256,160,15501,1,0,0:0:0:0:
256,160,15642,1,8,0:0:0:0:
256,160,15925,1,0,0:0:0:0:
256,160,16067,1,8,0:0:0:0:
256,160,16208,1,0,0:0:0:0:
256,160,16350,1,8,0:0:0:0:
256,160,16491,1,8,0:0:0:0:
256,160,16633,1,0,0:0:0:0:
256,160,16704,1,0,0:0:0:0:
256,160,16774,1,8,0:0:0:0:
256,160,17057,1,0,0:0:0:0:
256,160,17199,1,8,0:0:0:0:
256,160,17341,1,0,0:0:0:0:
256,160,17482,1,0,0:0:0:0:
256,160,17624,1,8,0:0:0:0:
256,160,17765,1,0,0:0:0:0:
256,160,17907,1,8,0:0:0:0:
256,160,18048,1,0,0:0:0:0:
256,160,18119,1,0,0:0:0:0:
256,160,18190,1,8,0:0:0:0:
256,160,18331,1,0,0:0:0:0:
256,128,18473,1,8,0:0:0:0:
256,128,18543,1,8,0:0:0:0:
256,128,18614,1,0,0:0:0:0:
256,128,18685,1,0,0:0:0:0:
256,128,18756,1,8,0:0:0:0:
256,128,18897,1,0,0:0:0:0:
256,128,19039,1,12,0:0:0:0:
256,128,19180,1,12,0:0:0:0:
256,128,19463,1,12,0:0:0:0:
256,128,19746,1,12,0:0:0:0:
256,128,19888,1,12,0:0:0:0:
256,160,20171,5,12,0:0:0:0:
256,160,20313,1,0,0:0:0:0:
256,160,20454,1,0,0:0:0:0:
256,160,20525,1,0,0:0:0:0:
256,160,20596,1,8,0:0:0:0:
256,160,20737,1,0,0:0:0:0:
256,160,20879,1,0,0:0:0:0:
256,160,20949,1,0,0:0:0:0:
256,160,21020,1,8,0:0:0:0:
256,160,21162,1,0,0:0:0:0:
256,160,21303,1,0,0:0:0:0:
256,160,21374,1,0,0:0:0:0:
256,160,21445,1,8,0:0:0:0:
256,160,21586,1,0,0:0:0:0:
256,160,21728,1,0,0:0:0:0:
256,160,21798,1,0,0:0:0:0:
256,160,21869,1,8,0:0:0:0:
256,160,22011,1,0,0:0:0:0:
256,160,22152,1,8,0:0:0:0:
256,160,22294,1,0,0:0:0:0:
256,160,22435,1,8,0:0:0:0:
256,160,22577,1,0,0:0:0:0:
256,160,22719,1,0,0:0:0:0:
256,160,22789,1,0,0:0:0:0:
256,160,22860,1,8,0:0:0:0:
256,160,23001,1,0,0:0:0:0:
256,160,23143,1,0,0:0:0:0:
256,160,23213,1,0,0:0:0:0:
256,160,23284,1,8,0:0:0:0:
256,160,23426,1,0,0:0:0:0:
256,160,23568,1,0,0:0:0:0:
256,160,23638,1,0,0:0:0:0:
256,160,23709,1,8,0:0:0:0:
256,160,23850,1,0,0:0:0:0:
256,160,23992,1,0,0:0:0:0:
256,160,24063,1,0,0:0:0:0:
256,160,24133,1,8,0:0:0:0:
256,160,24275,1,0,0:0:0:0:
256,160,24416,1,8,0:0:0:0:
256,160,24487,1,8,0:0:0:0:
256,160,24558,1,0,0:0:0:0:
256,160,24699,1,8,0:0:0:0:
256,160,24982,1,0,0:0:0:0:
256,160,25124,1,8,0:0:0:0:
256,160,25265,1,0,0:0:0:0:
256,160,25407,1,8,0:0:0:0:
256,160,25548,1,8,0:0:0:0:
256,160,25690,1,0,0:0:0:0:
256,160,25761,1,0,0:0:0:0:
256,160,25831,1,8,0:0:0:0:
256,160,26114,1,0,0:0:0:0:
256,160,26256,1,8,0:0:0:0:
256,160,26398,1,0,0:0:0:0:
256,160,26539,1,0,0:0:0:0:
256,160,26681,1,8,0:0:0:0:
256,160,26822,1,0,0:0:0:0:
256,160,26964,1,8,0:0:0:0:
256,160,27105,1,0,0:0:0:0:
256,160,27176,1,0,0:0:0:0:
256,160,27247,1,8,0:0:0:0:
256,160,27388,1,0,0:0:0:0:
256,128,27530,1,8,0:0:0:0:
256,128,27600,1,8,0:0:0:0:
256,128,27671,1,0,0:0:0:0:
256,128,27742,1,0,0:0:0:0:
256,128,27813,1,8,0:0:0:0:
256,128,27954,1,0,0:0:0:0:
256,128,28095,1,8,0:0:0:0:
256,128,28237,1,0,0:0:0:0:
256,128,28307,1,0,0:0:0:0:
256,128,28378,1,8,0:0:0:0:
256,128,28520,1,0,0:0:0:0:
256,128,28661,1,8,0:0:0:0:
256,128,28732,1,8,0:0:0:0:
256,128,28803,1,0,0:0:0:0:
256,128,28944,1,8,0:0:0:0:
256,128,29015,1,8,0:0:0:0:
256,128,29086,1,0,0:0:0:0:
256,128,29227,1,12,0:0:0:0:
256,128,29510,1,8,0:0:0:0:
256,128,29652,1,0,0:0:0:0:
256,128,29793,1,0,0:0:0:0:
256,128,29935,1,8,0:0:0:0:
256,128,30076,1,8,0:0:0:0:
256,128,30218,1,0,0:0:0:0:
256,128,30359,1,8,0:0:0:0:
256,128,30501,1,0,0:0:0:0:
256,128,30572,1,0,0:0:0:0:
256,128,30642,1,8,0:0:0:0:
256,128,30784,1,0,0:0:0:0:
256,128,30925,1,8,0:0:0:0:
256,128,31067,1,0,0:0:0:0:
256,128,31138,1,0,0:0:0:0:
256,128,31208,1,8,0:0:0:0:
256,128,31350,1,0,0:0:0:0:
256,128,31491,1,8,0:0:0:0:
256,128,31774,1,8,0:0:0:0:
256,128,31916,1,0,0:0:0:0:
256,128,32057,1,8,0:0:0:0:
256,128,32341,1,8,0:0:0:0:
256,128,32624,1,0,0:0:0:0:
256,128,32694,1,0,0:0:0:0:
256,128,32765,1,8,0:0:0:0:
256,128,32907,1,8,0:0:0:0:
256,128,33048,1,0,0:0:0:0:
256,128,33190,1,8,0:0:0:0:
256,128,33260,1,8,0:0:0:0:
256,128,33331,1,0,0:0:0:0:
256,128,33402,1,0,0:0:0:0:
256,128,33473,1,8,0:0:0:0:
256,128,33614,1,0,0:0:0:0:
256,128,33756,1,8,0:0:0:0:
256,96,34039,1,8,0:0:0:0:
256,128,34180,1,0,0:0:0:0:
256,128,34322,1,0,0:0:0:0:
256,128,34463,1,8,0:0:0:0:
256,128,34605,1,8,0:0:0:0:
256,128,34746,1,0,0:0:0:0:
256,128,34888,1,8,0:0:0:0:
256,128,35029,1,0,0:0:0:0:
256,128,35100,1,0,0:0:0:0:
256,128,35171,1,8,0:0:0:0:
256,128,35312,1,0,0:0:0:0:
256,128,35454,1,8,0:0:0:0:
256,128,35595,1,0,0:0:0:0:
256,128,35666,1,0,0:0:0:0:
256,128,35737,1,8,0:0:0:0:
256,128,35878,1,0,0:0:0:0:
256,128,36020,1,8,0:0:0:0:
256,128,36303,1,8,0:0:0:0:
256,128,36444,1,0,0:0:0:0:
256,128,36586,1,8,0:0:0:0:
256,128,36727,1,0,0:0:0:0:
256,128,36869,1,0,0:0:0:0:
256,128,37010,1,0,0:0:0:0:
256,128,37152,1,12,0:0:0:0:
256,128,37293,1,12,0:0:0:0:
256,128,37576,1,4,0:0:0:0:
256,128,37859,1,4,0:0:0:0:
256,128,38001,1,4,0:0:0:0:
256,160,38284,5,12,0:0:0:0:
256,160,38426,1,0,0:0:0:0:
256,160,38567,1,0,0:0:0:0:
256,160,38638,1,0,0:0:0:0:
256,160,38709,1,8,0:0:0:0:
256,160,38850,1,0,0:0:0:0:
256,160,38992,1,0,0:0:0:0:
256,160,39062,1,0,0:0:0:0:
256,160,39133,1,8,0:0:0:0:
256,160,39275,1,0,0:0:0:0:
256,160,39416,1,0,0:0:0:0:
256,160,39487,1,0,0:0:0:0:
256,160,39558,1,8,0:0:0:0:
256,160,39699,1,0,0:0:0:0:
256,160,39841,1,0,0:0:0:0:
256,160,39911,1,0,0:0:0:0:
256,160,39982,1,8,0:0:0:0:
256,160,40124,1,0,0:0:0:0:
256,160,40265,1,8,0:0:0:0:
256,160,40407,1,0,0:0:0:0:
256,160,40548,1,8,0:0:0:0:
256,160,40690,1,0,0:0:0:0:
256,160,40832,1,0,0:0:0:0:
256,160,40902,1,0,0:0:0:0:
256,160,40973,1,8,0:0:0:0:
256,160,41114,1,0,0:0:0:0:
256,160,41256,1,0,0:0:0:0:
256,160,41326,1,0,0:0:0:0:
256,160,41397,1,8,0:0:0:0:
256,160,41539,1,0,0:0:0:0:
256,160,41681,1,0,0:0:0:0:
256,160,41751,1,0,0:0:0:0:
256,160,41822,1,8,0:0:0:0:
256,160,41963,1,0,0:0:0:0:
256,160,42105,1,0,0:0:0:0:
256,160,42176,1,0,0:0:0:0:
256,160,42246,1,8,0:0:0:0:
256,160,42388,1,0,0:0:0:0:
256,160,42529,1,8,0:0:0:0:
256,160,42600,1,8,0:0:0:0:
256,160,42671,1,0,0:0:0:0:
256,160,42812,1,8,0:0:0:0:
256,160,43095,1,0,0:0:0:0:
256,160,43237,1,8,0:0:0:0:
256,160,43378,1,0,0:0:0:0:
256,160,43520,1,8,0:0:0:0:
256,160,43661,1,8,0:0:0:0:
256,160,43803,1,0,0:0:0:0:
256,160,43874,1,0,0:0:0:0:
256,160,43944,1,8,0:0:0:0:
256,160,44227,1,0,0:0:0:0:
256,160,44369,1,8,0:0:0:0:
256,160,44511,1,0,0:0:0:0:
256,160,44652,1,0,0:0:0:0:
256,160,44794,1,8,0:0:0:0:
256,160,44935,1,0,0:0:0:0:
256,160,45077,1,8,0:0:0:0:
256,160,45218,1,0,0:0:0:0:
256,160,45289,1,0,0:0:0:0:
256,160,45360,1,8,0:0:0:0:
256,160,45501,1,0,0:0:0:0:
256,128,45643,1,8,0:0:0:0:
256,128,45713,1,8,0:0:0:0:
256,128,45784,1,0,0:0:0:0:
256,128,45855,1,0,0:0:0:0:
256,128,45926,1,8,0:0:0:0:
256,128,46067,1,0,0:0:0:0:
256,128,46209,1,12,0:0:0:0:
256,128,46350,1,12,0:0:0:0:
256,128,46633,1,12,0:0:0:0:
256,128,46916,1,12,0:0:0:0:
256,128,47058,1,12,0:0:0:0:
256,160,47341,5,12,0:0:0:0:
256,160,47483,1,0,0:0:0:0:
256,160,47624,1,0,0:0:0:0:
256,160,47695,1,0,0:0:0:0:
256,160,47766,1,8,0:0:0:0:
256,160,47907,1,0,0:0:0:0:
256,160,48049,1,0,0:0:0:0:
256,160,48119,1,0,0:0:0:0:
256,160,48190,1,8,0:0:0:0:
256,160,48332,1,0,0:0:0:0:
256,160,48473,1,0,0:0:0:0:
256,160,48544,1,0,0:0:0:0:
256,160,48615,1,8,0:0:0:0:
256,160,48756,1,0,0:0:0:0:
256,160,48898,1,0,0:0:0:0:
256,160,48968,1,0,0:0:0:0:
256,160,49039,1,8,0:0:0:0:
256,160,49181,1,0,0:0:0:0:
256,160,49322,1,8,0:0:0:0:
256,160,49464,1,0,0:0:0:0:
256,160,49605,1,8,0:0:0:0:
256,160,49747,1,0,0:0:0:0:
256,160,49889,1,0,0:0:0:0:
256,160,49959,1,0,0:0:0:0:
256,160,50030,1,8,0:0:0:0:
256,160,50171,1,0,0:0:0:0:
256,160,50313,1,0,0:0:0:0:
256,160,50383,1,0,0:0:0:0:
256,160,50454,1,8,0:0:0:0:
256,160,50596,1,0,0:0:0:0:
256,160,50738,1,0,0:0:0:0:
256,160,50808,1,0,0:0:0:0:
256,160,50879,1,8,0:0:0:0:
256,160,51020,1,0,0:0:0:0:
256,160,51162,1,0,0:0:0:0:
256,160,51233,1,0,0:0:0:0:
256,160,51303,1,8,0:0:0:0:
256,160,51445,1,0,0:0:0:0:
256,160,51586,1,8,0:0:0:0:
256,160,51657,1,8,0:0:0:0:
256,160,51728,1,0,0:0:0:0:
256,160,51869,1,12,0:0:0:0:
256,160,52152,1,0,0:0:0:0:
256,160,52294,1,8,0:0:0:0:
256,160,52435,1,0,0:0:0:0:
256,160,52577,1,8,0:0:0:0:
256,160,52718,1,8,0:0:0:0:
256,160,52860,1,0,0:0:0:0:
256,160,52931,1,0,0:0:0:0:
256,160,53001,1,12,0:0:0:0:
256,160,53284,1,0,0:0:0:0:
256,160,53426,1,8,0:0:0:0:
256,160,53568,1,0,0:0:0:0:
256,160,53709,1,0,0:0:0:0:
256,160,53851,1,8,0:0:0:0:
256,160,53992,1,0,0:0:0:0:
256,160,54134,1,12,0:0:0:0:
256,160,54275,1,0,0:0:0:0:
256,160,54346,1,0,0:0:0:0:
256,160,54417,1,8,0:0:0:0:
256,160,54558,1,0,0:0:0:0:
256,128,54700,1,8,0:0:0:0:
256,128,54770,1,8,0:0:0:0:
256,128,54841,1,0,0:0:0:0:
256,128,54912,1,0,0:0:0:0:
256,128,54983,1,8,0:0:0:0:
256,128,55124,1,0,0:0:0:0:
256,128,55265,1,12,0:0:0:0:
256,128,55407,1,0,0:0:0:0:
256,128,55477,1,0,0:0:0:0:
256,128,55548,1,12,0:0:0:0:
256,128,55690,1,0,0:0:0:0:
256,128,55831,1,8,0:0:0:0:
256,128,55902,1,8,0:0:0:0:
256,128,55973,1,0,0:0:0:0:
256,128,56114,1,8,0:0:0:0:
256,128,56185,1,8,0:0:0:0:
256,128,56256,1,0,0:0:0:0:
256,128,56397,1,12,0:0:0:0:
256,128,56680,1,8,0:0:0:0:
256,128,56822,1,0,0:0:0:0:
256,128,56963,1,8,0:0:0:0:
256,128,57105,1,0,0:0:0:0:
256,128,57246,1,0,0:0:0:0:
256,128,57388,1,8,0:0:0:0:
256,128,57671,1,0,0:0:0:0:
256,128,57812,1,8,0:0:0:0:
256,128,57954,1,0,0:0:0:0:
256,128,58095,1,8,0:0:0:0:
256,128,58237,1,8,0:0:0:0:
256,128,58378,1,0,0:0:0:0:
256,128,58520,1,8,0:0:0:0:
256,128,58591,1,8,0:0:0:0:
256,128,58661,1,0,0:0:0:0:
256,128,58944,1,8,0:0:0:0:
256,128,59086,1,0,0:0:0:0:
256,128,59227,1,8,0:0:0:0:
256,128,59369,1,8,0:0:0:0:
256,128,59510,1,0,0:0:0:0:
256,128,59652,1,8,0:0:0:0:
256,128,59935,1,0,0:0:0:0:
256,128,60076,1,8,0:0:0:0:
256,128,60218,1,0,0:0:0:0:
256,128,60359,1,8,0:0:0:0:
256,128,60501,1,0,0:0:0:0:
256,128,60642,1,0,0:0:0:0:
256,128,60784,1,8,0:0:0:0:
256,128,60855,1,8,0:0:0:0:
256,128,60925,1,0,0:0:0:0:
256,128,61208,1,8,0:0:0:0:
256,128,61350,1,0,0:0:0:0:
256,128,61491,1,8,0:0:0:0:
256,128,61633,1,8,0:0:0:0:
256,128,61916,1,0,0:0:0:0:
256,128,62199,1,0,0:0:0:0:
256,128,62341,1,8,0:0:0:0:
256,128,62482,1,0,0:0:0:0:
256,128,62624,1,8,0:0:0:0:
256,128,62765,1,8,0:0:0:0:
256,128,62907,1,0,0:0:0:0:
256,128,63048,1,8,0:0:0:0:
256,128,63331,1,0,0:0:0:0:
256,128,63473,1,8,0:0:0:0:
256,128,63614,1,0,0:0:0:0:
256,128,63756,1,8,0:0:0:0:
256,96,63897,1,0,0:0:0:0:
256,128,64180,1,0,0:0:0:0:
256,128,64463,1,0,0:0:0:0:
256,128,64605,1,8,0:0:0:0:
256,128,64746,1,0,0:0:0:0:
256,128,64888,1,8,0:0:0:0:
256,128,65029,1,0,0:0:0:0:
256,128,65171,1,8,0:0:0:0:
256,128,65454,1,12,0:0:0:0:
256,64,74510,5,0,0:0:0:0:
256,64,74652,1,8,0:0:0:0:
256,64,74793,1,8,0:0:0:0:
256,64,75076,1,8,0:0:0:0:
256,64,75218,1,8,0:0:0:0:
256,64,75501,1,8,0:0:0:0:
256,64,75784,1,0,0:0:0:0:
256,64,76067,1,8,0:0:0:0:
256,64,76350,1,0,0:0:0:0:
256,64,76491,1,8,0:0:0:0:
256,64,76633,1,8,0:0:0:0:
256,64,76774,1,0,0:0:0:0:
256,64,76916,1,8,0:0:0:0:
256,64,77057,1,8,0:0:0:0:
256,64,77341,1,8,0:0:0:0:
256,64,77482,1,8,0:0:0:0:
256,64,77765,1,8,0:0:0:0:
256,64,78048,1,0,0:0:0:0:
256,64,78331,1,8,0:0:0:0:
256,64,78614,1,0,0:0:0:0:
256,64,78756,1,8,0:0:0:0:
256,64,78897,1,8,0:0:0:0:
256,64,79039,1,0,0:0:0:0:
256,64,79180,1,8,0:0:0:0:
256,64,79322,1,8,0:0:0:0:
256,64,79605,1,8,0:0:0:0:
256,64,79746,1,8,0:0:0:0:
256,64,80029,1,8,0:0:0:0:
256,64,80312,1,0,0:0:0:0:
256,64,80595,1,8,0:0:0:0:
256,64,80878,1,0,0:0:0:0:
256,64,81161,1,8,0:0:0:0:
256,64,81303,1,0,0:0:0:0:
256,64,81444,1,8,0:0:0:0:
256,64,81586,1,8,0:0:0:0:
256,64,81869,1,8,0:0:0:0:
256,64,82010,1,8,0:0:0:0:
256,64,82293,1,8,0:0:0:0:
256,192,82435,12,0,83425,0:0:0:0:
256,128,83567,5,4,0:0:0:0:
256,128,83708,1,4,0:0:0:0:
256,128,83850,1,8,0:0:0:0:
256,128,83991,1,8,0:0:0:0:
256,128,84062,1,8,0:0:0:0:
256,128,84133,1,8,0:0:0:0:
256,128,84204,1,8,0:0:0:0:
256,128,84274,1,8,0:0:0:0:
256,128,84416,1,0,0:0:0:0:
256,128,84699,5,4,0:0:0:0:
256,128,84840,1,4,0:0:0:0:
256,128,84982,1,8,0:0:0:0:
256,128,85123,1,8,0:0:0:0:
256,128,85194,1,8,0:0:0:0:
256,128,85265,1,8,0:0:0:0:
256,128,85336,1,8,0:0:0:0:
256,128,85406,1,8,0:0:0:0:
256,128,85548,1,0,0:0:0:0:
256,128,85831,5,4,0:0:0:0:
256,128,85972,1,4,0:0:0:0:
256,128,86114,1,8,0:0:0:0:
256,128,86255,1,8,0:0:0:0:
256,128,86326,1,8,0:0:0:0:
256,128,86397,1,8,0:0:0:0:
256,128,86468,1,8,0:0:0:0:
256,128,86538,1,8,0:0:0:0:
256,128,86680,1,0,0:0:0:0:
256,128,86963,5,4,0:0:0:0:
256,128,87104,1,4,0:0:0:0:
256,128,87246,1,8,0:0:0:0:
256,128,87387,1,8,0:0:0:0:
256,128,87458,1,8,0:0:0:0:
256,128,87529,1,0,0:0:0:0:
256,128,87671,1,0,0:0:0:0:
256,128,87812,1,8,0:0:0:0:
256,128,88095,1,4,0:0:0:0:
256,128,88237,1,4,0:0:0:0:
256,128,88378,1,8,0:0:0:0:
256,128,88520,1,8,0:0:0:0:
256,128,88661,1,4,0:0:0:0:
256,128,88803,1,4,0:0:0:0:
256,128,88944,1,8,0:0:0:0:
256,128,89015,1,8,0:0:0:0:
256,128,89086,1,8,0:0:0:0:
256,128,89227,1,4,0:0:0:0:
256,128,89369,1,4,0:0:0:0:
256,128,89510,1,8,0:0:0:0:
256,128,89652,1,8,0:0:0:0:
256,96,89793,1,4,0:0:0:0:
256,96,89935,1,4,0:0:0:0:
256,96,90076,1,8,0:0:0:0:
256,96,90147,1,8,0:0:0:0:
256,96,90218,1,8,0:0:0:0:
256,96,90359,1,0,0:0:0:0:
256,128,90642,1,8,0:0:0:0:
256,96,90784,1,0,0:0:0:0:
256,96,90925,1,0,0:0:0:0:
256,96,91208,1,8,0:0:0:0:
256,96,91350,1,0,0:0:0:0:
256,96,91491,1,12,0:0:0:0:
256,96,91633,1,12,0:0:0:0:
256,96,91916,1,12,0:0:0:0:
256,96,92199,1,12,0:0:0:0:
256,96,92482,1,12,0:0:0:0:
256,96,92624,1,12,0:0:0:0:
256,96,92765,1,12,0:0:0:0:
256,96,93048,1,12,0:0:0:0:
256,96,93331,1,12,0:0:0:0:
256,96,93614,1,12,0:0:0:0:
256,192,93756,12,0,95737,0:0:0:0:
256,96,96020,5,12,0:0:0:0:
256,96,96161,1,0,0:0:0:0:
256,96,96303,1,0,0:0:0:0:
256,96,96374,1,0,0:0:0:0:
256,96,96444,1,8,0:0:0:0:
256,96,96586,1,0,0:0:0:0:
256,96,96728,1,0,0:0:0:0:
256,96,96799,1,0,0:0:0:0:
256,96,96869,1,8,0:0:0:0:
256,96,97010,1,0,0:0:0:0:
256,96,97152,1,0,0:0:0:0:
256,96,97223,1,0,0:0:0:0:
256,96,97293,1,8,0:0:0:0:
256,96,97435,1,0,0:0:0:0:
256,96,97577,1,0,0:0:0:0:
256,96,97648,1,0,0:0:0:0:
256,96,97718,1,8,0:0:0:0:
256,96,97859,1,0,0:0:0:0:
256,96,98001,1,8,0:0:0:0:
256,96,98284,1,8,0:0:0:0:
256,96,98425,1,0,0:0:0:0:
256,96,98567,1,0,0:0:0:0:
256,96,98638,1,0,0:0:0:0:
256,96,98708,1,8,0:0:0:0:
256,96,98850,1,0,0:0:0:0:
256,96,98992,1,0,0:0:0:0:
256,96,99063,1,0,0:0:0:0:
256,96,99133,1,8,0:0:0:0:
256,96,99274,1,0,0:0:0:0:
256,96,99416,1,0,0:0:0:0:
256,96,99487,1,0,0:0:0:0:
256,96,99557,1,8,0:0:0:0:
256,96,99699,1,0,0:0:0:0:
256,96,99841,1,0,0:0:0:0:
256,96,99912,1,0,0:0:0:0:
256,96,99982,1,8,0:0:0:0:
256,96,100124,1,0,0:0:0:0:
256,96,100265,1,8,0:0:0:0:
256,96,100548,1,8,0:0:0:0:
256,96,100690,1,0,0:0:0:0:
256,96,100831,1,8,0:0:0:0:
256,96,100902,1,8,0:0:0:0:
256,96,100973,1,0,0:0:0:0:
256,96,101114,1,8,0:0:0:0:
256,96,101256,1,0,0:0:0:0:
256,96,101326,1,8,0:0:0:0:
256,96,101468,1,8,0:0:0:0:
256,96,101539,1,0,0:0:0:0:
256,96,101609,1,0,0:0:0:0:
256,96,101680,1,8,0:0:0:0:
256,96,101822,1,0,0:0:0:0:
256,96,101963,1,8,0:0:0:0:
256,96,102105,1,0,0:0:0:0:
256,96,102175,1,0,0:0:0:0:
256,96,102246,1,8,0:0:0:0:
256,96,102317,1,8,0:0:0:0:
256,96,102388,1,0,0:0:0:0:
256,96,102529,1,8,0:0:0:0:
256,96,102600,1,0,0:0:0:0:
256,96,102671,1,8,0:0:0:0:
256,96,102812,1,8,0:0:0:0:
256,96,102954,1,0,0:0:0:0:
256,96,103024,1,0,0:0:0:0:
256,96,103095,1,8,0:0:0:0:
256,96,103237,1,0,0:0:0:0:
256,96,103378,1,8,0:0:0:0:
256,96,103449,1,8,0:0:0:0:
256,96,103520,1,0,0:0:0:0:
256,96,103661,1,8,0:0:0:0:
256,96,103803,1,0,0:0:0:0:
256,96,103874,1,0,0:0:0:0:
256,96,103944,1,12,0:0:0:0:
256,96,104086,1,12,0:0:0:0:
256,96,104369,1,12,0:0:0:0:
256,96,104652,1,12,0:0:0:0:
256,96,104793,1,12,0:0:0:0:
256,96,105076,1,12,0:0:0:0:
256,96,105218,1,0,0:0:0:0:
256,96,105360,1,0,0:0:0:0:
256,96,105431,1,0,0:0:0:0:
256,96,105501,1,8,0:0:0:0:
256,96,105643,1,0,0:0:0:0:
256,96,105785,1,0,0:0:0:0:
256,96,105856,1,0,0:0:0:0:
256,96,105926,1,8,0:0:0:0:
256,96,106067,1,0,0:0:0:0:
256,96,106209,1,0,0:0:0:0:
256,96,106280,1,0,0:0:0:0:
256,96,106350,1,8,0:0:0:0:
256,96,106492,1,0,0:0:0:0:
256,96,106634,1,0,0:0:0:0:
256,96,106705,1,0,0:0:0:0:
256,96,106775,1,8,0:0:0:0:
256,96,106916,1,0,0:0:0:0:
256,96,107058,1,8,0:0:0:0:
256,96,107341,1,8,0:0:0:0:
256,96,107482,1,0,0:0:0:0:
256,96,107624,1,0,0:0:0:0:
256,96,107695,1,0,0:0:0:0:
256,96,107765,1,8,0:0:0:0:
256,96,107907,1,0,0:0:0:0:
256,96,108049,1,0,0:0:0:0:
256,96,108120,1,0,0:0:0:0:
256,96,108190,1,8,0:0:0:0:
256,96,108331,1,0,0:0:0:0:
256,96,108473,1,0,0:0:0:0:
256,96,108544,1,0,0:0:0:0:
256,96,108614,1,8,0:0:0:0:
256,96,108756,1,0,0:0:0:0:
256,96,108898,1,0,0:0:0:0:
256,96,108969,1,0,0:0:0:0:
256,96,109039,1,8,0:0:0:0:
256,96,109181,1,0,0:0:0:0:
256,96,109322,1,8,0:0:0:0:
256,96,109605,1,8,0:0:0:0:
256,96,109747,1,0,0:0:0:0:
256,96,109888,1,8,0:0:0:0:
256,96,109959,1,8,0:0:0:0:
256,96,110030,1,0,0:0:0:0:
256,96,110171,1,8,0:0:0:0:
256,96,110313,1,0,0:0:0:0:
256,96,110383,1,8,0:0:0:0:
256,96,110525,1,8,0:0:0:0:
256,96,110596,1,0,0:0:0:0:
256,96,110666,1,0,0:0:0:0:
256,96,110737,1,8,0:0:0:0:
256,96,110879,1,0,0:0:0:0:
256,96,111020,1,8,0:0:0:0:
256,96,111162,1,0,0:0:0:0:
256,96,111232,1,0,0:0:0:0:
256,96,111303,1,8,0:0:0:0:
256,96,111374,1,8,0:0:0:0:
256,96,111445,1,0,0:0:0:0:
256,96,111586,1,8,0:0:0:0:
256,96,111657,1,0,0:0:0:0:
256,96,111728,1,8,0:0:0:0:
256,96,111869,1,8,0:0:0:0:
256,96,112011,1,0,0:0:0:0:
256,96,112081,1,0,0:0:0:0:
256,96,112152,1,8,0:0:0:0:
256,96,112294,1,0,0:0:0:0:
256,96,112435,1,8,0:0:0:0:
256,96,112506,1,8,0:0:0:0:
256,96,112577,1,0,0:0:0:0:
256,96,112718,1,8,0:0:0:0:
256,96,112860,1,0,0:0:0:0:
256,96,112931,1,0,0:0:0:0:
256,96,113001,1,0,0:0:0:0:
256,96,113142,1,0,0:0:0:0:
256,96,113284,1,8,0:0:0:0:
256,96,113425,1,0,0:0:0:0:
256,96,113567,1,8,0:0:0:0:
256,96,113638,1,8,0:0:0:0:
256,96,113708,1,0,0:0:0:0:
256,96,113779,1,0,0:0:0:0:
256,96,113850,1,8,0:0:0:0:
256,96,113921,1,0,0:0:0:0:
256,96,113991,1,8,0:0:0:0:
256,96,114133,1,12,0:0:0:0:
256,128,114416,1,8,0:0:0:0:
256,128,114558,1,0,0:0:0:0:
256,128,114699,1,0,0:0:0:0:
256,128,114841,1,8,0:0:0:0:
256,128,114982,1,8,0:0:0:0:
256,128,115124,1,0,0:0:0:0:
256,128,115265,1,8,0:0:0:0:
256,128,115407,1,0,0:0:0:0:
256,128,115478,1,0,0:0:0:0:
256,128,115548,1,8,0:0:0:0:
256,128,115690,1,0,0:0:0:0:
256,128,115831,1,8,0:0:0:0:
256,128,115973,1,0,0:0:0:0:
256,128,116044,1,0,0:0:0:0:
256,128,116114,1,8,0:0:0:0:
256,128,116256,1,0,0:0:0:0:
256,128,116397,1,8,0:0:0:0:
256,128,116680,1,8,0:0:0:0:
256,128,116822,1,0,0:0:0:0:
256,128,116963,1,8,0:0:0:0:
256,128,117247,1,8,0:0:0:0:
256,128,117530,1,0,0:0:0:0:
256,128,117600,1,0,0:0:0:0:
256,128,117671,1,8,0:0:0:0:
256,128,117813,1,8,0:0:0:0:
256,128,117954,1,0,0:0:0:0:
256,128,118096,1,8,0:0:0:0:
256,128,118166,1,8,0:0:0:0:
256,128,118237,1,0,0:0:0:0:
256,128,118308,1,0,0:0:0:0:
256,128,118379,1,8,0:0:0:0:
256,128,118520,1,0,0:0:0:0:
256,128,118662,1,12,0:0:0:0:
256,96,118945,1,8,0:0:0:0:
256,128,119086,1,0,0:0:0:0:
256,128,119228,1,0,0:0:0:0:
256,128,119369,1,8,0:0:0:0:
256,128,119511,1,8,0:0:0:0:
256,128,119652,1,0,0:0:0:0:
256,128,119794,1,12,0:0:0:0:
256,128,119935,1,0,0:0:0:0:
256,128,120006,1,0,0:0:0:0:
256,128,120077,1,8,0:0:0:0:
256,128,120218,1,0,0:0:0:0:
256,128,120360,1,8,0:0:0:0:
256,128,120501,1,0,0:0:0:0:
256,128,120572,1,0,0:0:0:0:
256,128,120643,1,8,0:0:0:0:
256,128,120784,1,0,0:0:0:0:
256,128,120926,1,12,0:0:0:0:
256,128,121209,1,8,0:0:0:0:
256,128,121350,1,0,0:0:0:0:
256,128,121492,1,12,0:0:0:0:
256,128,121633,1,0,0:0:0:0:
256,128,121775,1,0,0:0:0:0:
256,128,121916,1,0,0:0:0:0:
256,128,122058,1,12,0:0:0:0:
256,128,122199,1,12,0:0:0:0:
256,128,122482,1,4,0:0:0:0:
256,128,122765,1,4,0:0:0:0:
256,128,122907,1,4,0:0:0:0:
256,128,123190,1,12,0:0:0:0:
256,128,123331,1,12,0:0:0:0:
256,128,123614,1,4,0:0:0:0:
256,128,123897,1,4,0:0:0:0:
256,128,124039,1,4,0:0:0:0:
256,128,124322,1,12,0:0:0:0:
