osu file format v14

[General]
AudioFilename: audio.mp3
AudioLeadIn: 0
PreviewTime: 93756
Countdown: 0
SampleSet: Normal
StackLeniency: 0.7
Mode: 1
LetterboxInBreaks: 0
WidescreenStoryboard: 0

[Editor]
Bookmarks: 10152,28265,55435,84020,95058
DistanceSpacing: 0.9
BeatDivisor: 5
GridSize: 32
TimelineZoom: 1.4

[Metadata]
Title:Elemental Creation
TitleUnicode:Elemental Creation
Artist:dj TAKA meets DJ YOSHITAKA
ArtistUnicode:dj TAKA meets DJ YOSHITAKA
Creator:Nifty
Version:Futsuu
Source:pop'n music Sunny Park
Tags:HARD RENAISSANCE electronic instrumental beatmania iidx 20 tricoro ddr dance dance revolution rhythm game video jubeat saucer plus konami sdvx sound voltex IV 4 heavenly haven futuretomtom future tom tom reflect beat colette -spring-
BeatmapID:1658841
BeatmapSetID:790594

[Difficulty]
HPDrainRate:7
CircleSize:2
OverallDifficulty:3
ApproachRate:10
SliderMultiplier:1.4
SliderTickRate:1

[Events]
//Background and Video events
0,0,"d59a7e5c-ae8f-4163-bc08-d5a5ddd9fb21.png",0,0
//Break Periods
2,65654,74060
//Storyboard Layer 0 (Background)
//Storyboard Layer 1 (Fail)
//Storyboard Layer 2 (Pass)
//Storyboard Layer 3 (Foreground)
//Storyboard Layer 4 (Overlay)
//Storyboard Sound Samples

[TimingPoints]
2058,283.018867924528,4,1,0,80,1,0
11114,-100,4,1,0,80,0,1
29227,-100,4,1,0,80,0,0
38284,-100,4,1,0,80,0,1
56397,-100,4,1,0,80,0,0
59791,-100,4,1,0,60,0,0
62055,-100,4,1,0,55,0,0
63117,-100,4,1,0,50,0,0
64037,-100,4,1,0,45,0,0
64320,-100,4,1,0,40,0,0
65310,-100,4,1,0,80,0,0
65593,-100,4,1,0,5,0,0
74225,-100,4,1,0,60,0,0
83494,-100,4,1,0,80,0,0
96020,-100,4,1,0,80,0,1
114133,-100,4,1,0,80,0,0

[HitObjects]
288,128,2058,5,12,0:0:0:0:
288,128,2482,1,12,0:0:0:0:
288,128,2765,1,12,0:0:0:0:
288,128,3190,1,12,0:0:0:0:
288,128,3473,1,8,0:0:0:0:
288,128,3756,1,0,0:0:0:0:
288,128,4039,1,8,0:0:0:0:
288,96,4180,1,0,0:0:0:0:
288,128,4605,1,12,0:0:0:0:
288,128,5029,1,12,0:0:0:0:
288,128,5454,1,12,0:0:0:0:
288,128,5737,1,8,0:0:0:0:
288,128,6020,1,0,0:0:0:0:
288,128,6161,1,8,0:0:0:0:
320,128,6303,1,0,0:0:0:0:
288,128,6586,1,12,0:0:0:0:
288,128,6869,1,8,0:0:0:0:
288,128,7010,1,0,0:0:0:0:
320,128,7435,1,8,0:0:0:0:
320,128,7718,1,12,0:0:0:0:
320,128,8001,1,8,0:0:0:0:
320,128,8142,1,0,0:0:0:0:
320,96,8567,1,8,0:0:0:0:
256,192,8850,12,0,10548,0:0:0:0:
288,128,11114,5,12,0:0:0:0:
288,128,11397,1,0,0:0:0:0:
288,128,11539,1,8,0:0:0:0:
288,128,11822,1,0,0:0:0:0:
288,128,11963,1,8,0:0:0:0:
288,128,12246,1,0,0:0:0:0:
288,128,12388,1,8,0:0:0:0:
288,128,12671,1,0,0:0:0:0:
288,128,12812,1,8,0:0:0:0:
288,128,13095,1,8,0:0:0:0:
288,128,13378,1,8,0:0:0:0:
288,128,13661,1,0,0:0:0:0:
288,128,13803,1,8,0:0:0:0:
288,128,14086,1,0,0:0:0:0:
288,128,14227,1,8,0:0:0:0:
288,128,14510,1,0,0:0:0:0:
288,128,14652,1,8,0:0:0:0:
288,128,15076,1,8,0:0:0:0:
288,128,15642,1,0,0:0:0:0:
288,128,15925,1,8,0:0:0:0:
288,128,16067,1,0,0:0:0:0:
288,128,16350,1,0,0:0:0:0:
288,128,16491,1,8,0:0:0:0:
288,128,16774,1,0,0:0:0:0:
288,128,17057,1,8,0:0:0:0:
288,128,17199,1,8,0:0:0:0:
288,128,17341,1,0,0:0:0:0:
288,128,17624,1,8,0:0:0:0:
288,128,17907,1,8,0:0:0:0:
288,128,18048,1,0,0:0:0:0:
288,128,18190,1,8,0:0:0:0:
288,128,18473,1,0,0:0:0:0:
288,128,18756,1,0,0:0:0:0:
288,128,19039,1,12,0:0:0:0:
288,128,19463,1,12,0:0:0:0:
288,128,19888,1,12,0:0:0:0:
288,128,20171,1,12,0:0:0:0:
288,128,20454,1,0,0:0:0:0:
288,128,20595,1,8,0:0:0:0:
288,128,20878,1,0,0:0:0:0:
288,128,21020,1,8,0:0:0:0:
288,128,21303,1,0,0:0:0:0:
288,128,21444,1,8,0:0:0:0:
288,128,21727,1,0,0:0:0:0:
288,128,21869,1,8,0:0:0:0:
288,128,22152,1,8,0:0:0:0:
288,128,22435,1,8,0:0:0:0:
288,128,22718,1,0,0:0:0:0:
288,128,22859,1,8,0:0:0:0:
288,128,23142,1,0,0:0:0:0:
288,128,23284,1,8,0:0:0:0:
288,128,23567,1,0,0:0:0:0:
288,128,23708,1,8,0:0:0:0:
288,128,24133,1,8,0:0:0:0:
288,128,24699,1,0,0:0:0:0:
288,128,24982,1,8,0:0:0:0:
288,128,25124,1,0,0:0:0:0:
288,128,25407,1,0,0:0:0:0:
288,128,25548,1,8,0:0:0:0:
288,128,25831,1,0,0:0:0:0:
288,128,26114,1,8,0:0:0:0:
288,128,26256,1,8,0:0:0:0:
288,128,26397,1,0,0:0:0:0:
288,128,26680,1,8,0:0:0:0:
288,128,26963,1,8,0:0:0:0:
288,128,27105,1,0,0:0:0:0:
288,128,27246,1,8,0:0:0:0:
288,128,27529,1,0,0:0:0:0:
288,128,27812,1,0,0:0:0:0:
288,128,28095,1,8,0:0:0:0:
288,128,28661,1,0,0:0:0:0:
288,128,28803,1,8,0:0:0:0:
288,128,28944,1,0,0:0:0:0:
288,128,29227,1,12,0:0:0:0:
288,128,29793,1,0,0:0:0:0:
288,128,30076,1,0,0:0:0:0:
288,128,30359,1,8,0:0:0:0:
288,128,30501,1,0,0:0:0:0:
288,128,30642,1,8,0:0:0:0:
288,128,30925,1,0,0:0:0:0:
288,128,31067,1,8,0:0:0:0:
288,128,31208,1,0,0:0:0:0:
288,128,31491,1,8,0:0:0:0:
320,160,32057,1,8,0:0:0:0:
288,128,32624,1,0,0:0:0:0:
288,128,32907,1,8,0:0:0:0:
288,128,33190,1,0,0:0:0:0:
288,128,33331,1,0,0:0:0:0:
288,128,33473,1,8,0:0:0:0:
288,128,33756,1,8,0:0:0:0:
288,128,34322,1,0,0:0:0:0:
288,128,34605,1,0,0:0:0:0:
288,128,34888,1,8,0:0:0:0:
288,128,35029,1,0,0:0:0:0:
288,128,35171,1,8,0:0:0:0:
288,128,35454,1,0,0:0:0:0:
288,128,35595,1,8,0:0:0:0:
288,128,35737,1,8,0:0:0:0:
288,128,36020,1,0,0:0:0:0:
288,128,36586,1,8,0:0:0:0:
288,128,37152,1,12,0:0:0:0:
256,128,37576,1,4,0:0:0:0:
256,128,38001,1,4,0:0:0:0:
256,128,38284,1,12,0:0:0:0:
288,128,38567,1,0,0:0:0:0:
288,128,38709,1,8,0:0:0:0:
288,128,38992,1,0,0:0:0:0:
288,128,39133,1,8,0:0:0:0:
288,128,39416,1,0,0:0:0:0:
288,128,39558,1,8,0:0:0:0:
288,128,39841,1,0,0:0:0:0:
288,128,39982,1,8,0:0:0:0:
288,128,40265,1,8,0:0:0:0:
288,128,40548,1,8,0:0:0:0:
288,128,40831,1,0,0:0:0:0:
288,128,40973,1,8,0:0:0:0:
288,128,41256,1,0,0:0:0:0:
288,128,41397,1,8,0:0:0:0:
288,128,41680,1,0,0:0:0:0:
288,128,41822,1,8,0:0:0:0:
288,128,42246,1,8,0:0:0:0:
288,128,42812,1,0,0:0:0:0:
288,128,43095,1,8,0:0:0:0:
288,128,43237,1,0,0:0:0:0:
288,128,43520,1,0,0:0:0:0:
288,128,43661,1,8,0:0:0:0:
288,128,43944,1,0,0:0:0:0:
288,128,44227,1,8,0:0:0:0:
288,128,44369,1,8,0:0:0:0:
288,128,44511,1,0,0:0:0:0:
288,128,44794,1,8,0:0:0:0:
288,128,45077,1,8,0:0:0:0:
288,128,45218,1,0,0:0:0:0:
288,128,45360,1,8,0:0:0:0:
288,128,45643,1,0,0:0:0:0:
288,128,45926,1,0,0:0:0:0:
288,128,46209,1,12,0:0:0:0:
288,128,46633,1,12,0:0:0:0:
288,128,47057,1,12,0:0:0:0:
288,128,47341,1,12,0:0:0:0:
288,128,47624,1,0,0:0:0:0:
288,128,47765,1,8,0:0:0:0:
288,128,48048,1,0,0:0:0:0:
288,128,48190,1,8,0:0:0:0:
288,128,48473,1,0,0:0:0:0:
288,128,48614,1,8,0:0:0:0:
288,128,48897,1,0,0:0:0:0:
288,128,49039,1,8,0:0:0:0:
288,128,49322,1,8,0:0:0:0:
288,128,49605,1,8,0:0:0:0:
288,128,49888,1,0,0:0:0:0:
288,128,50029,1,8,0:0:0:0:
288,128,50312,1,0,0:0:0:0:
288,128,50454,1,8,0:0:0:0:
288,128,50737,1,0,0:0:0:0:
288,128,50878,1,8,0:0:0:0:
288,128,51303,1,8,0:0:0:0:
288,128,51869,1,12,0:0:0:0:
288,128,52152,1,8,0:0:0:0:
288,128,52294,1,0,0:0:0:0:
288,128,52577,1,0,0:0:0:0:
288,128,52718,1,8,0:0:0:0:
288,128,53001,1,12,0:0:0:0:
288,128,53284,1,8,0:0:0:0:
288,128,53426,1,8,0:0:0:0:
288,128,53567,1,0,0:0:0:0:
288,128,53850,1,8,0:0:0:0:
288,128,54133,1,12,0:0:0:0:
288,128,54416,1,8,0:0:0:0:
288,128,54699,1,0,0:0:0:0:
288,128,54841,1,8,0:0:0:0:
288,128,54982,1,0,0:0:0:0:
288,128,55265,1,12,0:0:0:0:
288,128,55548,1,12,0:0:0:0:
288,128,55831,1,0,0:0:0:0:
288,128,55973,1,0,0:0:0:0:
288,128,56114,1,0,0:0:0:0:
288,128,56397,1,12,0:0:0:0:
288,128,56963,1,0,0:0:0:0:
288,128,57388,1,8,0:0:0:0:
288,128,57812,1,8,0:0:0:0:
288,128,58378,1,8,0:0:0:0:
288,128,58661,1,0,0:0:0:0:
288,128,59227,1,8,0:0:0:0:
288,128,59652,1,0,0:0:0:0:
288,128,60076,1,0,0:0:0:0:
288,128,60642,1,0,0:0:0:0:
288,128,60925,1,8,0:0:0:0:
288,128,61491,1,0,0:0:0:0:
288,128,61916,1,8,0:0:0:0:
288,128,62341,1,8,0:0:0:0:
288,128,62907,1,8,0:0:0:0:
288,128,63190,1,0,0:0:0:0:
288,128,63756,1,8,0:0:0:0:
288,128,64180,1,0,0:0:0:0:
288,128,64605,1,0,0:0:0:0:
288,128,65171,1,0,0:0:0:0:
288,128,65454,1,12,0:0:0:0:
288,128,74510,5,0,0:0:0:0:
288,128,74793,1,8,0:0:0:0:
288,128,75076,1,8,0:0:0:0:
288,128,75501,1,8,0:0:0:0:
288,128,75784,1,0,0:0:0:0:
288,128,76067,1,8,0:0:0:0:
288,128,76491,1,8,0:0:0:0:
288,128,76774,1,0,0:0:0:0:
288,128,77057,1,8,0:0:0:0:
288,128,77341,1,8,0:0:0:0:
288,128,77765,1,8,0:0:0:0:
288,128,78048,1,0,0:0:0:0:
288,128,78331,1,8,0:0:0:0:
288,128,78756,1,8,0:0:0:0:
288,128,79039,1,0,0:0:0:0:
288,128,79322,1,8,0:0:0:0:
288,128,79605,1,8,0:0:0:0:
288,128,80029,1,8,0:0:0:0:
288,128,80312,1,0,0:0:0:0:
288,128,80595,1,8,0:0:0:0:
288,128,80878,1,0,0:0:0:0:
256,128,81161,1,8,0:0:0:0:
288,128,81586,1,8,0:0:0:0:
288,128,81869,1,8,0:0:0:0:
256,192,82435,12,0,83142,0:0:0:0:
256,160,83567,5,4,0:0:0:0:
256,160,83850,1,8,0:0:0:0:
256,160,83991,1,8,0:0:0:0:
256,160,84133,1,8,0:0:0:0:
256,128,84416,1,0,0:0:0:0:
288,160,84699,1,4,0:0:0:0:
256,160,84982,1,8,0:0:0:0:
256,160,85123,1,8,0:0:0:0:
256,160,85265,1,8,0:0:0:0:
256,128,85548,1,0,0:0:0:0:
288,160,85831,1,4,0:0:0:0:
256,160,86114,1,8,0:0:0:0:
256,160,86255,1,8,0:0:0:0:
256,160,86397,1,8,0:0:0:0:
256,128,86680,1,0,0:0:0:0:
256,128,86963,1,4,0:0:0:0:
256,160,87246,1,8,0:0:0:0:
256,160,87387,1,8,0:0:0:0:
256,160,87529,1,0,0:0:0:0:
288,128,87671,1,0,0:0:0:0:
256,128,87812,1,8,0:0:0:0:
288,128,88095,1,4,0:0:0:0:
288,128,88378,1,12,0:0:0:0:
288,128,88661,1,4,0:0:0:0:
288,128,88944,1,12,0:0:0:0:
288,128,89227,1,4,0:0:0:0:
288,128,89510,1,12,0:0:0:0:
288,128,89793,1,4,0:0:0:0:
288,128,90076,1,8,0:0:0:0:
288,128,90359,1,0,0:0:0:0:
288,128,90925,1,8,0:0:0:0:
288,128,91208,1,0,0:0:0:0:
288,128,91491,1,12,0:0:0:0:
288,128,91916,1,12,0:0:0:0:
288,128,92199,1,12,0:0:0:0:
288,128,92624,1,12,0:0:0:0:
288,128,93048,1,12,0:0:0:0:
288,128,93331,1,12,0:0:0:0:
256,192,93756,12,0,95454,0:0:0:0:
288,128,96020,5,12,0:0:0:0:
288,128,96303,5,0,0:0:0:0:
288,128,96445,1,8,0:0:0:0:
288,128,96728,1,0,0:0:0:0:
288,128,96869,1,8,0:0:0:0:
288,128,97152,1,0,0:0:0:0:
288,128,97294,1,8,0:0:0:0:
288,128,97577,1,0,0:0:0:0:
288,128,97718,1,8,0:0:0:0:
288,128,98001,1,8,0:0:0:0:
288,128,98284,1,8,0:0:0:0:
288,128,98567,1,0,0:0:0:0:
288,128,98709,1,8,0:0:0:0:
288,128,98992,1,0,0:0:0:0:
288,128,99133,1,8,0:0:0:0:
288,128,99416,1,0,0:0:0:0:
288,128,99558,1,8,0:0:0:0:
288,128,99982,1,8,0:0:0:0:
288,128,100548,1,0,0:0:0:0:
288,128,100831,1,8,0:0:0:0:
288,128,101114,1,0,0:0:0:0:
288,128,101256,1,0,0:0:0:0:
288,128,101397,1,8,0:0:0:0:
288,128,101680,1,0,0:0:0:0:
288,128,101963,1,8,0:0:0:0:
288,128,102247,1,0,0:0:0:0:
288,128,102388,1,8,0:0:0:0:
288,128,102530,1,8,0:0:0:0:
288,128,102813,1,8,0:0:0:0:
288,128,102954,1,0,0:0:0:0:
288,128,103096,1,8,0:0:0:0:
288,128,103379,1,0,0:0:0:0:
288,128,103662,1,0,0:0:0:0:
288,128,103945,1,12,0:0:0:0:
288,128,104369,1,12,0:0:0:0:
288,128,104793,1,12,0:0:0:0:
288,128,105077,1,12,0:0:0:0:
288,128,105360,1,0,0:0:0:0:
288,128,105501,1,8,0:0:0:0:
288,128,105784,1,0,0:0:0:0:
288,128,105926,1,8,0:0:0:0:
288,128,106209,1,0,0:0:0:0:
288,128,106350,1,8,0:0:0:0:
288,128,106633,1,0,0:0:0:0:
288,128,106775,1,8,0:0:0:0:
288,128,107058,1,8,0:0:0:0:
288,128,107341,1,8,0:0:0:0:
320,128,107624,1,0,0:0:0:0:
288,128,107765,1,8,0:0:0:0:
288,128,108048,1,0,0:0:0:0:
288,128,108190,1,8,0:0:0:0:
288,128,108473,1,0,0:0:0:0:
288,128,108614,1,8,0:0:0:0:
288,128,109039,1,8,0:0:0:0:
288,128,109605,1,0,0:0:0:0:
288,128,109888,1,8,0:0:0:0:
288,128,110171,1,0,0:0:0:0:
288,128,110313,1,0,0:0:0:0:
288,128,110454,1,8,0:0:0:0:
288,128,110737,1,0,0:0:0:0:
288,128,111020,1,8,0:0:0:0:
288,128,111303,1,0,0:0:0:0:
288,128,111444,1,8,0:0:0:0:
288,128,111586,1,8,0:0:0:0:
288,128,111869,1,8,0:0:0:0:
288,128,112011,1,0,0:0:0:0:
288,128,112152,1,8,0:0:0:0:
288,128,112435,1,0,0:0:0:0:
288,128,112718,1,0,0:0:0:0:
288,128,113001,1,8,0:0:0:0:
288,128,113567,1,0,0:0:0:0:
288,128,113709,1,8,0:0:0:0:
288,128,113850,1,0,0:0:0:0:
288,128,114133,1,12,0:0:0:0:
288,128,114699,1,0,0:0:0:0:
288,128,114982,1,0,0:0:0:0:
288,128,115265,1,8,0:0:0:0:
288,128,115407,1,0,0:0:0:0:
288,128,115548,1,8,0:0:0:0:
288,128,115831,1,8,0:0:0:0:
288,128,115973,1,8,0:0:0:0:
288,128,116114,1,0,0:0:0:0:
288,128,116397,1,8,0:0:0:0:
288,128,116963,1,8,0:0:0:0:
288,128,117530,1,0,0:0:0:0:
288,128,117813,1,8,0:0:0:0:
288,128,118096,1,0,0:0:0:0:
288,128,118237,1,0,0:0:0:0:
288,128,118379,1,8,0:0:0:0:
288,128,118662,1,12,0:0:0:0:
288,128,119227,1,0,0:0:0:0:
288,128,119510,1,0,0:0:0:0:
288,128,119794,1,12,0:0:0:0:
256,128,120359,1,8,0:0:0:0:
288,128,120643,1,0,0:0:0:0:
288,128,120926,1,12,0:0:0:0:
288,128,121491,1,12,0:0:0:0:
288,128,122058,1,12,0:0:0:0:
256,128,122482,1,4,0:0:0:0:
256,128,122907,1,4,0:0:0:0:
256,128,123190,1,12,0:0:0:0:
256,96,123614,1,4,0:0:0:0:
256,96,124039,1,4,0:0:0:0:
256,96,124322,1,12,0:0:0:0:
