osu file format v14

[General]
AudioFilename: audio.mp3
AudioLeadIn: 0
PreviewTime: 95058
Countdown: 0
SampleSet: Soft
StackLeniency: 0.7
Mode: 1
LetterboxInBreaks: 0
WidescreenStoryboard: 0

[Editor]
DistanceSpacing: 1
BeatDivisor: 16
GridSize: 4
TimelineZoom: 1.9

[Metadata]
Title:Elemental Creation
TitleUnicode:Elemental Creation
Artist:dj TAKA meets DJ YOSHITAKA
ArtistUnicode:dj TAKA meets DJ YOSHITAKA
Creator:Consified
Version:Inner Oni
Source:私立BEMANI学園
Tags:KONAMI beatmania IIDX 20 tricoro DanceDanceRevolution jubeat saucer plus pop'n music Sunny Park REFLEC BEAT
BeatmapID:1589698
BeatmapSetID:755180

[Difficulty]
HPDrainRate:5
CircleSize:5
OverallDifficulty:6.5
ApproachRate:5
SliderMultiplier:1.4
SliderTickRate:1

[Events]
//Background and Video events
0,0,"BG.jpg",0,0
//Break Periods
//Storyboard Layer 0 (Background)
//Storyboard Layer 1 (Fail)
//Storyboard Layer 2 (Pass)
//Storyboard Layer 3 (Foreground)
//Storyboard Sound Samples

[TimingPoints]
1096,283.018867924528,4,2,1,100,1,0
10152,-100,4,2,1,100,0,1
28265,-100,4,2,1,100,0,0
37322,-100,4,2,1,100,0,1
55435,-100,4,2,1,100,0,0
95058,-100,4,2,1,100,0,1
123360,-100,4,2,1,100,0,0

[HitObjects]
256,188,1096,5,4,0:0:0:0:
256,188,1237,1,4,0:0:0:0:
256,188,1520,1,4,0:0:0:0:
256,188,1803,1,4,0:0:0:0:
256,188,2086,1,4,0:0:0:0:
256,188,2228,1,4,0:0:0:0:
288,200,2511,1,0,0:0:0:0:
288,200,2652,1,0,0:0:0:0:
288,200,2794,1,2,0:0:0:0:
288,200,2864,1,2,0:0:0:0:
288,200,2935,1,0,0:0:0:0:
288,200,3077,1,2,0:0:0:0:
288,200,3218,1,2,0:0:0:0:
288,200,3360,1,0,0:0:0:0:
292,208,3643,1,4,0:0:0:0:
296,208,3784,1,4,0:0:0:0:
296,208,4067,1,4,0:0:0:0:
296,208,4350,1,4,0:0:0:0:
296,208,4492,1,4,0:0:0:0:
296,208,4775,1,0,0:0:0:0:
296,208,4916,1,0,0:0:0:0:
304,200,5058,1,2,0:0:0:0:
304,200,5129,1,2,0:0:0:0:
304,200,5199,1,0,0:0:0:0:
300,208,5341,1,2,0:0:0:0:
300,208,5482,1,2,0:0:0:0:
300,208,5624,1,4,0:0:0:0:
400,204,5907,1,0,0:0:0:0:
400,204,6048,1,0,0:0:0:0:
300,192,6190,1,2,0:0:0:0:
300,192,6261,1,2,0:0:0:0:
296,192,6331,1,0,0:0:0:0:
296,192,6402,1,0,0:0:0:0:
296,192,6473,1,2,0:0:0:0:
296,200,6614,1,2,0:0:0:0:
296,200,6756,1,4,0:0:0:0:
372,184,7039,1,0,0:0:0:0:
372,184,7180,1,0,0:0:0:0:
304,168,7322,1,2,0:0:0:0:
304,168,7393,1,2,0:0:0:0:
304,168,7463,1,0,0:0:0:0:
304,168,7605,1,2,0:0:0:0:
300,172,7746,1,2,0:0:0:0:
300,172,7888,1,0,0:0:0:0:
272,212,8454,1,2,0:0:0:0:
272,212,8737,1,2,0:0:0:0:
344,164,9020,1,2,0:0:0:0:
344,208,9162,1,0,0:0:0:0:
344,208,9232,1,0,0:0:0:0:
344,208,9303,1,2,0:0:0:0:
344,216,9445,1,0,0:0:0:0:
344,216,9515,1,0,0:0:0:0:
344,216,9586,1,2,0:0:0:0:
344,216,9657,1,0,0:0:0:0:
344,216,9728,1,0,0:0:0:0:
352,220,9798,1,0,0:0:0:0:
352,220,9869,1,2,0:0:0:0:
352,232,9940,1,0,0:0:0:0:
344,236,10011,1,0,0:0:0:0:
344,236,10081,1,2,0:0:0:0:
344,236,10152,1,2,0:0:0:0:
344,168,10294,1,0,0:0:0:0:
344,168,10364,1,0,0:0:0:0:
344,168,10435,1,0,0:0:0:0:
352,172,10577,1,2,0:0:0:0:
360,180,10718,1,0,0:0:0:0:
360,180,10789,1,2,0:0:0:0:
360,180,10860,1,0,0:0:0:0:
352,172,11001,1,2,0:0:0:0:
360,180,11142,1,0,0:0:0:0:
360,180,11213,1,0,0:0:0:0:
360,180,11284,1,0,0:0:0:0:
352,172,11426,1,2,0:0:0:0:
360,180,11567,1,0,0:0:0:0:
360,180,11638,1,2,0:0:0:0:
360,180,11709,1,0,0:0:0:0:
352,172,11850,1,2,0:0:0:0:
360,180,11991,1,0,0:0:0:0:
360,180,12062,1,0,0:0:0:0:
360,180,12133,1,2,0:0:0:0:
356,220,12275,1,0,0:0:0:0:
368,224,12345,1,0,0:0:0:0:
352,172,12416,1,2,0:0:0:0:
360,180,12557,1,0,0:0:0:0:
360,180,12628,1,0,0:0:0:0:
360,180,12699,1,0,0:0:0:0:
352,172,12841,1,2,0:0:0:0:
360,180,12982,1,0,0:0:0:0:
360,180,13053,1,2,0:0:0:0:
360,180,13124,1,0,0:0:0:0:
352,172,13265,1,2,0:0:0:0:
360,180,13406,1,0,0:0:0:0:
360,180,13477,1,0,0:0:0:0:
360,180,13548,1,0,0:0:0:0:
352,172,13690,1,2,0:0:0:0:
360,180,13831,1,0,0:0:0:0:
360,180,13902,1,2,0:0:0:0:
360,180,13973,1,0,0:0:0:0:
272,180,14114,1,2,0:0:0:0:
312,192,14256,1,0,0:0:0:0:
312,192,14327,1,0,0:0:0:0:
308,200,14397,1,2,0:0:0:0:
304,188,14468,1,0,0:0:0:0:
304,188,14539,1,0,0:0:0:0:
304,188,14610,1,0,0:0:0:0:
304,188,14680,1,2,0:0:0:0:
252,196,14822,1,0,0:0:0:0:
252,196,14893,1,0,0:0:0:0:
252,196,14963,1,0,0:0:0:0:
280,176,15105,1,2,0:0:0:0:
280,176,15246,1,0,0:0:0:0:
280,176,15317,1,0,0:0:0:0:
280,176,15388,1,2,0:0:0:0:
280,176,15529,1,2,0:0:0:0:
280,176,15600,1,0,0:0:0:0:
280,176,15671,1,0,0:0:0:0:
280,176,15742,1,0,0:0:0:0:
280,176,15812,1,2,0:0:0:0:
272,200,15954,1,0,0:0:0:0:
272,200,16025,1,0,0:0:0:0:
272,200,16095,1,0,0:0:0:0:
272,200,16237,1,2,0:0:0:0:
272,200,16379,1,0,0:0:0:0:
272,200,16520,1,0,0:0:0:0:
272,200,16662,1,2,0:0:0:0:
272,200,16803,1,2,0:0:0:0:
256,192,16945,1,0,0:0:0:0:
216,200,17086,1,0,0:0:0:0:
216,200,17157,1,0,0:0:0:0:
216,200,17228,1,2,0:0:0:0:
336,192,17369,1,0,0:0:0:0:
336,192,17440,1,0,0:0:0:0:
336,192,17511,1,2,0:0:0:0:
336,192,17581,1,2,0:0:0:0:
336,192,17652,1,0,0:0:0:0:
336,192,17723,1,2,0:0:0:0:
336,192,17794,1,0,0:0:0:0:
336,192,17864,1,0,0:0:0:0:
336,192,17935,1,2,0:0:0:0:
336,192,18077,1,4,0:0:0:0:
376,204,18218,1,4,0:0:0:0:
376,204,18501,1,4,0:0:0:0:
376,204,18784,1,4,0:0:0:0:
376,204,18926,1,4,0:0:0:0:
292,192,19209,1,6,0:0:0:0:
424,200,19350,1,0,0:0:0:0:
424,200,19421,1,0,0:0:0:0:
424,200,19492,1,0,0:0:0:0:
304,184,19633,1,2,0:0:0:0:
304,188,19775,1,2,0:0:0:0:
304,188,19845,1,0,0:0:0:0:
304,188,19916,1,0,0:0:0:0:
292,192,20058,1,2,0:0:0:0:
424,200,20199,1,0,0:0:0:0:
424,200,20270,1,0,0:0:0:0:
424,200,20341,1,0,0:0:0:0:
304,184,20482,1,2,0:0:0:0:
304,188,20624,1,2,0:0:0:0:
304,188,20694,1,0,0:0:0:0:
304,188,20765,1,0,0:0:0:0:
424,176,20907,1,2,0:0:0:0:
328,144,21048,1,0,0:0:0:0:
328,144,21119,1,0,0:0:0:0:
328,144,21190,1,2,0:0:0:0:
336,164,21331,1,0,0:0:0:0:
336,164,21402,1,0,0:0:0:0:
336,164,21473,1,2,0:0:0:0:
424,200,21614,1,0,0:0:0:0:
424,200,21685,1,0,0:0:0:0:
424,200,21756,1,0,0:0:0:0:
304,184,21897,1,2,0:0:0:0:
304,188,22039,1,2,0:0:0:0:
304,188,22109,1,0,0:0:0:0:
304,188,22180,1,0,0:0:0:0:
336,164,22322,1,2,0:0:0:0:
424,200,22463,1,0,0:0:0:0:
424,200,22534,1,0,0:0:0:0:
424,200,22605,1,0,0:0:0:0:
304,184,22746,1,2,0:0:0:0:
304,188,22888,1,2,0:0:0:0:
304,188,22958,1,0,0:0:0:0:
304,188,23029,1,0,0:0:0:0:
360,188,23171,1,2,0:0:0:0:
360,188,23312,1,0,0:0:0:0:
360,188,23383,1,0,0:0:0:0:
360,188,23454,1,2,0:0:0:0:
360,188,23525,1,2,0:0:0:0:
360,188,23595,1,0,0:0:0:0:
360,188,23666,1,0,0:0:0:0:
360,188,23737,1,0,0:0:0:0:
248,192,23879,1,0,0:0:0:0:
248,192,24020,1,0,0:0:0:0:
248,192,24162,1,2,0:0:0:0:
260,172,24303,1,0,0:0:0:0:
256,172,24374,1,0,0:0:0:0:
256,172,24445,1,2,0:0:0:0:
264,180,24586,1,2,0:0:0:0:
264,180,24657,1,0,0:0:0:0:
264,180,24728,1,0,0:0:0:0:
264,180,24798,1,0,0:0:0:0:
268,180,24869,1,2,0:0:0:0:
280,192,25011,1,0,0:0:0:0:
280,192,25081,1,0,0:0:0:0:
280,192,25152,1,0,0:0:0:0:
280,192,25294,1,2,0:0:0:0:
280,192,25435,1,0,0:0:0:0:
316,196,25577,1,0,0:0:0:0:
316,196,25718,1,2,0:0:0:0:
320,196,25860,1,0,0:0:0:0:
272,144,26001,1,2,0:0:0:0:
252,188,26143,1,0,0:0:0:0:
252,188,26213,1,0,0:0:0:0:
252,188,26284,1,2,0:0:0:0:
296,200,26426,1,0,0:0:0:0:
296,200,26496,1,0,0:0:0:0:
296,200,26567,1,2,0:0:0:0:
296,200,26638,1,2,0:0:0:0:
300,200,26709,1,0,0:0:0:0:
300,212,26779,1,2,0:0:0:0:
300,212,26850,1,0,0:0:0:0:
300,212,26921,1,0,0:0:0:0:
300,212,26992,1,2,0:0:0:0:
300,212,27062,1,2,0:0:0:0:
300,212,27133,1,0,0:0:0:0:
200,184,27275,1,0,0:0:0:0:
200,184,27345,1,0,0:0:0:0:
200,184,27416,1,2,0:0:0:0:
308,184,27558,1,0,0:0:0:0:
308,184,27629,1,0,0:0:0:0:
308,184,27699,1,2,0:0:0:0:
268,152,27841,1,0,0:0:0:0:
268,152,27888,1,0,0:0:0:0:
268,152,27935,1,0,0:0:0:0:
276,136,27982,1,0,0:0:0:0:
396,156,28124,1,0,0:0:0:0:
396,156,28265,1,6,0:0:0:0:
320,160,28407,1,0,0:0:0:0:
320,160,28548,1,0,0:0:0:0:
320,160,28690,1,0,0:0:0:0:
368,256,28973,1,0,0:0:0:0:
380,260,29114,1,0,0:0:0:0:
376,276,29256,1,2,0:0:0:0:
376,276,29397,1,2,0:0:0:0:
252,152,29539,1,0,0:0:0:0:
252,152,29610,1,0,0:0:0:0:
252,152,29680,1,2,0:0:0:0:
280,168,29822,1,0,0:0:0:0:
280,168,29893,1,2,0:0:0:0:
280,168,29963,1,2,0:0:0:0:
280,176,30105,1,0,0:0:0:0:
284,188,30176,1,2,0:0:0:0:
280,188,30246,1,0,0:0:0:0:
396,204,30388,1,0,0:0:0:0:
396,204,30459,1,0,0:0:0:0:
396,204,30529,1,0,0:0:0:0:
288,204,30954,1,2,0:0:0:0:
288,204,31095,1,2,0:0:0:0:
292,216,31662,1,0,0:0:0:0:
308,212,31732,1,0,0:0:0:0:
312,212,31803,1,2,0:0:0:0:
312,212,31874,1,2,0:0:0:0:
312,212,31945,1,0,0:0:0:0:
312,200,32015,1,2,0:0:0:0:
328,184,32086,1,0,0:0:0:0:
328,184,32157,1,0,0:0:0:0:
328,188,32228,1,2,0:0:0:0:
328,188,32298,1,0,0:0:0:0:
328,188,32369,1,0,0:0:0:0:
328,188,32440,1,0,0:0:0:0:
328,188,32511,1,2,0:0:0:0:
328,192,32581,1,0,0:0:0:0:
328,200,32652,1,0,0:0:0:0:
324,200,32794,1,6,0:0:0:0:
288,160,32935,1,2,0:0:0:0:
288,160,33077,1,0,0:0:0:0:
288,160,33218,1,0,0:0:0:0:
324,228,33501,1,0,0:0:0:0:
324,228,33642,1,0,0:0:0:0:
324,228,33784,1,2,0:0:0:0:
324,240,33925,1,2,0:0:0:0:
332,176,34067,1,0,0:0:0:0:
332,176,34137,1,0,0:0:0:0:
332,176,34208,1,2,0:0:0:0:
332,188,34350,1,0,0:0:0:0:
332,188,34420,1,0,0:0:0:0:
332,188,34491,1,2,0:0:0:0:
328,192,34633,1,0,0:0:0:0:
328,192,34703,1,2,0:0:0:0:
328,192,34774,1,0,0:0:0:0:
328,192,34916,1,2,0:0:0:0:
328,192,34987,1,0,0:0:0:0:
328,192,35057,1,2,0:0:0:0:
420,208,35482,1,2,0:0:0:0:
420,208,35624,1,2,0:0:0:0:
276,160,36190,1,6,0:0:0:0:
276,160,36331,1,6,0:0:0:0:
276,160,36614,1,6,0:0:0:0:
276,160,36897,1,6,0:0:0:0:
276,160,37039,1,4,0:0:0:0:
308,172,37322,1,6,0:0:0:0:
344,168,37463,1,0,0:0:0:0:
344,168,37533,1,0,0:0:0:0:
344,168,37604,1,0,0:0:0:0:
352,172,37746,1,2,0:0:0:0:
360,180,37887,1,0,0:0:0:0:
360,180,37958,1,2,0:0:0:0:
360,180,38029,1,0,0:0:0:0:
352,172,38170,1,2,0:0:0:0:
360,180,38311,1,0,0:0:0:0:
360,180,38382,1,0,0:0:0:0:
360,180,38453,1,0,0:0:0:0:
352,172,38595,1,2,0:0:0:0:
360,180,38736,1,0,0:0:0:0:
360,180,38807,1,2,0:0:0:0:
360,180,38878,1,0,0:0:0:0:
352,172,39019,1,2,0:0:0:0:
360,180,39160,1,0,0:0:0:0:
360,180,39231,1,0,0:0:0:0:
360,180,39302,1,2,0:0:0:0:
356,220,39444,1,0,0:0:0:0:
368,224,39514,1,0,0:0:0:0:
352,172,39585,1,2,0:0:0:0:
360,180,39726,1,0,0:0:0:0:
360,180,39797,1,0,0:0:0:0:
360,180,39868,1,0,0:0:0:0:
352,172,40010,1,2,0:0:0:0:
360,180,40151,1,0,0:0:0:0:
360,180,40222,1,2,0:0:0:0:
360,180,40293,1,0,0:0:0:0:
352,172,40434,1,2,0:0:0:0:
360,180,40575,1,0,0:0:0:0:
360,180,40646,1,0,0:0:0:0:
360,180,40717,1,0,0:0:0:0:
352,172,40859,1,2,0:0:0:0:
360,180,41000,1,0,0:0:0:0:
360,180,41071,1,2,0:0:0:0:
360,180,41142,1,0,0:0:0:0:
272,180,41283,1,2,0:0:0:0:
312,192,41425,1,0,0:0:0:0:
312,192,41496,1,0,0:0:0:0:
308,200,41566,1,2,0:0:0:0:
304,188,41637,1,0,0:0:0:0:
304,188,41708,1,0,0:0:0:0:
304,188,41779,1,0,0:0:0:0:
304,188,41849,1,2,0:0:0:0:
252,196,41991,1,0,0:0:0:0:
252,196,42062,1,0,0:0:0:0:
252,196,42132,1,0,0:0:0:0:
280,176,42274,1,2,0:0:0:0:
280,176,42415,1,0,0:0:0:0:
280,176,42486,1,0,0:0:0:0:
280,176,42557,1,2,0:0:0:0:
280,176,42698,1,2,0:0:0:0:
280,176,42769,1,0,0:0:0:0:
280,176,42840,1,0,0:0:0:0:
280,176,42911,1,0,0:0:0:0:
280,176,42981,1,2,0:0:0:0:
272,200,43123,1,0,0:0:0:0:
272,200,43194,1,0,0:0:0:0:
272,200,43264,1,0,0:0:0:0:
272,200,43406,1,2,0:0:0:0:
272,200,43548,1,0,0:0:0:0:
272,200,43689,1,0,0:0:0:0:
272,200,43831,1,2,0:0:0:0:
272,200,43972,1,2,0:0:0:0:
256,192,44114,1,0,0:0:0:0:
216,200,44255,1,0,0:0:0:0:
216,200,44326,1,0,0:0:0:0:
216,200,44397,1,2,0:0:0:0:
336,192,44538,1,0,0:0:0:0:
336,192,44609,1,0,0:0:0:0:
336,192,44680,1,2,0:0:0:0:
336,192,44750,1,2,0:0:0:0:
336,192,44821,1,0,0:0:0:0:
336,192,44892,1,2,0:0:0:0:
336,192,44963,1,0,0:0:0:0:
336,192,45033,1,0,0:0:0:0:
336,192,45104,1,2,0:0:0:0:
336,192,45246,1,4,0:0:0:0:
376,204,45387,1,4,0:0:0:0:
376,204,45670,1,4,0:0:0:0:
376,204,45953,1,4,0:0:0:0:
376,204,46095,1,4,0:0:0:0:
292,192,46378,1,6,0:0:0:0:
424,200,46519,1,0,0:0:0:0:
424,200,46590,1,0,0:0:0:0:
424,200,46661,1,0,0:0:0:0:
304,184,46802,1,2,0:0:0:0:
304,188,46944,1,2,0:0:0:0:
304,188,47014,1,0,0:0:0:0:
304,188,47085,1,0,0:0:0:0:
292,192,47227,1,2,0:0:0:0:
424,200,47368,1,0,0:0:0:0:
424,200,47439,1,0,0:0:0:0:
424,200,47510,1,0,0:0:0:0:
304,184,47651,1,2,0:0:0:0:
304,188,47793,1,2,0:0:0:0:
304,188,47863,1,0,0:0:0:0:
304,188,47934,1,0,0:0:0:0:
424,176,48076,1,2,0:0:0:0:
328,144,48217,1,0,0:0:0:0:
328,144,48288,1,0,0:0:0:0:
328,144,48359,1,2,0:0:0:0:
336,164,48500,1,0,0:0:0:0:
336,164,48571,1,0,0:0:0:0:
336,164,48642,1,2,0:0:0:0:
424,200,48783,1,0,0:0:0:0:
424,200,48854,1,0,0:0:0:0:
424,200,48925,1,0,0:0:0:0:
304,184,49066,1,2,0:0:0:0:
304,188,49208,1,2,0:0:0:0:
304,188,49278,1,0,0:0:0:0:
304,188,49349,1,0,0:0:0:0:
336,164,49491,1,2,0:0:0:0:
424,200,49632,1,0,0:0:0:0:
424,200,49703,1,0,0:0:0:0:
424,200,49774,1,0,0:0:0:0:
304,184,49915,1,2,0:0:0:0:
304,188,50057,1,2,0:0:0:0:
304,188,50127,1,0,0:0:0:0:
304,188,50198,1,0,0:0:0:0:
360,188,50340,1,2,0:0:0:0:
360,188,50481,1,0,0:0:0:0:
360,188,50552,1,0,0:0:0:0:
360,188,50623,1,2,0:0:0:0:
360,188,50694,1,2,0:0:0:0:
360,188,50764,1,0,0:0:0:0:
360,188,50835,1,0,0:0:0:0:
360,188,50906,1,0,0:0:0:0:
248,192,51048,1,0,0:0:0:0:
248,192,51189,1,0,0:0:0:0:
248,192,51331,1,2,0:0:0:0:
260,172,51472,1,0,0:0:0:0:
256,172,51543,1,0,0:0:0:0:
256,172,51614,1,2,0:0:0:0:
264,180,51755,1,2,0:0:0:0:
264,180,51826,1,0,0:0:0:0:
264,180,51897,1,0,0:0:0:0:
264,180,51967,1,0,0:0:0:0:
268,180,52038,1,2,0:0:0:0:
280,192,52180,1,0,0:0:0:0:
280,192,52250,1,0,0:0:0:0:
280,192,52321,1,0,0:0:0:0:
280,192,52463,1,2,0:0:0:0:
280,192,52604,1,0,0:0:0:0:
316,196,52746,1,0,0:0:0:0:
316,196,52887,1,2,0:0:0:0:
320,196,53029,1,0,0:0:0:0:
272,144,53170,1,2,0:0:0:0:
252,188,53312,1,0,0:0:0:0:
252,188,53382,1,0,0:0:0:0:
252,188,53453,1,2,0:0:0:0:
296,200,53595,1,0,0:0:0:0:
296,200,53665,1,0,0:0:0:0:
296,200,53736,1,2,0:0:0:0:
296,200,53807,1,2,0:0:0:0:
300,200,53878,1,0,0:0:0:0:
300,212,53948,1,2,0:0:0:0:
300,212,54019,1,0,0:0:0:0:
300,212,54090,1,0,0:0:0:0:
300,212,54161,1,2,0:0:0:0:
300,212,54231,1,2,0:0:0:0:
300,212,54302,1,0,0:0:0:0:
200,184,54444,1,0,0:0:0:0:
200,184,54514,1,0,0:0:0:0:
200,184,54585,1,2,0:0:0:0:
308,184,54727,1,0,0:0:0:0:
308,184,54798,1,0,0:0:0:0:
308,184,54868,1,2,0:0:0:0:
328,240,55011,1,0,0:0:0:0:
392,228,55152,1,2,0:0:0:0:
392,228,55223,1,2,0:0:0:0:
392,228,55294,1,2,0:0:0:0:
392,228,55364,1,2,0:0:0:0:
392,228,55435,1,0,0:0:0:0:
248,188,55647,1,0,0:0:0:0:
248,212,55718,1,2,0:0:0:0:
248,212,55860,1,0,0:0:0:0:
296,208,56072,1,2,0:0:0:0:
296,208,56143,1,2,0:0:0:0:
296,208,56284,1,2,0:0:0:0:
296,208,56426,1,0,0:0:0:0:
296,212,56567,1,0,0:0:0:0:
320,172,56779,1,0,0:0:0:0:
320,172,56850,1,2,0:0:0:0:
320,176,56992,1,0,0:0:0:0:
320,172,57133,1,2,0:0:0:0:
320,172,57204,1,2,0:0:0:0:
320,172,57275,1,2,0:0:0:0:
320,172,57416,1,2,0:0:0:0:
320,172,57558,1,0,0:0:0:0:
320,172,57699,1,0,0:0:0:0:
340,156,57841,1,2,0:0:0:0:
340,156,57982,1,2,0:0:0:0:
240,176,58195,1,0,0:0:0:0:
240,176,58266,1,2,0:0:0:0:
248,168,58408,1,0,0:0:0:0:
248,168,58478,1,0,0:0:0:0:
252,168,58549,1,0,0:0:0:0:
380,208,58690,1,2,0:0:0:0:
380,208,58761,1,2,0:0:0:0:
380,208,58831,1,0,0:0:0:0:
380,208,58973,1,2,0:0:0:0:
380,208,59114,1,2,0:0:0:0:
272,132,59256,1,0,0:0:0:0:
272,132,59327,1,0,0:0:0:0:
272,132,59397,1,2,0:0:0:0:
356,192,59539,1,0,0:0:0:0:
356,192,59610,1,0,0:0:0:0:
356,192,59680,1,2,0:0:0:0:
356,192,59822,1,2,0:0:0:0:
356,192,59963,1,0,0:0:0:0:
204,216,60246,1,2,0:0:0:0:
296,188,60671,1,0,0:0:0:0:
296,188,60812,1,2,0:0:0:0:
224,164,61095,1,0,0:0:0:0:
292,192,61379,1,2,0:0:0:0:
324,144,61803,1,0,0:0:0:0:
324,144,61945,1,2,0:0:0:0:
324,144,62228,1,0,0:0:0:0:
324,144,62511,1,2,0:0:0:0:
324,144,62935,1,0,0:0:0:0:
324,144,63077,1,2,0:0:0:0:
324,144,63218,1,0,0:0:0:0:
324,144,63360,1,0,0:0:0:0:
320,216,63501,1,0,0:0:0:0:
332,216,63643,1,2,0:0:0:0:
332,216,63784,1,0,0:0:0:0:
332,216,63926,1,2,0:0:0:0:
332,216,64067,1,2,0:0:0:0:
332,216,64209,1,0,0:0:0:0:
332,216,64350,1,0,0:0:0:0:
332,216,64492,1,6,0:0:0:0:
328,212,65624,1,6,0:0:0:0:
272,192,66756,1,4,0:0:0:0:
272,192,67888,1,4,0:0:0:0:
316,180,69020,1,6,0:0:0:0:
336,140,70152,1,6,0:0:0:0:
308,168,71284,1,4,0:0:0:0:
288,224,72416,1,6,0:0:0:0:
304,196,73548,1,4,0:0:0:0:
248,188,73831,1,8,0:0:0:0:
248,188,74114,1,8,0:0:0:0:
248,188,74256,1,0,0:0:0:0:
248,188,74539,1,8,0:0:0:0:
248,188,74822,1,8,0:0:0:0:
248,188,75105,1,0,0:0:0:0:
248,188,75388,1,0,0:0:0:0:
248,188,75529,1,0,0:0:0:0:
248,188,75671,1,8,0:0:0:0:
248,188,76095,1,8,0:0:0:0:
248,188,76379,1,8,0:0:0:0:
248,188,76520,1,0,0:0:0:0:
248,188,76803,1,8,0:0:0:0:
248,188,77086,1,8,0:0:0:0:
248,188,77369,1,0,0:0:0:0:
248,188,77652,1,0,0:0:0:0:
248,188,77794,1,8,0:0:0:0:
248,188,77935,1,8,0:0:0:0:
248,188,78360,1,8,0:0:0:0:
248,188,78643,1,8,0:0:0:0:
248,188,78784,1,0,0:0:0:0:
248,188,79067,1,8,0:0:0:0:
248,188,79350,1,8,0:0:0:0:
248,188,79633,1,0,0:0:0:0:
248,188,79916,1,0,0:0:0:0:
248,188,80199,1,8,0:0:0:0:
248,188,80624,1,8,0:0:0:0:
248,188,80907,1,8,0:0:0:0:
248,188,81048,1,8,0:0:0:0:
248,188,81331,1,0,0:0:0:0:
256,192,81473,12,0,82322,0:0:0:0:
248,200,82605,5,4,0:0:0:0:
264,192,82746,1,0,0:0:0:0:
264,192,82888,1,2,0:0:0:0:
264,192,82959,1,2,0:0:0:0:
264,192,83029,1,2,0:0:0:0:
264,192,83100,1,2,0:0:0:0:
264,192,83171,1,2,0:0:0:0:
264,192,83242,1,2,0:0:0:0:
264,192,83312,1,0,0:0:0:0:
292,196,83454,1,0,0:0:0:0:
336,208,83737,1,4,0:0:0:0:
336,208,83879,1,0,0:0:0:0:
336,208,84020,1,2,0:0:0:0:
336,208,84091,1,0,0:0:0:0:
336,208,84162,1,2,0:0:0:0:
336,208,84232,1,0,0:0:0:0:
336,208,84303,1,2,0:0:0:0:
336,208,84374,1,2,0:0:0:0:
336,208,84445,1,0,0:0:0:0:
336,208,84586,1,0,0:0:0:0:
336,208,84869,1,4,0:0:0:0:
336,208,85011,1,0,0:0:0:0:
336,208,85152,1,2,0:0:0:0:
336,208,85223,1,2,0:0:0:0:
336,208,85294,1,2,0:0:0:0:
336,208,85364,1,2,0:0:0:0:
336,208,85435,1,0,0:0:0:0:
336,208,85506,1,0,0:0:0:0:
336,208,85577,1,0,0:0:0:0:
336,208,85718,1,0,0:0:0:0:
336,208,86001,1,4,0:0:0:0:
336,208,86143,1,0,0:0:0:0:
336,208,86284,1,2,0:0:0:0:
336,208,86355,1,2,0:0:0:0:
336,208,86426,1,2,0:0:0:0:
256,188,86567,1,0,0:0:0:0:
300,216,86638,1,0,0:0:0:0:
256,188,86709,1,0,0:0:0:0:
300,216,86779,1,0,0:0:0:0:
256,188,86850,1,2,0:0:0:0:
264,176,87133,1,4,0:0:0:0:
264,176,87275,1,0,0:0:0:0:
264,176,87416,1,2,0:0:0:0:
264,176,87487,1,2,0:0:0:0:
264,176,87558,1,2,0:0:0:0:
264,176,87629,1,2,0:0:0:0:
264,176,87699,1,0,0:0:0:0:
264,176,87841,1,0,0:0:0:0:
264,176,87982,1,2,0:0:0:0:
264,176,88053,1,0,0:0:0:0:
264,176,88124,1,2,0:0:0:0:
264,176,88195,1,0,0:0:0:0:
264,176,88265,1,0,0:0:0:0:
264,176,88407,1,0,0:0:0:0:
264,176,88548,1,2,0:0:0:0:
264,176,88619,1,2,0:0:0:0:
264,176,88690,1,2,0:0:0:0:
264,176,88761,1,2,0:0:0:0:
264,176,88831,1,0,0:0:0:0:
264,176,88973,1,0,0:0:0:0:
264,176,89114,1,2,0:0:0:0:
264,176,89185,1,0,0:0:0:0:
264,176,89256,1,2,0:0:0:0:
264,176,89327,1,0,0:0:0:0:
264,176,89397,1,0,0:0:0:0:
328,176,90246,1,0,0:0:0:0:
328,176,90294,1,0,0:0:0:0:
336,176,90341,1,0,0:0:0:0:
336,176,90388,1,0,0:0:0:0:
284,200,90529,1,6,0:0:0:0:
284,200,90671,1,6,0:0:0:0:
284,200,90954,1,6,0:0:0:0:
284,200,91237,1,6,0:0:0:0:
284,200,91520,1,6,0:0:0:0:
284,200,91662,1,4,0:0:0:0:
284,200,91803,1,4,0:0:0:0:
284,200,92086,1,4,0:0:0:0:
284,200,92369,1,4,0:0:0:0:
284,200,92652,1,4,0:0:0:0:
284,200,92794,1,6,0:0:0:0:
304,188,93360,1,2,0:0:0:0:
304,188,93643,1,0,0:0:0:0:
156,164,93926,1,2,0:0:0:0:
368,188,94067,1,0,0:0:0:0:
368,188,94138,1,0,0:0:0:0:
368,188,94209,1,2,0:0:0:0:
368,188,94350,1,0,0:0:0:0:
368,188,94421,1,0,0:0:0:0:
368,188,94492,1,2,0:0:0:0:
368,188,94562,1,0,0:0:0:0:
368,188,94633,1,0,0:0:0:0:
368,188,94704,1,0,0:0:0:0:
368,188,94775,1,2,0:0:0:0:
368,188,94845,1,0,0:0:0:0:
368,188,94916,1,0,0:0:0:0:
368,188,94987,1,2,0:0:0:0:
368,188,95058,1,2,0:0:0:0:
368,188,95199,1,0,0:0:0:0:
368,188,95270,1,0,0:0:0:0:
368,188,95341,1,0,0:0:0:0:
368,188,95482,1,2,0:0:0:0:
368,188,95624,1,0,0:0:0:0:
368,188,95695,1,0,0:0:0:0:
368,188,95765,1,0,0:0:0:0:
368,188,95907,1,2,0:0:0:0:
368,188,96049,1,0,0:0:0:0:
368,188,96120,1,0,0:0:0:0:
368,188,96190,1,0,0:0:0:0:
368,188,96331,1,2,0:0:0:0:
368,188,96473,1,0,0:0:0:0:
368,188,96544,1,0,0:0:0:0:
368,188,96614,1,0,0:0:0:0:
268,184,96756,1,6,0:0:0:0:
268,184,96897,1,0,0:0:0:0:
268,184,97039,1,6,0:0:0:0:
268,184,97180,1,0,0:0:0:0:
368,188,97322,1,2,0:0:0:0:
368,188,97464,1,0,0:0:0:0:
368,188,97535,1,0,0:0:0:0:
368,188,97605,1,0,0:0:0:0:
368,188,97746,1,2,0:0:0:0:
368,188,97888,1,0,0:0:0:0:
368,188,97959,1,0,0:0:0:0:
368,188,98029,1,0,0:0:0:0:
368,188,98171,1,2,0:0:0:0:
368,188,98313,1,0,0:0:0:0:
368,188,98384,1,0,0:0:0:0:
368,188,98454,1,0,0:0:0:0:
368,188,98595,1,2,0:0:0:0:
368,188,98737,1,0,0:0:0:0:
368,188,98808,1,0,0:0:0:0:
368,188,98878,1,0,0:0:0:0:
400,172,99020,1,2,0:0:0:0:
352,188,99162,1,0,0:0:0:0:
352,188,99232,1,0,0:0:0:0:
352,188,99303,1,2,0:0:0:0:
352,188,99374,1,0,0:0:0:0:
352,188,99445,1,0,0:0:0:0:
360,188,99515,1,0,0:0:0:0:
360,188,99586,1,0,0:0:0:0:
264,248,99728,1,0,0:0:0:0:
264,248,99798,1,0,0:0:0:0:
264,248,99869,1,2,0:0:0:0:
300,200,100011,1,0,0:0:0:0:
300,200,100081,1,0,0:0:0:0:
300,200,100152,1,2,0:0:0:0:
372,176,100223,1,0,0:0:0:0:
372,176,100294,1,0,0:0:0:0:
372,176,100364,1,0,0:0:0:0:
372,176,100435,1,2,0:0:0:0:
372,176,100506,1,0,0:0:0:0:
372,176,100577,1,2,0:0:0:0:
372,176,100647,1,0,0:0:0:0:
372,176,100718,1,0,0:0:0:0:
288,156,100860,1,2,0:0:0:0:
272,76,100930,1,2,0:0:0:0:
288,156,101001,1,0,0:0:0:0:
248,192,101143,1,0,0:0:0:0:
248,192,101213,1,0,0:0:0:0:
248,192,101284,1,0,0:0:0:0:
248,192,101355,1,2,0:0:0:0:
248,192,101426,1,2,0:0:0:0:
248,192,101496,1,2,0:0:0:0:
248,192,101567,1,0,0:0:0:0:
248,192,101638,1,0,0:0:0:0:
248,192,101709,1,2,0:0:0:0:
288,200,101779,1,0,0:0:0:0:
288,200,101850,1,2,0:0:0:0:
236,152,101992,1,2,0:0:0:0:
244,152,102062,1,2,0:0:0:0:
244,152,102133,1,0,0:0:0:0:
244,152,102204,1,0,0:0:0:0:
244,152,102275,1,2,0:0:0:0:
244,152,102345,1,2,0:0:0:0:
244,152,102416,1,0,0:0:0:0:
244,152,102487,1,0,0:0:0:0:
368,200,102558,1,2,0:0:0:0:
368,200,102629,1,2,0:0:0:0:
368,200,102699,1,0,0:0:0:0:
368,200,102770,1,2,0:0:0:0:
368,200,102841,1,2,0:0:0:0:
372,200,102912,1,2,0:0:0:0:
368,200,102982,1,0,0:0:0:0:
268,180,103124,1,0,0:0:0:0:
268,180,103195,1,0,0:0:0:0:
268,180,103265,1,2,0:0:0:0:
268,180,103407,1,0,0:0:0:0:
268,180,103548,1,6,0:0:0:0:
268,180,103690,1,0,0:0:0:0:
268,180,103831,1,6,0:0:0:0:
268,180,103973,1,0,0:0:0:0:
268,180,104114,1,6,0:0:0:0:
368,188,104256,1,0,0:0:0:0:
368,188,104327,1,0,0:0:0:0:
368,188,104397,1,0,0:0:0:0:
368,188,104539,1,2,0:0:0:0:
368,188,104681,1,0,0:0:0:0:
368,188,104752,1,0,0:0:0:0:
368,188,104822,1,0,0:0:0:0:
368,188,104963,1,2,0:0:0:0:
368,188,105105,1,0,0:0:0:0:
368,188,105176,1,0,0:0:0:0:
368,188,105246,1,0,0:0:0:0:
368,188,105388,1,2,0:0:0:0:
368,188,105530,1,0,0:0:0:0:
368,188,105601,1,0,0:0:0:0:
368,188,105671,1,0,0:0:0:0:
416,164,105812,1,4,0:0:0:0:
416,164,105954,1,0,0:0:0:0:
416,164,106095,1,6,0:0:0:0:
416,164,106237,1,0,0:0:0:0:
416,164,106379,1,6,0:0:0:0:
368,188,106520,1,0,0:0:0:0:
368,188,106591,1,0,0:0:0:0:
368,188,106661,1,0,0:0:0:0:
368,188,106803,1,2,0:0:0:0:
368,188,106945,1,0,0:0:0:0:
368,188,107016,1,0,0:0:0:0:
368,188,107086,1,0,0:0:0:0:
368,188,107228,1,2,0:0:0:0:
368,188,107370,1,0,0:0:0:0:
368,188,107441,1,0,0:0:0:0:
368,188,107511,1,0,0:0:0:0:
368,188,107652,1,2,0:0:0:0:
368,188,107794,1,0,0:0:0:0:
368,188,107865,1,0,0:0:0:0:
368,188,107935,1,0,0:0:0:0:
400,172,108077,1,2,0:0:0:0:
352,188,108219,1,0,0:0:0:0:
352,188,108289,1,0,0:0:0:0:
352,188,108360,1,2,0:0:0:0:
352,188,108431,1,0,0:0:0:0:
352,188,108501,1,2,0:0:0:0:
360,188,108572,1,0,0:0:0:0:
360,188,108643,1,0,0:0:0:0:
264,248,108785,1,2,0:0:0:0:
264,248,108855,1,0,0:0:0:0:
264,248,108926,1,0,0:0:0:0:
300,200,109068,1,0,0:0:0:0:
300,200,109138,1,0,0:0:0:0:
300,200,109209,1,2,0:0:0:0:
372,176,109280,1,2,0:0:0:0:
372,176,109351,1,0,0:0:0:0:
372,176,109421,1,0,0:0:0:0:
372,176,109492,1,2,0:0:0:0:
372,176,109563,1,0,0:0:0:0:
372,176,109634,1,2,0:0:0:0:
372,176,109704,1,0,0:0:0:0:
372,176,109775,1,0,0:0:0:0:
288,156,109917,1,2,0:0:0:0:
272,76,109987,1,0,0:0:0:0:
288,156,110058,1,0,0:0:0:0:
248,192,110200,1,0,0:0:0:0:
248,192,110270,1,0,0:0:0:0:
248,192,110341,1,0,0:0:0:0:
248,192,110412,1,0,0:0:0:0:
248,192,110483,1,2,0:0:0:0:
248,192,110553,1,2,0:0:0:0:
248,192,110624,1,0,0:0:0:0:
248,192,110695,1,2,0:0:0:0:
248,192,110766,1,2,0:0:0:0:
288,200,110836,1,0,0:0:0:0:
288,200,110907,1,2,0:0:0:0:
236,152,111049,1,2,0:0:0:0:
244,152,111119,1,2,0:0:0:0:
244,152,111190,1,0,0:0:0:0:
244,152,111261,1,0,0:0:0:0:
244,152,111332,1,2,0:0:0:0:
244,152,111402,1,2,0:0:0:0:
244,152,111473,1,0,0:0:0:0:
244,152,111544,1,0,0:0:0:0:
368,200,111615,1,2,0:0:0:0:
368,200,111686,1,2,0:0:0:0:
368,200,111756,1,0,0:0:0:0:
368,200,111827,1,2,0:0:0:0:
368,200,111898,1,2,0:0:0:0:
372,200,111969,1,2,0:0:0:0:
368,200,112039,1,0,0:0:0:0:
252,172,112180,1,0,0:0:0:0:
252,172,112251,1,0,0:0:0:0:
252,176,112322,1,2,0:0:0:0:
324,200,112463,1,0,0:0:0:0:
324,200,112534,1,0,0:0:0:0:
324,200,112605,1,0,0:0:0:0:
288,204,112746,1,0,0:0:0:0:
288,204,112794,1,0,0:0:0:0:
288,204,112841,1,0,0:0:0:0:
288,204,112888,1,0,0:0:0:0:
416,212,113029,1,0,0:0:0:0:
280,168,113171,1,6,0:0:0:0:
304,192,113312,1,2,0:0:0:0:
304,192,113454,1,0,0:0:0:0:
296,184,113595,1,0,0:0:0:0:
368,256,113879,1,0,0:0:0:0:
380,260,114020,1,0,0:0:0:0:
376,276,114162,1,2,0:0:0:0:
376,276,114303,1,2,0:0:0:0:
252,152,114445,1,0,0:0:0:0:
252,152,114516,1,0,0:0:0:0:
252,152,114586,1,2,0:0:0:0:
280,168,114728,1,0,0:0:0:0:
280,168,114799,1,2,0:0:0:0:
280,168,114869,1,2,0:0:0:0:
280,176,115011,1,0,0:0:0:0:
284,188,115082,1,2,0:0:0:0:
280,188,115152,1,0,0:0:0:0:
396,204,115294,1,0,0:0:0:0:
396,204,115365,1,0,0:0:0:0:
396,204,115435,1,0,0:0:0:0:
288,204,115860,1,2,0:0:0:0:
288,204,116001,1,2,0:0:0:0:
292,216,116568,1,0,0:0:0:0:
308,212,116638,1,0,0:0:0:0:
312,212,116709,1,2,0:0:0:0:
312,212,116780,1,2,0:0:0:0:
312,212,116851,1,0,0:0:0:0:
312,200,116921,1,2,0:0:0:0:
328,184,116992,1,0,0:0:0:0:
328,184,117063,1,0,0:0:0:0:
328,188,117134,1,2,0:0:0:0:
328,188,117204,1,0,0:0:0:0:
328,188,117275,1,0,0:0:0:0:
328,188,117346,1,0,0:0:0:0:
328,188,117417,1,2,0:0:0:0:
328,192,117487,1,0,0:0:0:0:
328,200,117558,1,0,0:0:0:0:
324,200,117700,1,6,0:0:0:0:
288,160,117841,1,2,0:0:0:0:
288,160,117983,1,0,0:0:0:0:
288,160,118124,1,0,0:0:0:0:
324,228,118407,1,0,0:0:0:0:
324,228,118548,1,0,0:0:0:0:
324,228,118690,1,2,0:0:0:0:
324,240,118831,1,6,0:0:0:0:
332,176,118973,1,0,0:0:0:0:
332,176,119043,1,0,0:0:0:0:
332,176,119114,1,2,0:0:0:0:
332,188,119256,1,0,0:0:0:0:
332,188,119326,1,0,0:0:0:0:
332,188,119397,1,2,0:0:0:0:
328,192,119539,1,0,0:0:0:0:
328,192,119609,1,2,0:0:0:0:
328,192,119680,1,0,0:0:0:0:
328,192,119822,1,2,0:0:0:0:
328,192,119963,1,4,0:0:0:0:
420,208,120388,1,2,0:0:0:0:
420,208,120530,1,6,0:0:0:0:
448,156,120671,1,0,0:0:0:0:
448,156,120812,1,0,0:0:0:0:
448,156,120954,1,0,0:0:0:0:
304,172,121095,1,6,0:0:0:0:
304,172,121237,1,6,0:0:0:0:
304,172,121520,1,6,0:0:0:0:
304,172,121803,1,6,0:0:0:0:
304,172,121945,1,6,0:0:0:0:
304,172,122228,1,4,0:0:0:0:
304,172,122369,1,4,0:0:0:0:
304,172,122652,1,4,0:0:0:0:
304,172,122935,1,4,0:0:0:0:
304,172,123077,1,4,0:0:0:0:
304,172,123360,1,6,0:0:0:0:
