osu file format v14

[General]
AudioFilename: audio.mp3
AudioLeadIn: 0
PreviewTime: 33952
Countdown: 0
SampleSet: Soft
StackLeniency: 0.7
Mode: 0
LetterboxInBreaks: 0
WidescreenStoryboard: 0

[Editor]
Bookmarks: 12733,21513,34684,46391,58099,69806,81513,93221,104928,110782
DistanceSpacing: 1.3
BeatDivisor: 4
GridSize: 4
TimelineZoom: 1.6

[Metadata]
Title:True Blue
TitleUnicode:True Blue
Artist:dj TAKA feat.AiMEE
ArtistUnicode:dj TAKA feat.AiMEE
Creator:ZZHBOY
Version:Hard
Source:jubeat saucer
Tags:[Emiria] AiMEE victorica_db Beatmania IIDX 20 tricoro KONAMI BEMANI REFLEC BEAT colette pop'n music Sunny Park SOUND VOLTEX II -infinite infection- POLICY BREAK Dance Dance Revolution
BeatmapID:920811
BeatmapSetID:424743

[Difficulty]
HPDrainRate:5
CircleSize:4
OverallDifficulty:6
ApproachRate:7
SliderMultiplier:1.2
SliderTickRate:1

[Events]
//Background and Video events
0,0,"bg.jpg",0,0
//Break Periods
2,24640,26467
2,70006,77686
//Storyboard Layer 0 (Background)
//Storyboard Layer 1 (Fail)
//Storyboard Layer 2 (Pass)
//Storyboard Layer 3 (Foreground)
//Storyboard Sound Samples

[TimingPoints]
1026,365.853658536585,4,2,0,60,1,0
21513,-100,4,3,0,80,0,0
33221,-100,4,2,0,70,0,0
46391,-100,4,2,0,60,0,0
69806,-100,4,2,0,40,0,0
81513,-100,4,2,0,70,0,0
93221,-100,4,2,0,80,0,0

[Colours]
Combo1 : 157,182,221
Combo2 : 145,205,255
Combo3 : 114,111,251
Combo4 : 185,102,253

[HitObjects]
24,160,12733,6,0,P|92:184|96:184,1,60,4|0,1:0|0:0,0:0:0:0:
147,144,13099,1,0,0:0:0:0:
147,144,13282,2,0,P|159:208|139:280,1,120,0|0,0:0|0:0,0:0:0:0:
188,327,13830,1,0,0:0:0:0:
256,288,14013,1,0,0:0:0:0:
321,330,14196,6,0,P|365:342|441:334,1,120,0|0,0:0|0:0,0:0:0:0:
484,271,14745,1,0,0:0:0:0:
425,219,14928,2,0,P|423:181|437:151,1,60,2|0,0:0|0:0,0:0:0:0:
491,111,15294,2,0,P|497:81|494:51,1,60,0|0,0:0|0:0,0:0:0:0:
422,83,15660,6,0,P|386:87|346:99,1,60,0|0,0:0|0:0,0:0:0:0:
294,129,16025,1,0,0:0:0:0:
260,199,16208,2,0,P|200:199|128:179,1,120,0|0,0:0|0:0,0:0:0:0:
64,170,16757,2,0,P|68:130|72:106,1,60,0|0,0:0|0:0,0:0:0:0:
130,59,17123,6,0,P|166:71|190:75,1,60,0|0,3:0|0:0,0:0:0:0:
257,39,17489,2,0,P|286:44|314:54,1,60,0|0,3:0|0:0,0:0:0:0:
348,124,17855,2,0,P|384:140|488:148,1,120,0|0,0:0|0:0,0:0:0:0:
313,193,18586,5,0,0:0:0:0:
360,254,18769,2,0,P|360:286|352:318,1,60,0|0,0:0|0:0,0:0:0:0:
289,358,19135,2,0,P|237:362|145:350,1,120,0|0,0:0|0:0,0:0:0:0:
100,318,19684,2,0,P|96:282|100:258,1,60,0|0,0:0|0:0,0:0:0:0:
175,238,20050,6,0,P|182:170|161:106,1,120,2|0,0:0|0:0,0:0:0:0:
12,124,20782,2,0,P|5:192|26:256,1,120,2|0,0:0|0:0,0:0:0:0:
175,238,21513,1,4,1:0:0:0:
256,192,21696,12,0,24440,0:0:0:0:
117,122,27367,5,4,1:0:0:0:
160,201,28830,1,4,1:0:0:0:
203,280,30294,5,4,1:0:0:0:
279,223,31025,1,4,1:0:0:0:
356,160,31757,6,0,P|352:106|327:42,1,120,0|0,1:0|1:0,0:0:0:0:
174,73,32489,2,0,P|178:127|203:191,1,120,0|0,1:0|1:0,0:0:0:0:
279,223,33038,1,0,1:0:0:0:
441,271,34684,6,0,P|381:286|319:288,1,120,0|0,1:0|1:0,0:0:0:0:
261,239,35233,1,0,0:0:0:0:
296,169,35416,1,0,1:0:0:0:
296,169,35507,1,0,0:0:0:0:
296,169,35599,2,0,P|293:110|290:101,1,60,0|0,0:0|1:0,0:0:0:0:
227,65,35965,1,0,0:0:0:0:
173,120,36147,6,0,P|110:140|53:137,1,120,0|0,1:0|1:0,0:0:0:0:
17,205,36696,1,0,0:0:0:0:
88,261,36879,1,0,1:0:0:0:
88,261,36971,1,0,0:0:0:0:
88,261,37062,2,0,P|82:301|74:323,1,60,0|0,0:0|1:0,0:0:0:0:
139,364,37428,1,0,0:0:0:0:
192,306,37611,6,0,P|225:309|261:319,1,60,0|0,1:0|0:0,0:0:0:0:
308,368,37977,2,0,P|341:365|377:355,1,60,0|0,1:0|0:0,0:0:0:0:
402,288,38343,2,0,P|399:238|407:217,1,60,0|0,1:0|0:0,0:0:0:0:
465,183,38708,2,0,P|469:153|464:124,1,60,0|0,1:0|0:0,0:0:0:0:
402,76,39074,5,0,1:0:0:0:
341,125,39257,1,0,0:0:0:0:
271,89,39440,2,0,P|249:88|202:98,1,60,0|0,1:0|0:0,0:0:0:0:
134,87,39806,2,0,P|121:59|115:30,2,60,0|0|0,1:0|0:0|1:0,0:0:0:0:
169,165,40355,1,0,0:0:0:0:
169,165,40446,1,0,3:0:0:0:
169,165,40538,6,0,P|126:173|95:188,1,60,0|0,1:0|0:0,0:0:0:0:
70,245,40904,2,0,P|86:291|130:364,1,120,0|0,1:0|1:0,0:0:0:0:
194,324,41452,1,0,0:0:0:0:
278,334,41635,1,0,1:0:0:0:
278,334,41727,1,0,0:0:0:0:
278,334,41818,1,0,0:0:0:0:
349,364,42001,6,0,P|390:367|472:354,1,120,0|0,1:0|1:0,0:0:0:0:
499,283,42550,1,0,0:0:0:0:
432,242,42733,1,0,1:0:0:0:
432,242,42824,1,0,0:0:0:0:
432,242,42916,2,0,P|418:206|425:174,1,60,0|0,0:0|1:0,0:0:0:0:
472,126,43282,1,0,0:0:0:0:
422,65,43465,6,0,B|381:64|381:64|349:72|349:72|295:70,1,120,8|0,3:0|1:0,0:0:0:0:
235,31,44013,1,0,0:0:0:0:
168,72,44196,1,0,1:0:0:0:
168,72,44288,1,0,0:0:0:0:
168,72,44379,2,0,P|171:120|181:138,1,60,0|0,0:0|1:0,0:0:0:0:
242,171,44745,1,0,0:0:0:0:
310,208,44928,6,0,P|306:251|261:326,1,120,0|0,1:0|1:0,0:0:0:0:
197,349,45477,1,0,0:0:0:0:
119,337,45660,1,0,1:0:0:0:
119,337,45751,1,0,0:0:0:0:
119,337,45843,2,0,P|111:303|122:263,1,60,0|0,1:0|1:0,0:0:0:0:
164,218,46208,1,0,1:0:0:0:
213,157,46391,6,0,P|208:116|182:40,1,120,0|2,1:0|0:0,0:0:0:0:
105,29,46940,1,0,0:0:0:0:
45,79,47123,1,2,0:0:0:0:
45,79,47215,1,2,0:0:0:0:
45,79,47306,2,0,L|50:162,1,60,0|2,0:0|0:0,0:0:0:0:
0,200,47672,1,0,0:0:0:0:
44,264,47855,6,0,P|95:245|175:245,1,120,0|2,1:0|0:0,0:0:0:0:
230,277,48404,1,0,0:0:0:0:
259,348,48586,2,0,P|302:355|328:352,1,60,2|0,0:0|0:0,0:0:0:0:
382,308,48952,2,0,P|411:307|441:313,1,60,2|0,0:0|0:0,0:0:0:0:
486,249,49318,6,0,P|468:182|469:111,1,120,0|2,1:0|0:0,0:0:0:0:
490,56,49867,2,0,P|439:57|419:68,1,60,0|2,0:0|0:0,0:0:0:0:
388,125,50233,2,0,P|359:132|329:129,1,60,0|2,0:0|0:0,0:0:0:0:
313,52,50599,1,0,0:0:0:0:
236,41,50782,6,0,P|232:80|236:171,1,120,0|2,1:0|0:0,0:0:0:0:
283,227,51330,1,0,0:0:0:0:
283,227,51513,2,0,P|281:265|275:296,1,60,2|0,0:0|0:0,0:0:0:0:
220,341,51879,2,0,P|181:339|143:345,1,60,2|2,0:0|0:0,0:0:0:0:
89,375,52245,5,4,3:0:0:0:
42,312,52428,1,0,0:0:0:0:
81,244,52611,2,0,P|87:206|87:181,1,60,2|0,0:0|0:0,0:0:0:0:
19,145,52977,2,0,P|21:95|50:27,1,120,2|2,0:0|0:0,0:0:0:0:
125,24,53525,1,0,0:0:0:0:
176,82,53708,6,0,P|234:94|299:88,1,120,4|2,3:0|0:0,0:0:0:0:
349,33,54257,1,0,0:0:0:0:
418,68,54440,2,0,P|448:71|485:64,1,60,2|0,0:0|0:0,0:0:0:0:
503,140,54806,2,0,P|502:177|490:204,1,60,2|0,0:0|0:0,0:0:0:0:
418,220,55172,6,0,P|419:280|437:351,1,120,4|0,3:0|0:0,0:0:0:0:
358,363,55721,2,0,P|317:375|278:372,1,60,2|0,0:0|0:0,0:0:0:0:
238,327,56086,1,0,0:0:0:0:
173,282,56269,2,0,P|143:284|114:294,1,60,2|2,0:0|0:0,0:0:0:0:
101,371,56635,5,4,3:0:0:0:
38,314,56818,1,0,3:0:0:0:
38,314,56910,1,0,3:0:0:0:
38,314,57001,2,0,P|28:264|25:187,1,120,0|0,3:0|1:0,0:0:0:0:
75,135,57550,1,0,1:0:0:0:
153,135,57733,2,0,P|193:140|220:132,1,60
266,190,58099,5,4,1:0:0:0:
260,345,58465,1,8,0:0:0:0:
400,277,58830,2,0,P|391:228|337:174,1,120,0|8,1:0|0:0,0:0:0:0:
266,190,59379,1,0,0:0:0:0:
206,240,59562,6,0,P|176:239|146:234,1,60,0|0,1:0|0:0,0:0:0:0:
98,171,59928,1,8,0:0:0:0:
68,243,60111,2,0,P|83:310|110:357,1,120,0|0,0:0|0:0,0:0:0:0:
183,333,60660,1,8,0:0:0:0:
256,360,60843,1,0,0:0:0:0:
315,309,61025,6,0,P|383:309|436:320,1,120,0|8,1:0|0:0,0:0:0:0:
502,356,61574,1,0,0:0:0:0:
498,278,61757,2,0,P|495:238|497:215,1,60,0|0,1:0|0:0,0:0:0:0:
473,143,62123,1,8,0:0:0:0:
396,127,62306,1,0,0:0:0:0:
329,168,62489,6,0,P|290:177|265:175,1,60,0|0,1:0|0:0,0:0:0:0:
203,134,62855,2,0,P|162:140|76:164,2,120,8|0|8,0:0|1:0|0:0,0:0:0:0:
270,175,63769,1,0,0:0:0:0:
255,252,63952,6,0,P|216:264|181:263,1,60,0|0,1:0|0:0,0:0:0:0:
125,297,64318,2,0,P|136:339|150:363,1,60,8|0,0:0|0:0,0:0:0:0:
220,367,64684,2,0,P|264:362|343:334,1,120,0|8,1:0|0:0,0:0:0:0:
360,263,65233,1,0,0:0:0:0:
408,323,65416,6,0,P|455:319|487:300,1,60,0|0,1:0|0:0,0:0:0:0:
494,240,65782,1,8,0:0:0:0:
420,212,65965,2,0,P|419:180|434:87,1,120,0|0,0:0|0:0,0:0:0:0:
375,39,66513,2,0,P|334:37|302:40,1,60,8|0,0:0|0:0,0:0:0:0:
274,105,66879,6,0,P|228:104|149:96,1,120,0|8,1:0|0:0,0:0:0:0:
97,43,67428,1,0,0:0:0:0:
39,95,67611,2,0,P|45:133|59:166,1,60,0|0,1:0|0:0,0:0:0:0:
124,184,67977,2,0,P|125:222|117:249,1,60,8|0,0:0|0:0,0:0:0:0:
64,298,68343,5,0,1:0:0:0:
64,298,68434,1,0,0:0:0:0:
64,298,68525,2,0,P|68:332|81:360,1,60,0|8,0:0|0:0,0:0:0:0:
156,361,68891,1,0,0:0:0:0:
204,299,69074,2,0,P|237:298|265:304,1,60,0|0,1:0|1:0,0:0:0:0:
319,357,69440,2,0,P|352:358|380:352,1,60,8|0,0:0|0:0,0:0:0:0:
442,308,69806,5,4,1:0:0:0:
256,192,78586,12,0,79867,0:0:0:0:
224,137,80416,6,0,P|175:121|97:115,2,120,0|0|0,0:0|0:0|0:0,0:0:0:0:
265,287,81513,6,0,P|331:283|394:257,1,120,4|0,1:0|0:0,0:0:0:0:
444,217,82062,1,2,0:0:0:0:
415,144,82245,1,0,0:0:0:0:
337,142,82428,2,0,P|325:104|332:69,1,60,2|2,0:0|0:0,0:0:0:0:
264,36,82794,1,0,0:0:0:0:
203,85,82977,6,0,P|167:94|117:94,1,60,2|2,0:0|0:0,0:0:0:0:
68,75,83343,1,2,0:0:0:0:
31,143,83525,1,2,0:0:0:0:
31,143,83617,1,2,0:0:0:0:
31,143,83708,2,0,L|35:209,1,60,0|2,0:0|0:0,0:0:0:0:
105,237,84074,2,0,L|88:311,1,60,0|0,0:0|0:0,0:0:0:0:
147,350,84440,6,0,P|182:355|225:346,1,60,2|2,0:0|0:0,0:0:0:0:
252,288,84806,1,2,0:0:0:0:
329,259,84989,1,2,0:0:0:0:
329,259,85080,1,2,0:0:0:0:
329,259,85172,2,0,P|381:273|404:269,1,60,0|2,0:0|0:0,0:0:0:0:
454,234,85538,2,0,P|459:198|456:164,1,60,0|2,0:0|0:0,0:0:0:0:
401,119,85904,6,0,P|352:120|326:113,1,60,2|0,0:0|0:0,0:0:0:0:
285,63,86269,1,2,0:0:0:0:
216,99,86452,1,2,0:0:0:0:
225,176,86635,2,0,L|231:242,1,60,0|2,0:0|0:0,0:0:0:0:
276,299,87001,2,0,L|260:360,1,60,2|0,0:0|0:0,0:0:0:0:
183,368,87367,6,0,P|135:366|55:322,1,120,4|0,1:0|1:0,0:0:0:0:
32,267,87916,1,0,0:0:0:0:
19,189,88099,2,0,L|23:65,1,120,0|0,1:0|1:0,0:0:0:0:
167,9,88830,6,0,L|163:128,1,120,0|0,1:0|1:0,0:0:0:0:
193,209,89379,1,0,0:0:0:0:
193,209,89471,1,0,1:0:0:0:
193,209,89562,2,0,L|182:274,1,60,0|0,1:0|1:0,0:0:0:0:
218,337,89928,2,0,P|255:331|288:309,1,60,0|0,1:0|1:0,0:0:0:0:
320,257,90294,5,0,1:0:0:0:
379,307,90477,2,0,P|386:346|383:368,1,60,0|0,1:0|1:0,0:0:0:0:
460,352,90843,1,0,1:0:0:0:
484,278,91025,1,0,1:0:0:0:
431,220,91208,2,0,P|418:173|423:138,1,60,0|0,1:0|1:0,0:0:0:0:
341,147,91574,1,0,1:0:0:0:
263,158,91757,6,0,L|253:111,2,30
243,234,92123,2,0,L|253:281,2,30
169,206,92489,2,0,L|159:159,2,30
149,282,92855,2,0,L|159:329,2,30
80,243,93221,6,0,P|61:197|66:123,1,120,4|0,1:0|1:0,0:0:0:0:
111,65,93769,1,0,0:0:0:0:
192,100,93952,1,0,1:0:0:0:
192,100,94044,1,0,0:0:0:0:
192,100,94135,2,0,P|249:105|266:100,1,60,0|0,0:0|1:0,0:0:0:0:
317,62,94501,1,0,1:0:0:0:
394,65,94684,6,0,P|410:107|413:140,1,60,0|0,1:0|0:0,0:0:0:0:
348,167,95050,2,0,P|332:209|327:247,1,60,0|0,1:0|0:0,0:0:0:0:
386,278,95416,1,0,1:0:0:0:
463,280,95599,1,0,0:0:0:0:
435,353,95782,2,0,P|382:358|354:354,1,60,0|0,1:0|1:0,0:0:0:0:
312,311,96147,6,0,P|279:306|229:307,1,60,0|0,1:0|3:0,0:0:0:0:
188,351,96513,2,0,P|155:356|103:356,1,60,0|0,1:0|3:0,0:0:0:0:
58,321,96879,1,0,1:0:0:0:
50,253,97062,1,0,1:0:0:0:
50,253,97154,1,0,0:0:0:0:
50,253,97245,2,0,P|52:211|47:171,1,60,0|0,1:0|0:0,0:0:0:0:
2,131,97611,6,0,P|7:96|21:60,1,60,0|2,1:0|3:0,0:0:0:0:
89,98,97977,2,0,P|144:119|170:117,1,60,0|2,1:0|3:0,0:0:0:0:
222,126,98343,2,0,P|268:122|291:111,1,60,0|2,1:0|3:0,0:0:0:0:
320,50,98708,2,0,P|364:50|398:65,1,60,0|0,1:0|0:0,0:0:0:0:
444,97,99074,6,0,L|446:232,1,120,0|0,1:0|1:0,0:0:0:0:
407,287,99623,1,0,0:0:0:0:
407,287,99715,1,0,3:0:0:0:
407,287,99806,2,0,P|409:324|398:352,1,60,0|0,1:0|0:0,0:0:0:0:
326,364,100172,2,0,L|254:364,1,60,0|0,1:0|1:0,0:0:0:0:
223,298,100538,6,0,P|185:302|90:328,1,120,0|0,1:0|1:0,0:0:0:0:
36,358,101086,1,0,0:0:0:0:
35,279,101269,1,0,1:0:0:0:
80,215,101452,2,0,P|82:171|78:140,1,60,0|0,0:0|1:0,0:0:0:0:
43,86,101818,1,0,1:0:0:0:
111,41,102001,6,0,L|88:18,2,30,0|0|0,1:0|0:0|0:0,0:0:0:0:
155,105,102367,2,0,L|176:126,2,30,0|0|0,1:0|0:0|0:0,0:0:0:0:
186,33,102733,2,0,P|251:31|319:33,1,120,0|0,1:0|1:0,0:0:0:0:
378,61,103282,1,0,0:0:0:0:
455,63,103465,6,0,P|455:110|452:144,1,60,0|0,1:0|0:0,0:0:0:0:
424,194,103830,1,0,1:0:0:0:
390,264,104013,1,0,0:0:0:0:
312,253,104196,2,0,P|312:300|315:334,1,60,0|0,1:0|1:0,0:0:0:0:
272,380,104562,2,0,P|231:362|201:355,1,60,0|0,1:0|1:0,0:0:0:0:
151,313,104928,5,4,1:0:0:0:
86,353,105111,1,0,0:0:0:0:
86,353,105202,1,0,0:0:0:0:
86,353,105294,2,0,P|62:311|55:276,1,60,8|0,0:0|0:0,0:0:0:0:
16,234,105660,2,0,L|15:166,1,60,0|0,1:0|0:0,0:0:0:0:
73,121,106025,2,0,P|112:117|138:122,1,60,8|0,0:0|0:0,0:0:0:0:
195,169,106391,5,0,1:0:0:0:
206,246,106574,1,0,0:0:0:0:
176,318,106757,2,0,P|200:338|230:346,1,60,8|0,0:0|0:0,0:0:0:0:
303,327,107123,1,0,1:0:0:0:
378,347,107306,1,0,0:0:0:0:
445,308,107489,2,0,P|473:296|503:292,1,60,8|0,0:0|0:0,0:0:0:0:
510,214,107855,5,0,1:0:0:0:
432,203,108038,1,0,0:0:0:0:
480,142,108221,2,0,P|475:104|475:60,1,60,8|0,0:0|0:0,0:0:0:0:
473,4,108586,2,0,P|433:7|409:4,1,60,0|0,1:0|0:0,0:0:0:0:
336,22,108952,2,0,P|306:19|276:22,1,60,8|8,0:0|0:0,0:0:0:0:
198,30,109318,5,0,1:0:0:0:
224,103,109501,1,0,0:0:0:0:
264,178,109684,2,0,P|234:181|204:178,1,60,8|0,0:0|0:0,0:0:0:0:
139,222,110050,2,0,P|138:267|142:301,1,60,0|0,1:0|0:0,0:0:0:0:
187,342,110416,2,0,P|216:344|246:341,1,60,8|0,0:0|0:0,0:0:0:0:
313,300,110782,5,4,1:0:0:0:
282,208,112245,5,4,1:0:0:0:
324,123,113708,5,4,1:0:0:0:
234,88,114440,1,4,1:0:0:0:
157,150,115172,5,4,1:0:0:0:
175,225,115538,1,4,1:0:0:0:
196,299,115904,2,0,P|238:301|316:274,1,120,4|0,1:0|1:0,0:0:0:0:
342,205,116452,1,0,1:0:0:0:
342,205,116544,1,0,1:0:0:0:
342,205,116635,5,4,1:0:0:0:
