osu file format v14

[General]
AudioFilename: audio.mp3
AudioLeadIn: 0
PreviewTime: 13518
Countdown: 0
SampleSet: Soft
StackLeniency: 0.7
Mode: 0
LetterboxInBreaks: 0
WidescreenStoryboard: 0

[Editor]
Bookmarks: 2214
DistanceSpacing: 1
BeatDivisor: 4
GridSize: 32
TimelineZoom: 1

[Metadata]
Title:refrain
TitleUnicode:refrain
Artist:dj TAKA feat. AiMEE
ArtistUnicode:dj TAKA feat. AiMEE
Creator:Firika
Version:Normal
Source:REFLEC BEAT groovin'!!
Tags:Oiso Nemodoko thanh_nemo video game electronic English trance beatmania IIDX 23 copula REFLEC BEAT plus MUSIC PACK 71 bemani konami Takayuki Ishikawa 石川貴之
BeatmapID:2963826
BeatmapSetID:1440543

[Difficulty]
HPDrainRate:3
CircleSize:3
OverallDifficulty:4
ApproachRate:5
SliderMultiplier:1.1
SliderTickRate:1

[Events]
//Background and Video events
0,0,"12321.jpg",0,0
//Break Periods
//Storyboard Layer 0 (Background)
//Storyboard Layer 1 (Fail)
//Storyboard Layer 2 (Pass)
//Storyboard Layer 3 (Foreground)
//Storyboard Layer 4 (Overlay)
//Storyboard Sound Samples

[TimingPoints]
1063,392.156862745098,4,2,1,30,1,0
1063,-125,4,2,1,30,0,0
2221,379.746835443038,4,2,1,50,1,0
2221,-111.111111111111,4,2,1,50,0,0
8296,-100,4,2,1,60,0,0
13613,-125,4,2,1,50,0,0
14372,-100,4,2,2,70,0,0
38676,-100,4,2,1,65,0,0
39056,-100,4,2,1,65,0,0
62980,-111.111111111111,4,2,1,50,0,0
81208,-100,4,2,1,65,0,0
86145,-100,4,2,1,50,0,0
87284,-100,4,2,2,75,0,0
97917,-100,4,2,2,65,0,0
99436,-100,4,2,2,60,0,0
100955,-100,4,2,2,65,0,0
102474,-100,4,2,2,75,0,0
105512,-100,4,2,2,65,0,0
110828,-100,4,2,2,75,0,0

[Colours]
Combo1 : 75,243,243
Combo2 : 128,191,255
Combo3 : 64,112,255
Combo4 : 159,159,159

[HitObjects]
182,129,1063,6,0,P|145:104|101:106,2,88,2|2|2,0:0|0:0|0:0,0:0:0:0:
230,204,2221,6,0,P|436:262|272:126,1,593.999981872559,4|0,0:1|0:0,0:0:0:0:
183,130,4880,1,2,0:0:0:0:
139,109,5070,2,0,P|17:248|198:289,1,445.499986404419,2|0,0:0|0:0,0:0:0:0:
403,201,7728,6,0,L|454:193,2,49.4999984893799,2|2|2,0:3|0:3|0:3,0:0:0:0:
368,166,8296,22,0,L|376:108,1,55,0|0,3:0|3:0,0:0:0:0:
344,73,8676,2,0,L|235:90,1,110,0|0,3:0|3:0,0:0:0:0:
159,153,9436,6,0,L|141:261,1,110,0|0,3:0|3:0,0:0:0:0:
168,309,10006,1,0,3:0:0:0:
168,309,10196,2,0,P|231:319|252:371,1,110,0|0,3:0|3:0,0:0:0:0:
347,329,10956,2,0,P|387:325|415:306,1,55,0|0,3:0|3:0,0:0:0:0:
431,280,11335,22,0,B|435:272|435:272|433:259|433:259|439:248|439:248|437:236|437:236|443:224|443:224|441:212|441:212|447:201|447:201|445:188|445:188|451:177,1,110,0|0,3:0|3:0,0:0:0:0:
376,113,12095,2,0,B|368:117|368:117|355:115|355:115|344:121|344:121|332:119|332:119|320:125|320:125|308:123|308:123|297:129|297:129|284:127|284:127|273:133,1,110,0|0,3:0|3:0,0:0:0:0:
237,100,12664,1,0,3:0:0:0:
249,51,12854,1,4,1:1:0:0:
75,146,13613,38,0,P|57:114|13:103,2,66,2|2|2,0:0|0:0|0:0,0:0:0:0:
126,166,14372,22,0,L|135:280,1,110,4|8,1:1|0:0,0:0:0:0:
199,365,15132,1,0,1:0:0:0:
299,319,15512,1,8,0:0:0:0:
234,229,15891,2,0,L|225:119,1,110,0|8,1:0|0:0,0:0:0:0:
305,44,16651,2,0,L|372:55,1,55,0|0,1:0|0:0,0:0:0:0:
412,37,17031,1,8,0:0:0:0:
491,112,17410,6,0,P|488:167|439:188,1,110,0|8,1:0|0:0,0:0:0:0:
338,174,18170,1,0,1:0:0:0:
338,174,18360,2,0,L|212:186,1,110,0|0,0:0|0:0,0:0:0:0:
173,189,18929,1,0,1:0:0:0:
138,293,19309,1,8,0:0:0:0:
42,238,19689,1,0,1:0:0:0:
77,134,20069,2,0,L|93:78,1,55,8|0,0:0|0:0,0:0:0:0:
128,40,20448,38,0,P|199:40|242:79,1,110,0|8,1:0|0:0,0:0:0:0:
266,108,21018,1,2,0:0:0:0:
266,108,21208,2,0,L|277:242,1,110,0|8,1:0|0:0,0:0:0:0:
366,279,21967,2,0,L|500:290,1,110,0|8,1:0|0:0,0:0:0:0:
506,243,22537,1,0,0:0:0:0:
506,243,22727,2,0,P|488:194|468:185,1,55,0|0,1:0|0:0,0:0:0:0:
439,168,23107,1,8,0:0:0:0:
338,123,23486,6,0,L|329:13,2,110,0|8|0,1:0|0:0|1:0,0:0:0:0:
262,203,24626,1,8,0:0:0:0:
169,143,25005,6,0,P|141:143|120:160,2,55,0|0|8,1:0|0:0|0:0,0:0:0:0:
245,63,25765,1,0,1:0:0:0:
299,71,25955,1,0,1:0:0:0:
353,79,26145,2,0,L|416:90,1,55,8|0,0:0|1:0,0:0:0:0:
455,62,26524,22,0,L|474:177,1,110,4|8,1:1|0:0,0:0:0:0:
424,269,27284,1,0,1:0:0:0:
327,216,27664,1,8,0:0:0:0:
271,310,28043,2,0,P|224:349|166:343,1,110,0|8,1:0|0:0,0:0:0:0:
76,313,28803,2,0,L|69:251,1,55,0|0,1:0|0:0,0:0:0:0:
64,203,29183,1,8,0:0:0:0:
132,117,29562,6,0,P|185:115|225:152,1,110,0|8,1:0|0:0,0:0:0:0:
267,187,30132,1,0,0:0:0:0:
267,187,30322,2,0,L|326:176,1,55,0|0,1:0|0:0,0:0:0:0:
404,248,30891,1,0,0:0:0:0:
457,236,31081,2,0,L|472:120,1,110,0|8,1:0|0:0,0:0:0:0:
405,38,31841,2,0,L|295:52,1,110,0|8,1:0|0:0,0:0:0:0:
258,92,32410,1,0,0:0:0:0:
221,132,32600,38,0,P|169:116|144:68,1,110,0|8,1:0|0:0,0:0:0:0:
37,97,33360,2,0,P|38:150|2:190,1,110,0|8,1:0|0:0,0:0:0:0:
71,275,34119,2,0,L|130:283,1,55,0|0,1:0|0:0,0:0:0:0:
180,290,34499,1,8,0:0:0:0:
263,358,34879,2,0,P|311:324|361:324,1,110,0|8,1:0|0:0,0:0:0:0:
411,343,35448,1,0,0:0:0:0:
459,316,35638,6,0,L|470:201,1,110,0|8,1:0|0:0,0:0:0:0:
359,208,36398,2,0,L|348:93,1,110,0|8,1:0|0:0,0:0:0:0:
242,70,37157,6,0,P|247:43|265:23,2,55,0|0|8,1:0|0:0|0:0,0:0:0:0:
131,75,37917,1,0,1:0:0:0:
79,56,38107,1,0,1:0:0:0:
29,79,38296,2,0,L|34:133,1,55,8|0,0:0|1:0,0:0:0:0:
40,188,38676,1,4,1:1:0:0:
148,169,39056,6,0,B|241:175|193:232|291:237,1,165,10|2,0:0|0:0,0:0:0:0:
343,222,39815,2,0,P|360:201|387:198,1,55,10|2,0:0|0:0,0:0:0:0:
441,212,40195,1,2,1:2:0:0:
490,310,40575,1,10,0:0:0:0:
458,355,40765,2,0,L|337:339,1,110,2|2,0:0|0:0,0:0:0:0:
261,283,41524,1,2,0:0:0:0:
261,283,41714,22,0,P|196:288|170:340,2,110,0|8|0,1:0|0:0|1:0,0:0:0:0:
302,246,42664,2,0,L|294:191,2,55,2|10|2,0:0|0:0|0:0,0:0:0:0:
351,269,43233,1,0,1:0:0:0:
415,179,43613,1,8,0:0:0:0:
347,91,43993,2,0,L|354:36,1,55,2|2,1:2|0:0,0:0:0:0:
306,8,44372,2,0,L|251:15,1,55,10|2,0:0|0:0,0:0:0:0:
220,61,44752,22,0,L|110:75,1,110,2|10,1:2|0:0,0:0:0:0:
63,104,45322,2,0,B|52:44|24:60|13:8,2,110,2|2|2,0:0|0:0|0:0,0:0:0:0:
48,157,46271,1,0,1:0:0:0:
157,163,46651,2,0,L|166:231,1,55,8|2,0:0|0:0,0:0:0:0:
142,268,47031,2,0,L|74:259,2,55,2|2|10,1:2|0:0|0:0,0:0:0:0:
177,309,47600,1,2,0:0:0:0:
212,350,47790,22,0,P|282:344|313:311,1,110,2|10,1:2|0:0,0:0:0:0:
344,276,48360,2,0,L|453:290,2,110,2|2|2,0:0|0:0|0:0,0:0:0:0:
323,225,49309,5,0,1:0:0:0:
238,153,49689,2,0,P|198:125|120:129,1,110,10|2,0:0|1:2,0:0:0:0:
89,147,50258,1,0,1:0:0:0:
64,196,50448,2,0,L|60:262,1,55,10|0,0:0|1:0,0:0:0:0:
56,306,50828,1,4,1:1:0:0:
155,353,51208,6,0,P|204:314|263:322,1,110,10|0,0:0|1:0,0:0:0:0:
354,348,51967,2,0,P|355:294|391:254,1,110,10|0,0:0|1:0,0:0:0:0:
443,235,52537,1,2,0:0:0:0:
458,126,52917,1,2,0:0:0:0:
419,87,53107,2,0,P|394:109|309:119,1,110,2|10,1:2|0:0,0:0:0:0:
268,103,53676,1,2,0:0:0:0:
191,181,54056,22,0,L|183:236,2,55,2|10|2,0:0|0:0|0:0,0:0:0:0:
153,140,54626,2,0,L|98:148,1,55,2|2,1:2|0:0,0:0:0:0:
50,175,55005,1,10,0:0:0:0:
14,132,55195,2,0,P|25:53|57:27,1,110,2|2,0:0|0:0,0:0:0:0:
153,21,55955,2,0,L|263:37,1,110,2|2,0:0|0:0,0:0:0:0:
301,75,56524,1,10,0:0:0:0:
395,18,56904,21,0,1:0:0:0:
435,57,57094,2,0,L|490:49,2,55,2|10|2,0:0|0:0|0:0,0:0:0:0:
412,107,57664,2,0,L|404:162,1,55,2|2,1:2|0:0,0:0:0:0:
396,215,58043,1,10,0:0:0:0:
291,180,58423,2,0,P|233:189|215:250,1,110,2|10,1:2|0:0,0:0:0:0:
229,283,58993,2,0,P|298:294|332:329,2,110,2|2|2,0:0|0:0|0:0,0:0:0:0:
185,317,59942,21,0,1:0:0:0:
103,243,60322,1,10,0:0:0:0:
50,267,60512,2,0,P|25:314|27:386,2,110,2|2|2,0:0|0:0|0:0,0:0:0:0:
20,220,61461,6,0,L|13:155,2,55,0|0|8,1:0|0:0|0:0,0:0:0:0:
124,183,62221,1,0,1:0:0:0:
178,191,62411,1,0,1:0:0:0:
232,199,62601,2,0,L|295:210,1,55,8|0,0:0|1:0,0:0:0:0:
330,240,62980,22,0,P|448:258|460:111,1,296.99999093628,4|0,1:1|0:0,0:0:0:0:
403,34,64499,2,0,B|299:47|343:99|225:113,1,197.99999395752,2|0,0:0|0:0,0:0:0:0:
144,69,65638,1,2,0:0:0:0:
144,69,65828,2,0,P|68:72|29:131,1,148.49999546814,2|0,0:0|0:0,0:0:0:0:
37,176,66588,5,2,0:0:0:0:
93,257,66967,2,0,L|85:305,1,49.4999984893799,2|2,0:0|0:0,0:0:0:0:
78,355,67347,1,2,0:0:0:0:
225,319,67916,1,2,0:0:0:0:
225,319,68107,2,0,L|322:304,1,98.9999969787599,2|2,0:0|0:3,0:0:0:0:
367,326,68676,2,0,L|415:318,1,49.4999984893799,2|2,0:3|0:3,0:0:0:0:
460,230,69246,38,0,L|508:237,2,49.4999984893799,2|2|2,0:0|0:0|0:0,0:0:0:0:
422,197,69815,2,0,L|414:148,1,49.4999984893799,2|2,0:0|0:0,0:0:0:0:
409,98,70195,1,2,0:0:0:0:
320,142,70575,2,0,P|277:190|230:190,1,98.9999969787599,2|2,0:0|0:0,0:0:0:0:
199,174,71145,2,0,P|158:148|92:154,1,98.9999969787599,2|2,0:0|0:0,0:0:0:0:
42,73,71904,6,0,P|99:42|190:42,1,148.49999546814,2|0,0:0|0:0,0:0:0:0:
228,56,72664,1,2,0:0:0:0:
293,129,73043,2,0,L|355:137,1,49.4999984893799,2|2,0:0|0:0,0:0:0:0:
382,165,73423,2,0,P|386:122|420:64,1,98.9999969787599,2|0,0:0|0:0,0:0:0:0:
452,45,73993,5,2,0:0:0:0:
505,128,74372,1,2,0:0:0:0:
483,224,74752,1,2,0:0:0:0:
399,276,75132,22,0,L|409:330,2,49.4999984893799,4|2|2,1:1|0:0|0:0,0:0:0:0:
360,243,75702,2,0,L|261:234,1,98.9999969787599,2|2,0:0|0:0,0:0:0:0:
215,252,76271,2,0,L|164:247,1,49.4999984893799,2|2,0:0|0:0,0:0:0:0:
130,212,76651,2,0,P|126:158|164:118,1,98.9999969787599,2|2,0:0|0:0,0:0:0:0:
198,106,77221,2,0,P|205:61|117:42,1,148.49999546814,2|2,0:0|0:3,0:0:0:0:
50,104,78170,6,0,L|1:94,2,49.4999984893799,2|2|2,0:0|0:0|0:0,0:0:0:0:
84,139,78739,1,2,0:0:0:0:
12,207,79119,2,0,L|30:304,1,98.9999969787599,2|0,0:0|0:0,0:0:0:0:
74,328,79689,2,0,P|62:346|58:376,2,49.4999984893799,2|2|2,0:0|0:0|0:0,0:0:0:0:
119,307,80258,2,0,P|170:307|216:333,1,98.9999969787599,2|2,0:0|0:3,0:0:0:0:
307,301,81018,1,2,0:3:0:0:
341,344,81208,38,0,L|457:358,1,110,2|0,3:2|3:0,0:0:0:0:
498,258,81967,2,0,P|485:211|429:191,1,110,2|0,3:2|3:0,0:0:0:0:
379,208,82537,1,2,3:2:0:0:
328,186,82727,2,0,L|209:200,1,110,2|0,3:2|3:0,0:0:0:0:
164,206,83296,1,2,3:2:0:0:
58,195,83676,1,2,3:2:0:0:
58,195,83866,2,0,L|46:131,1,55,2|0,3:2|3:0,0:0:0:0:
13,98,84246,38,0,B|21:94|21:94|34:96|34:96|45:90|45:90|57:92|57:92|69:86|69:86|81:88|81:88|92:82|92:82|105:84|105:84|116:78,1,110,2|2,3:2|3:2,0:0:0:0:
144,32,84815,1,2,3:2:0:0:
198,42,85005,2,0,B|206:46|206:46|219:44|219:44|230:50|230:50|242:48|242:48|254:54|254:54|266:52|266:52|277:58|277:58|290:56|290:56|301:62,1,110,0|0,3:0|3:0,0:0:0:0:
339,100,85576,1,0,3:0:0:0:
389,78,85766,1,4,1:1:0:0:
468,154,86145,38,0,L|458:216,1,55,2|2,0:0|0:0,0:0:0:0:
451,262,86524,1,2,0:3:0:0:
354,211,86904,2,0,L|344:273,1,55,2|2,0:0|0:0,0:0:0:0:
304,302,87284,6,0,P|254:284|184:290,1,110,4|8,1:1|0:0,0:0:0:0:
105,345,88043,1,0,1:0:0:0:
53,363,88233,1,0,0:0:0:0:
6,333,88423,2,0,P|0:290|11:268,1,55,8|0,0:0|0:0,0:0:0:0:
44,243,88803,22,0,L|63:126,1,110,0|8,1:0|0:0,0:0:0:0:
27,91,89372,1,0,0:0:0:0:
52,42,89562,2,0,P|106:46|141:87,1,110,0|8,1:0|0:0,0:0:0:0:
210,173,90322,22,0,L|273:164,1,55,0|0,1:0|0:0,0:0:0:0:
304,126,90702,1,8,0:0:0:0:
368,214,91081,2,0,L|431:205,1,55,0|0,1:0|0:0,0:0:0:0:
462,167,91461,1,8,0:0:0:0:
509,194,91651,1,0,0:0:0:0:
506,248,91841,22,0,B|500:308|463:290|457:343,1,110,2|8,1:3|0:0,0:0:0:0:
409,370,92410,1,0,0:0:0:0:
363,338,92600,2,0,P|321:302|253:308,1,110,2|8,1:3|0:0,0:0:0:0:
168,254,93360,22,0,L|49:273,1,110,0|8,1:0|0:0,0:0:0:0:
15,237,93929,1,2,0:0:0:0:
29,183,94119,2,0,L|148:164,1,110,0|8,1:0|0:0,0:0:0:0:
185,137,94689,1,2,0:0:0:0:
222,177,94879,22,0,P|236:114|270:72,1,110,0|8,1:0|0:0,0:0:0:0:
366,41,95638,2,0,L|419:53,1,55,0|0,1:0|0:0,0:0:0:0:
454,96,96018,1,8,0:0:0:0:
441,149,96208,1,0,0:0:0:0:
392,175,96398,22,0,P|417:211|429:285,2,110,0|8|0,1:0|0:0|1:0,0:0:0:0:
281,177,97537,1,8,0:0:0:0:
247,220,97727,1,0,0:0:0:0:
192,215,97917,6,0,P|153:197|80:195,1,110,0|8,1:0|0:0,0:0:0:0:
0,261,98676,2,0,L|9:319,1,55,0|0,1:0|1:0,0:0:0:0:
44,357,99056,2,0,L|102:366,1,55,8|0,0:0|1:0,0:0:0:0:
144,335,99436,22,0,P|183:317|256:315,1,110,4|8,1:1|0:0,0:0:0:0:
308,315,100005,1,0,0:0:0:0:
308,315,100195,2,0,P|334:359|394:357,1,110,0|8,1:0|0:0,0:0:0:0:
487,312,100955,22,0,L|501:196,1,110,0|8,1:0|0:0,0:0:0:0:
407,143,101714,2,0,L|393:252,1,110,0|8,1:0|0:0,0:0:0:0:
345,278,102284,1,0,0:0:0:0:
300,245,102474,38,0,P|261:229|183:233,1,110,0|8,1:0|0:0,0:0:0:0:
148,260,103043,1,0,0:0:0:0:
128,311,103233,1,0,1:0:0:0:
40,244,103613,2,0,L|32:186,1,55,8|0,0:0|0:0,0:0:0:0:
1,143,103993,22,0,P|37:100|92:98,1,110,2|8,1:3|0:0,0:0:0:0:
137,120,104562,1,0,0:0:0:0:
165,167,104752,2,0,B|227:171|213:140|271:143,1,110,2|8,1:3|0:0,0:0:0:0:
358,77,105512,6,0,L|417:68,1,55,4|0,1:1|3:0,0:0:0:0:
461,96,105892,2,0,L|444:205,1,110,0|0,3:0|3:0,0:0:0:0:
380,294,106651,2,0,L|272:312,1,110,0|0,3:0|3:0,0:0:0:0:
222,285,107222,5,0,3:0:0:0:
168,297,107410,2,0,P|154:349|104:368,1,110,0|0,3:0|3:0,0:0:0:0:
3,324,108170,2,0,L|15:253,1,55,0|0,3:0|3:0,0:0:0:0:
3,215,108551,22,0,B|7:207|7:207|5:194|5:194|11:183|11:183|9:171|9:171|15:159|15:159|13:147|13:147|19:136|19:136|17:123|17:123|23:112,1,110,0|0,3:0|0:0,0:0:0:0:
106,41,109309,2,0,B|114:37|114:37|127:39|127:39|138:33|138:33|150:35|150:35|162:29|162:29|174:31|174:31|185:25|185:25|198:27|198:27|209:21,1,110,0|0,3:0|3:0,0:0:0:0:
260,39,109879,1,0,3:0:0:0:
296,80,110069,2,0,B|290:91|290:91|292:103|292:103|286:114|286:114|288:127|288:127|282:138|282:138|284:151|284:151|278:162|278:162|280:174|280:174|275:186|275:186|277:198|277:198|271:209|271:209|273:222|273:222|267:233,1,165,0|0,3:0|3:0,0:0:0:0:
289,284,110828,5,0,1:0:0:0:
343,276,111018,1,0,1:0:0:0:
397,268,111208,2,0,L|460:257,1,55,8|0,0:0|1:0,0:0:0:0:
501,281,111588,21,4,1:1:0:0:
