osu file format v14

[General]
AudioFilename: audio.mp3
AudioLeadIn: 0
PreviewTime: 13518
Countdown: 0
SampleSet: Soft
StackLeniency: 0.3
Mode: 0
LetterboxInBreaks: 0
WidescreenStoryboard: 1

[Editor]
Bookmarks: 2214,4872
DistanceSpacing: 1
BeatDivisor: 4
GridSize: 16
TimelineZoom: 2

[Metadata]
Title:refrain
TitleUnicode:refrain
Artist:dj TAKA feat. AiMEE
ArtistUnicode:dj TAKA feat. AiMEE
Creator:Firika
Version:Insane
Source:REFLEC BEAT groovin'!!
Tags:Oiso Nemodoko thanh_nemo video game electronic English trance beatmania IIDX 23 copula REFLEC BEAT plus MUSIC PACK 71 bemani konami Takayuki Ishikawa 石川貴之
BeatmapID:3046224
BeatmapSetID:1440543

[Difficulty]
HPDrainRate:5.5
CircleSize:4
OverallDifficulty:8
ApproachRate:9
SliderMultiplier:1.7
SliderTickRate:1

[Events]
//Background and Video events
0,0,"12321.jpg",0,0
//Break Periods
//Storyboard Layer 0 (Background)
//Storyboard Layer 1 (Fail)
//Storyboard Layer 2 (Pass)
//Storyboard Layer 3 (Foreground)
//Storyboard Layer 4 (Overlay)
//Storyboard Sound Samples

[TimingPoints]
1063,392.156862745098,4,2,1,30,1,0
1063,-125,4,2,1,30,0,0
2221,379.746835443038,4,2,1,50,1,0
2221,-249.999999999999,4,2,1,50,0,0
7727,-166.666666666666,4,2,1,50,0,0
8296,-100,4,2,1,60,0,0
11334,-83.3333333333333,4,2,1,60,0,0
13613,-125,4,2,1,50,0,0
14372,-90.9090909090909,4,2,2,70,0,0
18929,-76.9230769230769,4,2,2,70,0,0
20638,-100,4,2,2,70,0,0
21967,-90.9090909090909,4,2,2,70,0,0
23107,-76.9230769230769,4,2,2,70,0,0
23486,-90.9090909090909,4,2,2,70,0,0
25005,-76.9230769230769,4,2,2,70,0,0
25765,-66.6666666666667,4,2,2,70,0,0
26524,-90.9090909090909,4,2,2,70,0,0
31081,-76.9230769230769,4,2,2,70,0,0
32790,-100,4,2,2,70,0,0
34119,-90.9090909090909,4,2,2,70,0,0
34499,-76.9230769230769,4,2,2,70,0,0
35638,-90.9090909090909,4,2,2,70,0,0
37157,-66.6666666666667,4,2,2,70,0,0
38676,-66.6666666666667,4,2,1,65,0,0
39056,-100,4,2,1,65,0,0
45037,-100,4,2,1,5,0,0
45132,-100,4,2,1,65,0,0
50069,-76.9230769230769,4,2,1,65,0,0
50828,-100,4,2,1,65,0,0
55480,-100,4,2,1,5,0,0
55575,-100,4,2,1,65,0,0
61461,-76.9230769230769,4,2,1,65,0,0
62221,-66.6666666666667,4,2,1,65,0,0
62980,-166.666666666667,4,2,1,50,0,0
68486,-100,4,2,1,50,0,0
69246,-166.666666666667,4,2,1,50,0,0
75132,-125,4,2,1,50,0,0
81208,-100,4,2,1,65,0,0
84246,-83.3333333333333,4,2,1,65,0,0
86145,-125,4,2,1,50,0,0
87284,-76.9230769230769,4,2,2,75,0,0
92600,-66.6666666666667,4,2,2,75,0,0
95353,-76.9230769230769,4,2,2,75,0,0
97917,-100,4,2,2,65,0,0
99436,-100,4,2,2,60,0,0
100955,-100,4,2,2,65,0,0
101714,-90.9090909090909,4,2,2,65,0,0
102474,-76.9230769230769,4,2,2,75,0,0
104752,-66.6666666666667,4,2,2,75,0,0
105512,-100,4,2,2,65,0,0
108550,-83.3333333333333,4,2,2,65,0,0
110828,-66.6666666666667,4,2,2,75,0,0

[Colours]
Combo1 : 75,243,243
Combo2 : 128,191,255
Combo3 : 64,112,255
Combo4 : 159,159,159

[HitObjects]
233,238,1063,37,2,0:0:0:0:
143,134,1455,1,2,0:0:0:0:
278,109,1847,1,2,0:0:0:0:
218,159,2221,22,0,B|297:93|422:172|348:278|472:282|558:216|542:161|514:123|470:92|426:126,1,476,4|2,0:1|0:0,0:0:0:0:
361,209,5069,6,0,P|336:267|122:285,1,306,2|0,0:0|0:0,0:0:0:0:
92,99,7727,6,0,L|42:109,2,50.9999984436036,2|2|2,0:3|0:3|0:3,0:0:0:0:
171,130,8296,21,0,3:0:0:0:
171,130,8486,1,0,3:0:0:0:
143,209,8676,5,0,3:0:0:0:
168,214,8770,1,0,3:0:0:0:
194,211,8865,1,0,3:0:0:0:
217,200,8960,1,0,3:0:0:0:
236,183,9055,1,0,3:0:0:0:
248,161,9150,1,0,3:0:0:0:
324,92,9341,37,0,3:0:0:0:
349,87,9435,1,0,3:0:0:0:
375,90,9530,1,0,3:0:0:0:
398,101,9625,1,0,3:0:0:0:
417,118,9720,1,0,3:0:0:0:
429,140,9815,1,0,3:0:0:0:
461,217,10005,5,0,3:0:0:0:
352,172,10195,37,0,3:0:0:0:
347,197,10289,1,0,3:0:0:0:
343,222,10384,1,0,3:0:0:0:
339,247,10479,1,0,3:0:0:0:
335,272,10574,1,0,3:0:0:0:
331,297,10669,1,0,3:0:0:0:
254,365,10860,5,0,3:0:0:0:
238,344,10954,1,0,3:0:0:0:
218,329,11049,1,0,3:0:0:0:
194,320,11144,1,0,3:0:0:0:
168,319,11239,1,0,3:0:0:0:
144,325,11334,38,0,L|113:345,4,25.4999992218018,0|0|0|0|0,3:0|3:0|3:0|3:0|3:0,0:0:0:0:
113,243,11619,5,0,3:0:0:0:
113,243,11714,2,0,L|81:262,4,25.4999992218018,0|0|0|0|0,3:0|3:0|3:0|3:0|3:0,0:0:0:0:
81,160,11999,21,0,3:0:0:0:
81,160,12094,2,0,L|49:179,8,25.4999992218018,0|0|0|0|0|0|0|0|0,3:0|3:0|3:0|3:0|3:0|3:0|3:0|3:0|3:0,0:0:0:0:
149,113,12569,22,0,L|162:45,2,50.9999984436036,0|0|0,3:0|3:0|3:0,0:0:0:0:
200,177,12853,37,4,1:1:0:0:
448,66,13613,21,2,0:0:0:0:
457,61,13708,1,2,0:0:0:0:
366,16,13898,2,0,L|351:116,1,102,2|2,0:0|0:0,0:0:0:0:
410,256,14372,21,4,1:1:0:0:
422,249,14467,2,0,L|415:295,1,46.7500014266968,0|0,0:0|0:0,0:0:0:0:
455,364,14657,2,0,L|501:356,1,46.7500014266968,0|8,0:0|0:0,0:0:0:0:
296,270,14942,38,0,L|249:277,1,46.7500014266968
159,255,15132,21,0,1:0:0:0:
171,248,15227,2,0,L|164:294,1,46.7500014266968,0|0,0:0|0:0,0:0:0:0:
105,349,15417,2,0,L|58:356,1,46.7500014266968,0|8,0:0|0:0,0:0:0:0:
256,191,15702,22,0,L|302:183,1,46.7500014266968
386,139,15891,5,0,1:0:0:0:
398,132,15986,2,0,L|391:178,1,46.7500014266968,0|0,0:0|0:0,0:0:0:0:
422,249,16176,2,0,L|468:241,1,46.7500014266968,0|8,0:0|0:0,0:0:0:0:
265,107,16461,38,0,L|218:114,1,46.7500014266968
331,28,16651,21,0,1:0:0:0:
346,30,16746,1,0,0:0:0:0:
361,32,16841,1,0,0:0:0:0:
377,34,16936,1,0,0:0:0:0:
411,16,17031,37,8,0:0:0:0:
456,18,17126,1,0,0:0:0:0:
487,51,17221,1,0,0:0:0:0:
486,96,17315,1,0,0:0:0:0:
452,128,17410,6,0,L|446:181,1,46.7500014266968,0|0,1:0|0:0,0:0:0:0:
356,178,17600,2,0,L|350:224,1,46.7500014266968,0|0,0:0|0:0,0:0:0:0:
466,272,17790,2,0,L|326:253,1,140.25000428009,8|0,0:0|0:0,0:0:0:0:
251,210,18170,37,0,1:0:0:0:
227,213,18265,1,0,0:0:0:0:
204,216,18360,1,0,0:0:0:0:
38,99,18550,37,8,0:0:0:0:
78,76,18645,1,0,0:0:0:0:
122,89,18739,1,0,0:0:0:0:
143,129,18834,1,0,0:0:0:0:
129,172,18929,22,0,L|47:186,1,55.2499974708558,0|0,1:0|0:0,0:0:0:0:
204,216,19119,2,0,L|258:207,1,55.2499974708558,0|0,0:0|0:0,0:0:0:0:
92,277,19309,38,0,L|9:290,1,55.2499974708558,8|0,0:0|0:0,0:0:0:0:
166,320,19499,2,0,L|220:311,1,55.2499974708558,0|0,0:0|0:0,0:0:0:0:
354,272,19689,5,0,1:0:0:0:
351,285,19784,1,0,0:0:0:0:
349,299,19879,1,0,0:0:0:0:
347,312,19974,1,0,0:0:0:0:
370,351,20069,37,8,0:0:0:0:
393,316,20164,1,0,0:0:0:0:
429,296,20258,1,0,0:0:0:0:
470,292,20353,1,0,0:0:0:0:
508,307,20448,5,2,1:2:0:0:
443,207,20638,38,0,L|449:179,3,28.3333333333333,2|2|2|10,0:0|0:0|0:0|0:0,0:0:0:0:
350,218,21018,5,2,0:0:0:0:
352,209,21081,1,2,0:0:0:0:
354,200,21145,1,2,0:0:0:0:
356,191,21208,1,2,1:2:0:0:
257,229,21398,38,0,L|263:201,3,28.3333333333333,2|2|2|10,0:0|0:0|0:0|0:0,0:0:0:0:
164,240,21777,5,2,0:0:0:0:
166,231,21841,1,2,0:0:0:0:
168,222,21904,1,2,0:0:0:0:
170,213,21967,38,0,L|107:226,1,46.7500014266968,2|0,1:2|0:0,0:0:0:0:
57,160,22157,2,0,L|11:169,1,46.7500014266968,0|0,0:0|0:0,0:0:0:0:
126,50,22347,5,8,0:0:0:0:
159,42,22442,1,0,0:0:0:0:
193,50,22537,1,0,0:0:0:0:
220,73,22632,1,0,0:0:0:0:
234,104,22727,37,0,1:0:0:0:
281,99,22822,1,0,0:0:0:0:
327,94,22917,1,0,0:0:0:0:
373,89,23012,1,0,0:0:0:0:
420,84,23107,38,0,L|431:29,1,55.2499974708558,8|0,0:0|0:0,0:0:0:0:
512,155,23296,2,0,L|500:209,1,55.2499974708558,0|0,0:0|0:0,0:0:0:0:
417,283,23486,21,0,1:0:0:0:
423,293,23581,1,0,0:0:0:0:
429,303,23676,2,0,L|474:311,1,46.7500014266968,0|0,0:0|0:0,0:0:0:0:
326,231,23866,37,8,0:0:0:0:
332,221,23961,1,0,0:0:0:0:
338,211,24056,2,0,L|383:202,1,46.7500014266968,0|0,0:0|0:0,0:0:0:0:
331,338,24246,5,0,1:0:0:0:
303,356,24341,1,0,0:0:0:0:
268,355,24436,1,0,0:0:0:0:
241,335,24531,1,0,0:0:0:0:
233,300,24626,37,8,0:0:0:0:
187,291,24721,1,0,0:0:0:0:
141,283,24815,1,0,0:0:0:0:
95,274,24910,1,0,0:0:0:0:
49,266,25005,6,0,L|55:322,2,55.2499974708558,0|0|0,1:0|0:0|0:0,0:0:0:0:
180,187,25385,37,8,0:0:0:0:
207,192,25480,1,0,0:0:0:0:
234,197,25575,1,0,0:0:0:0:
314,132,25765,21,0,1:0:0:0:
141,283,25955,1,0,1:0:0:0:
170,83,26145,1,8,0:0:0:0:
285,332,26334,1,0,1:0:0:0:
496,157,26524,21,4,1:1:0:0:
501,144,26619,2,0,L|440:154,1,46.7500014266968,0|0,0:0|0:0,0:0:0:0:
391,98,26809,2,0,L|401:37,1,46.7500014266968,0|8,0:0|0:0,0:0:0:0:
162,129,27094,38,0,L|169:82,1,46.7500014266968
106,26,27284,21,0,1:0:0:0:
111,13,27379,2,0,L|50:23,1,46.7500014266968,0|0,0:0|0:0,0:0:0:0:
8,83,27569,2,0,L|0:129,1,46.7500014266968,0|8,0:0|0:0,0:0:0:0:
241,150,27853,22,0,L|234:197,1,46.7500014266968
167,269,28043,5,0,1:0:0:0:
172,256,28138,2,0,L|111:266,1,46.7500014266968,0|0,0:0|0:0,0:0:0:0:
67,204,28328,2,0,L|74:157,1,46.7500014266968,0|8,0:0|0:0,0:0:0:0:
320,171,28613,38,0,L|327:124,1,46.7500014266968
232,30,28803,21,0,1:0:0:0:
220,31,28898,1,0,0:0:0:0:
208,33,28993,1,0,0:0:0:0:
197,35,29088,1,0,0:0:0:0:
160,23,29183,37,8,0:0:0:0:
138,63,29277,1,0,0:0:0:0:
147,108,29372,1,0,0:0:0:0:
183,136,29467,1,0,0:0:0:0:
229,134,29562,6,0,L|222:181,1,46.7500014266968,0|0,1:0|0:0,0:0:0:0:
343,113,29752,2,0,L|336:160,1,46.7500014266968,0|0,0:0|0:0,0:0:0:0:
436,230,29942,2,0,L|456:91,1,140.25000428009,8|0,0:0|0:0,0:0:0:0:
401,22,30322,37,0,1:0:0:0:
377,25,30417,1,0,0:0:0:0:
354,28,30512,1,0,0:0:0:0:
229,134,30702,37,8,0:0:0:0:
220,179,30796,1,0,0:0:0:0:
188,212,30891,1,0,0:0:0:0:
143,221,30986,1,0,0:0:0:0:
100,204,31081,22,0,L|90:150,1,55.2499974708558,0|0,1:0|0:0,0:0:0:0:
33,85,31271,2,0,L|22:30,1,55.2499974708558,0|0,0:0|0:0,0:0:0:0:
220,179,31461,38,0,L|209:124,1,55.2499974708558,8|0,0:0|0:0,0:0:0:0:
152,59,31651,2,0,L|141:4,1,55.2499974708558,0|0,0:0|0:0,0:0:0:0:
299,26,31841,5,0,1:0:0:0:
317,29,31936,1,0,0:0:0:0:
335,32,32031,1,0,0:0:0:0:
353,36,32126,1,0,0:0:0:0:
393,19,32221,37,8,0:0:0:0:
402,59,32315,1,0,0:0:0:0:
431,88,32410,1,0,0:0:0:0:
471,96,32505,1,0,0:0:0:0:
509,82,32600,5,2,1:2:0:0:
436,180,32790,38,0,L|442:208,3,28.3333333333333,2|2|2|10,0:0|0:0|0:0|0:0,0:0:0:0:
343,169,33170,5,2,0:0:0:0:
345,178,33233,1,2,0:0:0:0:
347,187,33296,1,2,0:0:0:0:
349,196,33360,1,2,1:2:0:0:
250,158,33550,38,0,L|256:186,3,28.3333333333333,2|2|2|10,0:0|0:0|0:0|0:0,0:0:0:0:
157,147,33929,5,2,0:0:0:0:
159,156,33993,1,2,0:0:0:0:
161,165,34056,1,2,0:0:0:0:
163,174,34119,38,0,L|117:164,1,46.7500014266968,2|0,1:2|0:0,0:0:0:0:
51,220,34309,2,0,L|5:210,1,46.7500014266968,0|0,0:0|0:0,0:0:0:0:
87,348,34499,6,0,L|99:295,1,55.2499974708558,8|0,0:0|0:0,0:0:0:0:
199,302,34689,2,0,L|210:248,1,55.2499974708558,0|0,0:0|0:0,0:0:0:0:
163,174,34879,38,0,L|151:120,1,55.2499974708558,0|0,1:0|0:0,0:0:0:0:
51,127,35069,2,0,L|39:73,1,55.2499974708558,0|0,0:0|0:0,0:0:0:0:
126,18,35258,37,8,0:0:0:0:
167,23,35352,1,0,0:0:0:0:
208,28,35447,1,0,0:0:0:0:
249,33,35542,1,0,0:0:0:0:
290,38,35638,22,0,L|346:45,1,46.7500014266968,0|0,1:0|0:0,0:0:0:0:
385,134,35828,2,0,L|338:128,1,46.7500014266968,0|0,0:0|0:0,0:0:0:0:
257,158,36018,38,0,L|210:152,1,46.7500014266968,8|0,0:0|0:0,0:0:0:0:
336,43,36208,2,0,L|393:51,1,46.7500014266968,0|0,0:0|0:0,0:0:0:0:
476,103,36398,5,0,1:0:0:0:
482,137,36492,1,0,0:0:0:0:
475,171,36587,1,0,0:0:0:0:
456,200,36682,1,0,0:0:0:0:
428,220,36777,37,8,0:0:0:0:
383,230,36871,1,0,0:0:0:0:
352,264,36966,1,0,0:0:0:0:
346,310,37061,1,0,0:0:0:0:
368,351,37157,6,0,L|432:363,2,63.7500024318696,0|0|0,1:0|0:0|0:0,0:0:0:0:
241,270,37537,37,8,0:0:0:0:
214,275,37632,1,0,0:0:0:0:
187,280,37727,1,0,0:0:0:0:
98,219,37917,21,0,1:0:0:0:
346,310,38107,1,0,1:0:0:0:
125,368,38296,1,8,0:0:0:0:
319,161,38486,1,0,1:0:0:0:
71,70,38676,5,4,1:1:0:0:
243,25,38866,1,0,0:0:0:0:
243,25,38961,1,0,0:0:0:0:
243,25,39056,2,0,B|266:45|262:120|190:102|184:168,1,170,10|0,0:0|1:0,0:0:0:0:
214,275,39626,1,2,0:0:0:0:
214,275,39721,1,0,0:0:0:0:
214,275,39815,1,10,0:0:0:0:
68,296,40005,1,2,0:0:0:0:
184,167,40195,22,0,P|265:178|300:225,1,127.5,2|0,1:2|0:0,0:0:0:0:
302,229,40575,1,10,0:0:0:0:
391,168,40765,2,0,L|402:74,1,85,2|0,0:0|1:0,0:0:0:0:
497,231,41145,2,0,L|486:325,1,85,2|8,0:0|0:0,0:0:0:0:
386,369,41524,21,2,0:0:0:0:
386,369,41619,1,0,0:0:0:0:
386,369,41714,2,0,P|344:340|302:338,1,85,0|0,1:0|0:0,0:0:0:0:
228,276,42094,2,0,P|186:305|144:307,1,85,8|0,0:0|0:0,0:0:0:0:
72,245,42474,1,0,1:0:0:0:
198,133,42664,21,2,0:0:0:0:
153,308,42853,1,10,0:0:0:0:
287,204,43043,1,2,0:0:0:0:
287,204,43138,1,0,0:0:0:0:
287,204,43233,2,0,L|377:193,1,85,0|0,1:0|0:0,0:0:0:0:
198,133,43613,2,0,L|108:144,1,85,8|0,0:0|0:0,0:0:0:0:
41,111,43898,1,0,0:0:0:0:
41,111,43993,21,2,1:2:0:0:
65,24,44183,1,2,0:0:0:0:
198,133,44372,21,10,0:0:0:0:
174,220,44562,1,2,0:0:0:0:
283,91,44752,22,0,L|436:75,1,127.5,2|0,1:2|0:0,0:0:0:0:
426,63,45132,1,10,0:0:0:0:
500,147,45322,1,2,0:0:0:0:
500,147,45417,1,0,0:0:0:0:
500,147,45512,2,0,L|490:243,1,85,0|2,1:0|0:0,0:0:0:0:
474,358,45891,1,8,0:0:0:0:
329,311,46081,21,2,0:0:0:0:
329,311,46176,1,0,0:0:0:0:
329,311,46271,2,0,L|312:222,2,85,0|0|8,1:0|0:0|0:0,0:0:0:0:
416,279,46841,1,2,0:0:0:0:
264,378,47031,2,0,P|229:353|180:351,1,85,2|2,1:2|0:0,0:0:0:0:
93,284,47410,2,0,P|58:309|9:311,1,85,10|2,0:0|0:0,0:0:0:0:
204,241,47790,22,0,L|216:146,1,85,2|2,1:2|0:0,0:0:0:0:
227,76,48075,1,0,0:0:0:0:
227,76,48170,1,10,0:0:0:0:
339,168,48360,2,0,P|370:143|428:139,1,85,2|0,0:0|1:0,0:0:0:0:
491,222,48739,2,0,P|460:247|402:251,1,85,2|8,0:0|0:0,0:0:0:0:
339,168,49119,1,2,0:0:0:0:
440,36,49309,37,0,1:0:0:0:
460,40,49403,1,0,0:0:0:0:
481,45,49498,1,0,0:0:0:0:
330,127,49689,5,10,0:0:0:0:
335,148,49784,1,0,0:0:0:0:
339,168,49878,1,0,0:0:0:0:
204,72,50069,38,0,L|120:60,1,55.2499974708558,2|0,1:2|0:0,0:0:0:0:
68,108,50258,2,0,L|13:100,1,55.2499974708558,0|0,1:0|0:0,0:0:0:0:
211,187,50448,6,0,L|156:179,1,55.2499974708558,10|0,0:0|0:0,0:0:0:0:
61,229,50638,2,0,L|69:284,1,55.2499974708558,0|0,1:0|0:0,0:0:0:0:
81,366,50828,1,4,1:1:0:0:
273,260,51018,21,0,0:0:0:0:
273,260,51113,1,0,0:0:0:0:
273,260,51208,2,0,P|325:259|365:285,1,85,10|0,0:0|0:0,0:0:0:0:
405,338,51493,1,0,0:0:0:0:
405,338,51588,1,0,1:0:0:0:
483,206,51777,21,0,0:0:0:0:
483,206,51872,1,0,0:0:0:0:
483,206,51967,2,0,P|484:258|458:298,1,85,10|0,0:0|0:0,0:0:0:0:
405,338,52252,1,0,0:0:0:0:
405,338,52347,1,0,1:0:0:0:
273,260,52537,22,0,L|102:277,1,170,2|2,0:0|0:0,0:0:0:0:
25,218,53107,2,0,P|53:187|101:180,1,85,2|2,1:2|0:0,0:0:0:0:
192,144,53486,1,10,0:0:0:0:
103,276,53676,2,0,L|113:376,1,85,2|0,0:0|1:0,0:0:0:0:
281,268,54056,21,2,0:0:0:0:
281,268,54151,1,0,0:0:0:0:
281,268,54246,2,0,P|325:243|378:251,1,85,10|2,0:0|0:0,0:0:0:0:
504,296,54626,1,2,1:2:0:0:
354,356,54816,1,2,0:0:0:0:
354,356,54910,1,0,0:0:0:0:
354,356,55005,1,10,0:0:0:0:
456,204,55195,22,0,P|469:137|508:78,1,127.5,2|0,0:0|0:0,0:0:0:0:
488,69,55575,2,0,L|386:87,1,85,2|8,0:0|0:0,0:0:0:0:
243,144,55955,2,0,P|315:88|271:23,1,170,2|2,0:0|0:0,0:0:0:0:
152,116,56524,1,10,0:0:0:0:
83,51,56714,1,0,0:0:0:0:
61,53,56808,1,0,0:0:0:0:
40,56,56903,1,0,1:0:0:0:
152,116,57094,22,0,L|139:174,1,42.5,2|0,0:0|0:0,0:0:0:0:
195,222,57284,2,0,L|296:206,1,85,10|2,0:0|0:0,0:0:0:0:
114,290,57664,2,0,L|13:306,1,85,2|2,1:2|0:0,0:0:0:0:
0,230,57948,1,0,0:0:0:0:
0,230,58043,2,0,L|101:214,1,85,10|0,0:0|0:0,0:0:0:0:
214,325,58423,22,0,L|389:341,1,170,2|10,1:2|0:0,0:0:0:0:
501,205,58993,2,0,P|475:242|434:252,1,85,2|0,0:0|1:0,0:0:0:0:
326,180,59372,2,0,L|317:93,1,85,2|8,0:0|0:0,0:0:0:0:
444,28,59752,21,2,0:0:0:0:
444,28,59847,1,0,0:0:0:0:
444,28,59942,2,0,P|405:92|311:92,1,170,0|10,1:0|0:0,0:0:0:0:
175,39,60512,2,0,L|87:50,1,85,2|0,0:0|1:0,0:0:0:0:
36,157,60891,2,0,L|124:146,1,85,2|8,0:0|0:0,0:0:0:0:
261,202,61271,1,2,0:0:0:0:
261,202,61366,1,0,0:0:0:0:
261,202,61461,38,0,L|253:263,1,55.2499974708558,0|0,1:0|0:0,0:0:0:0:
349,246,61651,2,0,L|340:306,1,55.2499974708558
436,289,61841,2,0,L|427:349,2,55.2499974708558,8|0|0,0:0|0:0|0:0,0:0:0:0:
450,41,62221,6,0,P|487:70|491:100,1,63.7500024318696,0|0,1:0|0:0,0:0:0:0:
378,98,62410,2,0,P|371:144|347:163,1,63.7500024318696,0|0,1:0|0:0,0:0:0:0:
292,64,62600,2,0,P|248:81|220:70,1,63.7500024318696,8|0,0:0|0:0,0:0:0:0:
164,16,62790,1,0,1:0:0:0:
12,130,62980,6,0,P|142:123|97:245,1,305.999990661621,4|0,1:1|0:0,0:0:0:0:
273,369,64499,6,0,B|282:306|282:306|309:280|309:280|335:77,1,305.999990661621,2|2,0:0|0:0,0:0:0:0:
335,77,65828,2,0,P|415:72|399:25,1,152.999995330811,2|0,0:0|0:0,0:0:0:0:
335,77,66588,38,0,L|228:86,1,101.999996887207,2|2,0:0|0:0,0:0:0:0:
169,134,67157,1,2,0:0:0:0:
118,70,67347,2,0,P|79:56|26:136,1,152.999995330811,2|2,0:0|0:0,0:0:0:0:
70,203,68107,1,2,0:0:0:0:
285,149,68486,22,0,B|327:142|327:142|363:163,2,85,2|2|2,0:3|0:3|0:3,0:0:0:0:
70,203,69246,37,2,0:0:0:0:
70,203,69436,2,0,L|78:258,1,50.9999984436036,2|2,0:0|0:0,0:0:0:0:
160,227,69815,2,0,L|168:282,1,50.9999984436036,2|2,0:0|0:0,0:0:0:0:
250,251,70195,2,0,L|261:326,1,76.4999976654053,2|0,0:0|0:0,0:0:0:0:
264,347,70575,1,2,0:0:0:0:
460,287,70955,37,2,0:0:0:0:
460,287,71145,2,0,P|430:263|415:262,1,50.9999984436036,2|0,0:0|0:0,0:0:0:0:
357,208,71524,2,0,P|373:189|398:182,1,50.9999984436036,2|0,0:0|0:0,0:0:0:0:
469,140,71904,6,0,L|316:127,1,152.999995330811,2|0,0:0|0:0,0:0:0:0:
232,43,72664,2,0,L|240:97,1,50.9999984436036,2|0,0:0|0:0,0:0:0:0:
191,163,73043,1,2,0:0:0:0:
191,163,73233,1,2,0:0:0:0:
112,187,73423,2,0,P|49:177|39:116,1,127.499996109009,2|0,0:0|0:0,0:0:0:0:
43,108,73993,5,2,0:0:0:0:
191,163,74372,21,2,0:0:0:0:
256,336,74752,37,2,0:0:0:0:
427,254,75132,22,0,L|506:267,2,68,4|2|2,1:1|0:0|0:0,0:0:0:0:
351,215,75702,2,0,L|334:79,1,136,2|2,0:0|0:0,0:0:0:0:
386,11,76271,2,0,P|410:33|418:66,1,68,2|2,0:0|0:0,0:0:0:0:
334,80,76651,38,0,P|266:72|209:106,1,136,2|2,0:0|0:0,0:0:0:0:
176,183,77221,2,0,P|184:124|65:120,1,204,2|2,0:0|0:3,0:0:0:0:
7,264,78170,6,0,L|20:343,2,68,2|2|2,0:0|0:0|0:0,0:0:0:0:
73,210,78739,2,0,L|183:228,1,102,2|0,0:0|0:0,0:0:0:0:
199,216,79119,2,0,P|219:262|301:282,1,136,2|0,0:0|0:0,0:0:0:0:
374,247,79689,37,2,0:0:0:0:
374,247,79879,2,0,L|383:167,1,68,2|2,0:0|0:0,0:0:0:0:
465,168,80258,2,0,L|449:303,1,136,2|2,0:0|0:3,0:0:0:0:
350,99,81018,5,2,0:3:0:0:
256,144,81208,37,2,3:2:0:0:
256,144,81398,1,0,3:0:0:0:
191,64,81588,5,0,3:0:0:0:
166,47,81682,1,0,3:0:0:0:
138,37,81777,1,0,3:0:0:0:
109,33,81872,1,0,3:0:0:0:
79,37,81967,1,2,3:2:0:0:
51,47,82062,1,0,3:0:0:0:
1,155,82252,37,0,3:0:0:0:
30,159,82346,1,0,3:0:0:0:
59,164,82441,1,0,3:0:0:0:
89,168,82536,1,2,3:2:0:0:
118,173,82631,1,0,3:0:0:0:
147,177,82726,1,2,3:2:0:0:
222,248,82917,5,0,3:0:0:0:
308,193,83107,37,0,3:0:0:0:
333,176,83201,1,0,3:0:0:0:
361,166,83296,1,2,3:2:0:0:
390,162,83391,1,0,3:0:0:0:
420,166,83486,1,0,3:0:0:0:
448,176,83581,1,0,3:0:0:0:
498,284,83771,5,0,3:0:0:0:
469,288,83865,1,2,3:2:0:0:
440,293,83960,1,0,3:0:0:0:
410,297,84055,1,0,3:0:0:0:
381,302,84150,1,0,3:0:0:0:
352,306,84246,38,0,L|347:339,4,25.4999992218018,2|0|0|0|0,3:2|3:0|3:0|3:0|3:0,0:0:0:0:
256,249,84531,5,0,3:0:0:0:
256,249,84626,2,0,L|251:216,4,25.4999992218018,2|0|0|0|2,3:2|3:0|3:0|3:0|3:2,0:0:0:0:
180,330,84910,21,0,3:0:0:0:
180,330,85005,2,0,L|175:363,8,25.4999992218018,0|0|0|0|0|0|0|0|0,3:0|3:0|3:0|3:0|3:0|3:0|3:0|3:0|3:0,0:0:0:0:
85,275,85480,21,0,3:0:0:0:
39,289,85574,1,0,3:0:0:0:
7,253,85669,1,0,3:0:0:0:
27,209,85764,37,4,1:1:0:0:
205,119,86145,37,2,0:0:0:0:
221,123,86239,1,2,0:0:0:0:
237,127,86334,1,2,0:0:0:0:
311,85,86524,21,2,0:3:0:0:
389,196,86714,1,2,0:3:0:0:
463,154,86904,37,2,0:0:0:0:
479,158,86999,1,2,0:0:0:0:
495,162,87093,1,2,0:0:0:0:
352,272,87284,38,0,L|363:326,1,55.2499974708558,4|0,1:1|0:0,0:0:0:0:
440,370,87474,1,0,0:0:0:0:
461,355,87569,1,0,0:0:0:0:
452,331,87664,1,8,0:0:0:0:
239,208,87853,5,0,0:0:0:0:
253,229,87948,1,0,0:0:0:0:
277,219,88043,5,0,1:0:0:0:
235,221,88137,1,0,0:0:0:0:
199,240,88232,1,0,0:0:0:0:
174,273,88327,1,0,0:0:0:0:
166,313,88422,37,8,0:0:0:0:
147,276,88518,1,0,0:0:0:0:
114,251,88613,1,0,0:0:0:0:
74,241,88708,1,0,0:0:0:0:
34,250,88802,37,0,1:0:0:0:
22,243,88898,2,0,L|10:188,1,55.2499974708558,0|0,0:0|0:0,0:0:0:0:
68,118,89088,2,0,L|239:138,1,165.749992412568,0|0,0:0|0:0,0:0:0:0:
472,72,89562,5,0,1:0:0:0:
480,111,89656,1,0,0:0:0:0:
461,147,89751,1,0,0:0:0:0:
423,162,89846,1,0,0:0:0:0:
385,148,89942,5,8,0:0:0:0:
357,117,90036,1,0,0:0:0:0:
319,99,90131,1,0,0:0:0:0:
278,97,90226,1,0,0:0:0:0:
239,110,90322,21,0,1:0:0:0:
236,123,90416,1,0,0:0:0:0:
233,137,90512,2,0,L|219:199,1,55.2499974708558,0|0,0:0|0:0,0:0:0:0:
147,290,90702,2,0,L|311:270,1,165.749992412568,8|0,0:0|0:0,0:0:0:0:
391,230,91081,5,0,1:0:0:0:
419,257,91175,1,0,0:0:0:0:
398,289,91270,1,0,0:0:0:0:
201,374,91461,5,8,0:0:0:0:
173,344,91555,1,0,0:0:0:0:
136,325,91650,1,0,0:0:0:0:
95,320,91745,1,0,0:0:0:0:
55,329,91841,21,2,1:3:0:0:
15,323,91935,1,0,0:0:0:0:
0,288,92030,1,0,0:0:0:0:
14,252,92125,1,0,0:0:0:0:
51,236,92221,1,8,0:0:0:0:
97,247,92315,1,0,0:0:0:0:
134,219,92410,1,0,0:0:0:0:
136,172,92505,1,0,0:0:0:0:
101,141,92600,6,0,L|38:153,1,63.7500024318696,2|0,1:3|0:0,0:0:0:0:
57,32,92790,2,0,L|120:21,1,63.7500024318696,0|0,0:0|0:0,0:0:0:0:
226,193,92980,6,0,L|289:182,1,63.7500024318696,8|0,0:0|0:0,0:0:0:0:
244,73,93170,2,0,L|307:62,1,63.7500024318696,0|0,0:0|0:0,0:0:0:0:
501,122,93360,21,2,1:2:0:0:
411,250,93550,6,0,L|417:208,3,42.5000016212464,2|2|2|10,0:0|0:0|0:0|0:0,0:0:0:0:
283,224,93929,5,2,0:0:0:0:
285,210,93992,1,2,0:0:0:0:
287,196,94055,1,2,0:0:0:0:
289,182,94118,1,2,1:2:0:0:
155,198,94309,38,0,L|161:156,3,42.5000016212464,2|2|2|10,0:0|0:0|0:0|0:0,0:0:0:0:
27,172,94688,5,2,0:0:0:0:
29,158,94751,1,2,0:0:0:0:
31,144,94814,1,2,0:0:0:0:
33,130,94879,2,0,P|71:105|119:119,2,63.7500024318696,2|0|0,1:2|0:0|0:0,0:0:0:0:
161,156,95164,38,0,P|201:176|213:224,1,63.7500024318696,0|8,0:0|0:0,0:0:0:0:
68,302,95353,2,0,P|82:251|134:240,1,110.499994941712,0|0,0:0|0:0,0:0:0:0:
214,282,95638,37,0,1:0:0:0:
241,276,95733,1,0,0:0:0:0:
268,271,95828,2,0,L|261:334,1,55.2499974708558,0|0,0:0|0:0,0:0:0:0:
396,378,96018,5,8,0:0:0:0:
400,339,96112,1,0,0:0:0:0:
405,301,96207,1,0,0:0:0:0:
410,262,96302,1,0,0:0:0:0:
415,224,96398,38,0,P|465:243|474:147,1,165.749992412568,0|0,1:0|0:0,0:0:0:0:
431,98,96777,6,0,P|452:79|479:75,1,55.2499974708558,8|0,0:0|0:0,0:0:0:0:
348,95,96967,2,0,P|349:67|365:45,1,55.2499974708558,0|0,0:0|0:0,0:0:0:0:
227,9,97157,6,0,L|234:63,1,55.2499974708558,0|0,1:0|0:0,0:0:0:0:
249,152,97347,2,0,L|256:206,1,55.2499974708558,0|0,0:0|0:0,0:0:0:0:
181,304,97537,21,8,0:0:0:0:
149,277,97631,1,0,0:0:0:0:
110,264,97726,1,0,0:0:0:0:
69,268,97821,1,0,0:0:0:0:
33,288,97917,6,0,L|24:233,2,42.5,0|0|0,1:0|0:0|0:0,0:0:0:0:
126,372,98296,21,8,0:0:0:0:
181,304,98486,1,0,0:0:0:0:
268,295,98676,22,0,L|309:301,1,42.5,0|0,1:0|0:0,0:0:0:0:
389,313,98866,2,0,L|430:319,1,42.5,0|0,1:0|0:0,0:0:0:0:
500,279,99056,21,8,0:0:0:0:
496,267,99151,1,0,0:0:0:0:
492,255,99246,1,0,1:0:0:0:
352,143,99436,21,4,1:1:0:0:
438,90,99626,2,0,L|479:99,2,42.5,0|0|8,0:0|0:0|0:0,0:0:0:0:
352,143,100005,2,0,L|310:133,1,42.5,0|0,0:0|0:0,0:0:0:0:
252,77,100195,22,0,L|242:35,3,42.5,0|0|0|0,1:0|0:0|0:0|0:0,0:0:0:0:
166,71,100575,2,0,L|176:113,3,42.5,8|0|0|0,0:0|0:0|0:0|0:0,0:0:0:0:
99,148,100955,21,0,1:0:0:0:
99,148,101050,2,0,L|90:107,1,42.5
153,209,101239,2,0,L|28:186,1,127.5,0|0,0:0|0:0,0:0:0:0:
252,77,101714,21,0,1:0:0:0:
256,99,101808,1,0,0:0:0:0:
260,122,101903,1,0,0:0:0:0:
264,145,101998,1,0,0:0:0:0:
294,166,102094,21,8,0:0:0:0:
287,200,102188,1,0,0:0:0:0:
281,235,102283,1,0,0:0:0:0:
275,269,102378,1,0,0:0:0:0:
245,301,102474,37,0,1:0:0:0:
284,291,102568,1,0,0:0:0:0:
325,299,102663,1,0,0:0:0:0:
358,322,102758,1,0,0:0:0:0:
379,358,102853,2,0,P|444:369|472:282,1,165.749992412568,8|0,0:0|0:0,0:0:0:0:
418,219,103233,5,0,1:0:0:0:
425,178,103327,1,0,0:0:0:0:
432,137,103422,1,0,0:0:0:0:
303,6,103613,5,8,0:0:0:0:
343,3,103707,1,0,0:0:0:0:
374,30,103802,1,0,0:0:0:0:
379,70,103897,1,0,0:0:0:0:
355,103,103993,21,2,1:3:0:0:
314,108,104087,1,0,0:0:0:0:
273,114,104182,1,0,0:0:0:0:
232,120,104277,1,0,0:0:0:0:
204,151,104372,1,8,0:0:0:0:
156,144,104466,1,0,0:0:0:0:
108,138,104561,1,0,0:0:0:0:
60,131,104656,1,0,0:0:0:0:
12,125,104752,6,0,L|1:62,1,63.7500024318696,2|0,1:3|0:0,0:0:0:0:
127,0,104942,2,0,L|138:62,1,63.7500024318696,0|0,0:0|0:0,0:0:0:0:
78,214,105132,6,0,L|90:277,1,63.7500024318696,8|0,0:0|0:0,0:0:0:0:
204,151,105322,2,0,L|215:213,1,63.7500024318696,0|0,0:0|0:0,0:0:0:0:
155,365,105512,5,4,1:1:0:0:
155,365,105702,1,0,3:0:0:0:
331,303,105891,5,0,3:0:0:0:
326,328,105986,1,0,3:0:0:0:
437,283,106176,1,0,3:0:0:0:
432,308,106271,1,0,3:0:0:0:
352,189,106461,37,0,3:0:0:0:
187,234,106651,5,0,3:0:0:0:
192,259,106746,1,0,3:0:0:0:
81,214,106936,1,0,3:0:0:0:
86,239,107031,1,0,3:0:0:0:
166,120,107221,21,0,3:0:0:0:
256,167,107410,37,0,3:0:0:0:
260,137,107504,1,0,3:0:0:0:
265,108,107599,1,0,3:0:0:0:
270,78,107694,1,0,3:0:0:0:
274,49,107789,1,0,3:0:0:0:
279,20,107884,1,0,3:0:0:0:
391,63,108075,5,0,3:0:0:0:
417,50,108169,1,0,3:0:0:0:
446,50,108264,1,0,3:0:0:0:
473,62,108359,1,0,3:0:0:0:
492,85,108454,1,0,3:0:0:0:
498,114,108550,38,0,L|494:139,4,25.4999992218018,0|0|0|0|0,3:0|3:0|3:0|3:0|3:0,0:0:0:0:
402,159,108834,5,0,3:0:0:0:
402,159,108929,2,0,L|397:184,4,25.4999992218018,0|0|0|0|0,3:0|3:0|3:0|3:0|3:0,0:0:0:0:
305,203,109214,21,0,3:0:0:0:
305,203,109309,2,0,L|300:228,8,25.4999992218018,0|0|0|0|0|0|0|0|0,3:0|3:0|3:0|3:0|3:0|3:0|3:0|3:0|3:0,0:0:0:0:
218,288,109784,21,0,3:0:0:0:
191,247,109879,1,0,3:0:0:0:
144,230,109973,1,0,3:0:0:0:
96,246,110069,38,0,L|90:275,14,25.4999992218018,0|0|0|0|0|0|0|0|0|0|0|0|0|0|0,3:0|3:0|3:0|3:0|3:0|3:0|3:0|3:0|3:0|3:0|3:0|3:0|3:0|3:0|3:0,0:0:0:0:
36,186,110828,22,0,L|24:109,1,63.7500024318696,0|0,1:0|0:0,0:0:0:0:
130,48,111018,2,0,L|139:110,1,63.7500024318696,0|0,1:0|0:0,0:0:0:0:
190,247,111208,5,8,0:0:0:0:
222,216,111302,1,0,0:0:0:0:
265,213,111397,1,0,1:0:0:0:
418,265,111588,5,4,1:1:0:0:
