osu file format v14

[General]
AudioFilename: audio.mp3
AudioLeadIn: 0
PreviewTime: 13518
Countdown: 0
SampleSet: Soft
StackLeniency: 0.3
Mode: 0
LetterboxInBreaks: 0
WidescreenStoryboard: 1

[Editor]
Bookmarks: 2214,4872
DistanceSpacing: 1.3
BeatDivisor: 8
GridSize: 8
TimelineZoom: 2

[Metadata]
Title:refrain
TitleUnicode:refrain
Artist:dj TAKA feat. AiMEE
ArtistUnicode:dj TAKA feat. AiMEE
Creator:Firika
Version:Hyper
Source:REFLEC BEAT groovin'!!
Tags:Oiso Nemodoko thanh_nemo video game electronic English trance beatmania IIDX 23 copula REFLEC BEAT plus MUSIC PACK 71 bemani konami Takayuki Ishikawa 石川貴之
BeatmapID:2963825
BeatmapSetID:1440543

[Difficulty]
HPDrainRate:5
CircleSize:4
OverallDifficulty:7.2
ApproachRate:8.2
SliderMultiplier:1.4
SliderTickRate:1

[Events]
//Background and Video events
0,0,"12321.jpg",0,0
//Break Periods
//Storyboard Layer 0 (Background)
//Storyboard Layer 1 (Fail)
//Storyboard Layer 2 (Pass)
//Storyboard Layer 3 (Foreground)
//Storyboard Layer 4 (Overlay)
//Storyboard Sound Samples

[TimingPoints]
1063,392.156862745098,4,2,1,30,1,0
1063,-125,4,2,1,30,0,0
2221,379.746835443038,4,2,1,50,1,0
2221,-249.999999999999,4,2,1,50,0,0
7727,-166.666666666666,4,2,1,50,0,0
8296,-100,4,2,1,60,0,0
11334,-83.3333333333333,4,2,1,60,0,0
13613,-125,4,2,1,50,0,0
14372,-100,4,2,2,70,0,0
38676,-100,4,2,1,65,0,0
39056,-100,4,2,1,65,0,0
62980,-166.666666666667,4,2,1,50,0,0
75132,-166.666666666667,4,2,1,50,0,0
81208,-100,4,2,1,65,0,0
84246,-83.3333333333333,4,2,1,65,0,0
86145,-125,4,2,1,50,0,0
87284,-90.9090909090909,4,2,2,75,0,0
97917,-100,4,2,2,65,0,0
99436,-100,4,2,2,60,0,0
100955,-100,4,2,2,65,0,0
101714,-90.9090909090909,4,2,2,65,0,0
102474,-100,4,2,2,75,0,0
105512,-100,4,2,2,65,0,0
108550,-83.3333333333333,4,2,2,65,0,0
110828,-100,4,2,2,75,0,0

[Colours]
Combo1 : 75,243,243
Combo2 : 128,191,255
Combo3 : 64,112,255
Combo4 : 159,159,159

[HitObjects]
165,152,1063,38,0,L|110:164,1,56,2|0,0:0|0:0,0:0:0:0:
68,144,1455,2,0,P|61:89|105:52,1,112,2|2,0:0|0:0,0:0:0:0:
271,10,2221,22,0,B|260:113|260:113|267:122|267:122|258:201|258:201|250:208|250:208|240:296|240:296|248:305|248:305|239:312|239:312|246:321|246:321|237:328|237:328|232:381,1,392,4|2,0:1|0:0,0:0:0:0:
162,315,5069,6,0,B|153:298|153:298|188:263|287:280|242:349|365:347,1,252,2|0,0:0|0:0,0:0:0:0:
482,256,7727,6,0,L|490:206,1,41.9999987182618,2|2,0:3|0:3,0:0:0:0:
447,151,8107,1,2,0:3:0:0:
374,207,8296,22,0,P|348:191|293:195,1,70,0|0,3:0|3:0,0:0:0:0:
237,230,8676,1,0,3:0:0:0:
219,232,8770,1,0,3:0:0:0:
202,234,8865,1,0,3:0:0:0:
184,236,8961,1,0,3:0:0:0:
167,238,9056,2,0,L|154:296,1,35,0|0,3:0|3:0,0:0:0:0:
82,306,9341,5,0,3:0:0:0:
64,308,9436,2,0,L|50:365,4,35,0|0|0|0|0,3:0|3:0|3:0|3:0|3:0,0:0:0:0:
28,232,10005,1,0,3:0:0:0:
84,169,10195,37,0,3:0:0:0:
101,166,10289,1,0,3:0:0:0:
118,164,10384,1,0,3:0:0:0:
136,162,10480,1,0,3:0:0:0:
153,160,10575,2,0,L|166:102,1,35,0|0,3:0|3:0,0:0:0:0:
228,74,10860,5,0,3:0:0:0:
246,76,10955,2,0,L|259:133,3,35,0|0|0|0,3:0|3:0|3:0|3:0,0:0:0:0:
269,125,11334,22,0,P|290:111|356:169,1,125.999996154785,0|0,3:0|3:0,0:0:0:0:
379,151,11714,22,0,P|401:162|384:248,1,125.999996154785,0|0,3:0|3:0,0:0:0:0:
411,259,12094,38,0,P|403:305|314:257,1,167.999994873047,0|0,3:0|3:0,0:0:0:0:
291,259,12569,1,0,3:0:0:0:
271,241,12663,1,0,3:0:0:0:
244,232,12758,1,0,3:0:0:0:
217,234,12853,1,4,1:1:0:0:
32,150,13613,21,2,0:0:0:0:
25,138,13708,1,2,0:0:0:0:
99,101,13898,2,0,L|182:110,1,84,2|2,0:0|0:0,0:0:0:0:
272,167,14372,21,4,1:1:0:0:
277,195,14467,2,0,L|289:277,1,70,0|0,0:0|0:0,0:0:0:0:
381,364,14942,1,0,0:0:0:0:
471,309,15132,5,0,1:0:0:0:
476,281,15227,2,0,L|488:198,1,70,0|0,0:0|0:0,0:0:0:0:
504,76,15702,1,0,0:0:0:0:
408,34,15891,37,0,1:0:0:0:
395,59,15986,2,0,P|367:79|332:79,1,70,0|0,0:0|0:0,0:0:0:0:
201,41,16461,1,0,0:0:0:0:
153,133,16651,5,0,1:0:0:0:
138,111,16745,1,0,0:0:0:0:
116,96,16840,1,0,0:0:0:0:
91,90,16935,1,0,0:0:0:0:
65,94,17031,2,0,L|28:101,2,35,8|0|0,0:0|0:0|0:0,0:0:0:0:
73,199,17410,38,0,L|65:233,1,35,0|0,1:0|0:0,0:0:0:0:
78,259,17600,2,0,L|70:293,1,35,0|0,0:0|0:0,0:0:0:0:
40,311,17790,2,0,L|142:288,1,105,8|0,0:0|0:0,0:0:0:0:
164,318,18170,2,0,L|156:352,2,35,0|0|0,1:0|0:0|0:0,0:0:0:0:
229,235,18550,5,8,0:0:0:0:
241,258,18644,1,0,0:0:0:0:
261,274,18739,1,0,0:0:0:0:
286,281,18834,1,0,0:0:0:0:
312,278,18929,2,0,L|356:269,2,35,0|0|0,1:0|0:0|0:0,0:0:0:0:
387,353,19309,2,0,L|343:362,2,35,8|0|0,0:0|0:0|0:0,0:0:0:0:
465,282,19689,2,0,L|508:272,2,35,0|0|0,1:0|0:0|0:0,0:0:0:0:
401,198,20069,37,8,0:0:0:0:
403,171,20163,1,0,0:0:0:0:
406,145,20258,1,0,0:0:0:0:
409,119,20353,1,0,0:0:0:0:
412,93,20448,1,2,1:2:0:0:
332,26,20638,6,0,B|337:15|337:15|329:8,3,23.3333333333333,2|2|2|10,0:0|0:0|0:0|0:0,0:0:0:0:
231,48,21018,2,2,B|223:38|223:38|213:41,3,23.3333333333333,2|2|2|2,0:0|0:0|0:0|1:2,0:0:0:0:
199,146,21398,2,0,B|186:147|186:147|184:157,3,23.3333333333333,2|2|2|10,0:0|0:0|0:0|0:0,0:0:0:0:
267,222,21777,1,2,0:0:0:0:
363,179,21967,37,0,1:0:0:0:
389,180,22061,1,0,0:0:0:0:
412,191,22156,1,0,0:0:0:0:
428,212,22252,1,0,0:0:0:0:
434,237,22347,2,0,L|425:285,2,35,8|0|0,0:0|0:0|0:0,0:0:0:0:
344,305,22727,2,0,L|335:256,2,35,0|0|0,1:0|0:0|0:0,0:0:0:0:
256,364,23107,5,8,0:0:0:0:
238,347,23202,1,0,0:0:0:0:
214,335,23297,1,0,0:0:0:0:
188,332,23392,1,0,0:0:0:0:
162,336,23486,2,0,P|133:355|98:361,1,70,0|0,1:0|0:0,0:0:0:0:
32,281,23866,2,0,P|60:261|95:255,1,70,8|0,0:0|0:0,0:0:0:0:
194,218,24246,2,0,L|201:148,1,70,0|0,1:0|0:0,0:0:0:0:
103,110,24626,1,8,0:0:0:0:
100,84,24720,1,0,0:0:0:0:
98,57,24815,1,0,0:0:0:0:
201,39,25005,6,0,L|204:4,2,35,0|0|0,1:0|0:0|0:0,0:0:0:0:
287,100,25385,2,0,P|325:78|381:89,1,70,8|0,0:0|0:0,0:0:0:0:
455,111,25765,1,0,1:0:0:0:
455,111,25955,1,0,1:0:0:0:
482,224,26145,1,8,0:0:0:0:
482,224,26335,1,0,1:0:0:0:
371,191,26524,21,4,1:1:0:0:
349,173,26619,2,0,P|314:172|284:190,1,70,0|0,0:0|0:0,0:0:0:0:
225,314,27094,1,0,0:0:0:0:
134,366,27284,5,0,1:0:0:0:
115,345,27379,2,0,L|45:337,1,70,0|0,0:0|0:0,0:0:0:0:
146,245,27853,1,0,0:0:0:0:
71,171,28043,37,0,1:0:0:0:
90,150,28138,2,0,L|159:142,1,70,0|0,0:0|0:0,0:0:0:0:
59,50,28612,1,0,0:0:0:0:
155,8,28803,5,0,1:0:0:0:
168,30,28897,1,0,0:0:0:0:
188,47,28992,1,0,0:0:0:0:
213,55,29087,1,0,0:0:0:0:
239,54,29183,2,0,L|246:9,2,35,8|0|0,0:0|0:0|0:0,0:0:0:0:
314,128,29562,38,0,L|320:173,1,35,0|0,1:0|0:0,0:0:0:0:
305,187,29752,2,0,L|311:232,1,35,0|0,0:0|0:0,0:0:0:0:
334,248,29942,2,0,L|229:237,1,105,8|0,0:0|0:0,0:0:0:0:
212,260,30322,2,0,L|217:294,2,35,0|0|0,1:0|0:0|0:0,0:0:0:0:
146,177,30702,5,8,0:0:0:0:
121,168,30796,1,0,0:0:0:0:
95,168,30891,1,0,0:0:0:0:
71,179,30986,1,0,0:0:0:0:
53,198,31081,2,0,L|18:192,2,35,0|0|0,1:0|0:0|0:0,0:0:0:0:
125,275,31461,2,0,L|159:280,2,35,8|0|0,0:0|0:0|0:0,0:0:0:0:
58,357,31841,2,0,L|23:351,2,35,0|0|0,1:0|0:0|0:0,0:0:0:0:
162,376,32221,37,8,0:0:0:0:
179,357,32315,1,0,0:0:0:0:
202,344,32410,1,0,0:0:0:0:
227,341,32505,1,0,0:0:0:0:
253,347,32600,1,2,1:2:0:0:
353,313,32790,6,0,B|360:305|360:305|371:310,3,23.3333333333333,2|2|2|10,0:0|0:0|0:0|0:0,0:0:0:0:
432,224,33170,2,0,B|424:217|424:217|429:206,3,23.3333333333333,2|2|2|2,0:0|0:0|0:0|1:2,0:0:0:0:
343,145,33550,2,0,B|336:153|336:153|325:148,3,23.3333333333333,2|2|2|10,0:0|0:0|0:0|0:0,0:0:0:0:
264,234,33929,1,2,0:0:0:0:
186,164,34119,37,0,1:0:0:0:
159,161,34214,1,0,0:0:0:0:
133,158,34308,1,0,0:0:0:0:
107,156,34404,1,0,0:0:0:0:
81,153,34499,2,0,L|37:163,2,35,8|0|0,0:0|0:0|0:0,0:0:0:0:
21,67,34879,2,0,L|55:59,2,35,0|0|0,1:0|0:0|0:0,0:0:0:0:
130,9,35258,5,8,0:0:0:0:
156,8,35352,1,0,0:0:0:0:
180,18,35447,1,0,0:0:0:0:
197,37,35542,1,0,0:0:0:0:
206,61,35638,2,0,L|199:131,1,70,0|0,1:0|0:0,0:0:0:0:
305,130,36018,2,0,L|298:199,1,70,8|0,0:0|0:0,0:0:0:0:
218,267,36398,2,0,P|192:243|158:237,1,70,0|0,1:0|0:0,0:0:0:0:
59,269,36777,1,8,0:0:0:0:
62,295,36871,1,0,0:0:0:0:
65,321,36966,1,0,0:0:0:0:
167,349,37157,6,0,L|162:390,2,35,0|0|0,1:0|0:0|0:0,0:0:0:0:
236,269,37537,2,0,L|304:281,1,70,8|0,0:0|0:0,0:0:0:0:
398,342,37917,1,0,1:0:0:0:
398,342,38107,1,0,1:0:0:0:
372,228,38296,1,8,0:0:0:0:
372,228,38486,1,0,1:0:0:0:
458,144,38676,21,4,1:1:0:0:
279,179,39056,38,0,L|299:29,1,140,10|0,0:0|1:0,0:0:0:0:
208,63,39626,1,2,0:0:0:0:
141,0,39815,2,0,P|120:29|117:63,1,70,10|2,0:0|0:0,0:0:0:0:
183,146,40195,2,0,B|189:171|166:222|122:205|115:262,1,140,2|10,1:2|0:0,0:0:0:0:
203,285,40765,2,0,P|231:315|230:351,1,70,2|0,0:0|1:0,0:0:0:0:
150,383,41145,2,0,P|101:354|64:356,1,70,2|8,0:0|0:0,0:0:0:0:
203,285,41524,1,2,0:0:0:0:
313,309,41714,22,0,L|322:381,1,70,0|0,1:0|0:0,0:0:0:0:
422,278,42094,2,0,L|413:350,1,70,8|0,0:0|0:0,0:0:0:0:
342,221,42474,1,0,1:0:0:0:
435,167,42664,2,0,P|474:175|501:205,2,70,2|10|2,0:0|0:0|0:0,0:0:0:0:
342,221,43233,2,0,B|282:226|282:226|277:224|277:224|202:230,1,140,0|8,1:0|0:0,0:0:0:0:
123,275,43803,1,0,0:0:0:0:
12,171,43993,2,0,P|27:201|59:213,1,70,2|2,1:2|0:0,0:0:0:0:
138,168,44372,2,0,L|149:92,1,70,10|2,0:0|0:0,0:0:0:0:
77,20,44752,22,0,P|110:78|176:75,1,140,2|10,1:2|0:0,0:0:0:0:
267,96,45322,2,0,P|330:52|413:46,2,140,2|2|2,0:0|0:0|0:0,0:0:0:0:
205,163,46271,2,0,L|184:311,1,140,0|8,1:0|0:0,0:0:0:0:
122,369,46841,1,2,0:0:0:0:
35,286,47031,2,0,P|59:261|92:253,1,70,2|2,1:2|0:0,0:0:0:0:
185,302,47410,2,0,L|258:291,1,70,10|2,0:0|0:0,0:0:0:0:
396,294,47790,21,2,1:2:0:0:
340,365,47980,1,2,0:0:0:0:
269,309,48170,1,10,0:0:0:0:
319,207,48360,2,0,P|345:183|379:179,1,70,2|0,0:0|1:0,0:0:0:0:
441,250,48739,2,0,P|415:272|380:276,1,70,2|8,0:0|0:0,0:0:0:0:
295,200,49119,1,2,0:0:0:0:
373,90,49309,5,0,1:0:0:0:
398,97,49403,1,0,0:0:0:0:
423,104,49499,1,0,0:0:0:0:
345,186,49689,5,10,0:0:0:0:
320,193,49783,1,0,0:0:0:0:
295,200,49879,1,0,0:0:0:0:
211,125,50069,37,2,1:2:0:0:
107,112,50258,1,0,1:0:0:0:
45,205,50448,37,10,0:0:0:0:
149,192,50637,1,0,1:0:0:0:
130,303,50828,1,4,1:1:0:0:
353,279,51208,22,0,P|350:335|264:341,1,140,10|0,0:0|1:0,0:0:0:0:
149,192,51967,2,0,P|146:248|60:254,1,140,10|0,0:0|1:0,0:0:0:0:
10,199,52537,2,0,P|14:138|52:58,1,140,2|2,0:0|0:0,0:0:0:0:
131,97,53107,2,0,B|185:96|182:44|231:37|268:47,1,140,2|10,1:2|0:0,0:0:0:0:
340,75,53676,1,2,0:0:0:0:
230,203,54056,22,0,P|237:160|254:138,2,70,2|10|2,0:0|0:0|0:0,0:0:0:0:
294,267,54626,2,0,P|341:248|369:250,1,70,2|2,1:2|0:0,0:0:0:0:
437,202,55005,1,10,0:0:0:0:
512,285,55195,2,0,P|504:342|420:349,1,140,2|2,0:0|0:0,0:0:0:0:
277,262,55955,2,0,P|208:222|130:232,1,140,2|2,0:0|0:0,0:0:0:0:
84,287,56524,2,0,P|58:320|22:321,1,70,10|0,0:0|0:0,0:0:0:0:
8,235,56904,1,0,1:0:0:0:
75,146,57094,22,0,L|143:134,2,70,2|10|2,0:0|0:0|0:0,0:0:0:0:
145,41,57664,2,0,P|179:45|206:66,1,70,2|2,1:2|0:0,0:0:0:0:
281,141,58043,2,0,L|300:14,1,105,10|0,0:0|0:0,0:0:0:0:
316,16,58423,2,0,P|349:58|438:49,1,140,2|10,1:2|0:0,0:0:0:0:
502,111,58993,2,0,L|491:180,1,70,2|0,0:0|1:0,0:0:0:0:
395,221,59372,2,0,L|384:151,1,70,2|8,0:0|0:0,0:0:0:0:
453,291,59752,22,0,P|385:256|300:274,1,140,2|0,0:0|0:0,0:0:0:0:
239,226,60322,1,10,0:0:0:0:
123,275,60512,2,0,P|149:297|184:298,1,70,2|0,0:0|1:0,0:0:0:0:
239,226,60891,2,0,L|230:150,1,70,2|8,0:0|0:0,0:0:0:0:
163,94,61271,1,2,0:0:0:0:
78,156,61461,5,0,1:0:0:0:
60,137,61556,1,0,0:0:0:0:
34,131,61651,1,0,0:0:0:0:
106,37,61841,5,8,0:0:0:0:
124,18,61936,1,0,0:0:0:0:
150,12,62031,1,0,0:0:0:0:
262,18,62221,37,0,1:0:0:0:
243,128,62410,1,0,1:0:0:0:
358,56,62600,1,8,0:0:0:0:
340,162,62789,1,0,1:0:0:0:
438,106,62980,22,0,B|461:84|461:84|482:117|496:188|458:243|390:172|355:261|361:301|371:321|371:321|368:326|368:326|398:389|443:388|495:385|534:352|517:290|476:274|443:295,1,587.999982055665,4|2,1:1|0:0,0:0:0:0:
347,353,65828,6,0,B|297:355|298:320|282:293|227:305,1,125.999996154785,2|0,0:0|0:0,0:0:0:0:
158,329,66588,1,2,0:0:0:0:
53,249,66967,2,0,L|11:244,1,41.9999987182618,2|2,0:0|0:0,0:0:0:0:
46,167,67347,2,0,L|175:154,1,125.999996154785,2|2,0:0|0:0,0:0:0:0:
226,90,68107,2,0,P|253:122|255:163,1,83.9999974365235,2|2,0:0|0:3,0:0:0:0:
206,231,68676,1,2,0:3:0:0:
171,154,68866,1,2,0:3:0:0:
321,59,69246,38,0,L|327:11,2,41.9999987182618,2|2|2,0:0|0:0|0:0,0:0:0:0:
400,88,69815,2,0,L|406:40,1,41.9999987182618,2|2,0:0|0:0,0:0:0:0:
479,5,70195,1,2,0:0:0:0:
505,163,70575,2,0,P|479:190|428:200,1,83.9999974365235,2|2,0:0|0:0,0:0:0:0:
358,166,71145,2,0,L|274:160,1,83.9999974365235,2|2,0:0|0:0,0:0:0:0:
111,204,71904,6,0,P|170:209|195:155,1,125.999996154785,2|0,0:0|0:0,0:0:0:0:
137,94,72664,2,0,P|89:89|48:115,1,83.9999974365235,2|2,0:0|0:0,0:0:0:0:
8,173,73233,1,2,0:0:0:0:
8,173,73423,2,0,L|18:272,1,83.9999974365235,2|0,0:0|0:0,0:0:0:0:
26,341,73993,5,2,0:0:0:0:
183,281,74372,1,2,0:0:0:0:
307,366,74752,1,2,0:0:0:0:
451,320,75132,22,0,P|468:305|497:300,2,41.9999987182618,4|2|2,1:1|0:0|0:0,0:0:0:0:
377,278,75702,2,0,B|387:233|361:247|373:195,1,83.9999974365235,2|2,0:0|0:0,0:0:0:0:
434,138,76271,2,0,L|475:130,1,41.9999987182618,2|2,0:0|0:0,0:0:0:0:
362,92,76651,2,0,P|346:77|277:76,1,83.9999974365235,2|2,0:0|0:0,0:0:0:0:
220,124,77221,2,0,P|211:159|130:151,1,125.999996154785,2|2,0:0|0:3,0:0:0:0:
29,57,78170,5,2,0:0:0:0:
29,57,78360,2,0,L|33:98,1,41.9999987182618,2|2,0:0|0:0,0:0:0:0:
109,136,78739,1,2,0:0:0:0:
249,79,79119,2,0,L|239:162,1,83.9999974365235,2|0,0:0|0:0,0:0:0:0:
177,219,79689,2,0,P|156:219|138:229,2,41.9999987182618,2|2|2,0:0|0:0|0:0,0:0:0:0:
257,245,80258,2,0,P|320:274|385:276,1,125.999996154785,2|2,0:0|0:3,0:0:0:0:
463,256,81018,1,2,0:3:0:0:
410,182,81208,38,0,L|420:101,1,70,2|0,3:2|3:0,0:0:0:0:
364,47,81588,1,0,3:0:0:0:
346,45,81682,1,0,3:0:0:0:
329,43,81777,1,0,3:0:0:0:
311,41,81873,1,0,3:0:0:0:
294,39,81968,2,0,L|281:-19,1,35,2|0,3:2|3:0,0:0:0:0:
225,98,82253,5,0,3:0:0:0:
207,100,82347,2,0,L|194:155,4,35,0|0|2|0|2,3:0|3:0|3:2|3:0|3:2,0:0:0:0:
156,33,82917,1,0,3:0:0:0:
82,74,83107,37,0,3:0:0:0:
78,91,83201,1,0,3:0:0:0:
74,108,83296,1,2,3:2:0:0:
69,125,83391,1,0,3:0:0:0:
65,142,83486,2,0,L|10:155,1,35,0|0,3:0|3:0,0:0:0:0:
135,200,83771,5,0,3:0:0:0:
142,216,83866,2,0,L|197:229,3,35,2|0|0|0,3:2|3:0|3:0|3:0,0:0:0:0:
195,242,84246,22,0,B|219:239|219:239|231:223|231:223|312:214,1,125.999996154785,2|0,3:2|3:0,0:0:0:0:
328,195,84626,22,0,B|324:218|324:218|337:234|337:234|323:315,1,125.999996154785,2|0,3:2|3:0,0:0:0:0:
305,338,85005,38,0,B|329:335|329:335|341:319|341:319|422:310,1,125.999996154785,0|0,3:0|3:0,0:0:0:0:
448,326,85385,1,0,3:0:0:0:
452,294,85479,1,0,3:0:0:0:
456,263,85574,1,0,3:0:0:0:
461,232,85669,1,0,3:0:0:0:
465,201,85764,1,4,1:1:0:0:
341,62,86145,22,0,L|313:66,2,28,2|2|2,0:0|0:0|0:0,0:0:0:0:
432,11,86524,37,2,0:3:0:0:
433,8,86714,1,2,0:3:0:0:
485,100,86904,38,0,L|506:117,2,28,2|2|2,0:0|0:0|0:0,0:0:0:0:
381,159,87284,38,0,L|305:171,1,77.0000023498536,4|0,1:1|0:0,0:0:0:0:
274,178,87569,1,0,0:0:0:0:
243,185,87664,2,0,L|227:289,1,77.0000023498536,8|0,0:0|0:0,0:0:0:0:
157,350,88043,21,0,1:0:0:0:
144,325,88137,1,0,0:0:0:0:
121,308,88232,1,0,0:0:0:0:
93,303,88327,1,0,0:0:0:0:
65,310,88423,2,0,L|20:305,2,38.5000011749268,8|0|0,0:0|0:0|0:0,0:0:0:0:
128,212,88803,21,0,1:0:0:0:
132,183,88898,2,0,L|143:106,1,77.0000023498536,0|0,0:0|0:0,0:0:0:0:
273,31,89372,1,0,0:0:0:0:
346,118,89562,21,0,1:0:0:0:
358,145,89656,1,0,0:0:0:0:
380,163,89751,1,0,0:0:0:0:
408,171,89846,1,0,0:0:0:0:
436,166,89942,2,0,L|472:155,2,38.5000011749268,8|0|0,0:0|0:0|0:0,0:0:0:0:
367,259,90322,21,0,1:0:0:0:
338,255,90416,1,0,0:0:0:0:
309,251,90511,1,0,0:0:0:0:
281,247,90606,1,0,0:0:0:0:
252,244,90702,2,0,L|111:225,1,115.50000352478,8|0,0:0|0:0,0:0:0:0:
121,203,91081,2,0,L|114:165,2,38.5000011749268,0|0|0,1:0|0:0|0:0,0:0:0:0:
210,128,91461,21,8,0:0:0:0:
225,104,91555,1,0,0:0:0:0:
225,75,91650,1,0,0:0:0:0:
209,52,91745,1,0,0:0:0:0:
183,43,91841,2,0,L|145:49,2,38.5000011749268,2|0|0,1:3|0:0|0:0,0:0:0:0:
298,23,92221,2,0,L|335:16,2,38.5000011749268,8|0|0,0:0|0:0|0:0,0:0:0:0:
372,119,92600,2,0,L|409:112,2,38.5000011749268,2|0|0,1:3|0:0|0:0,0:0:0:0:
257,139,92980,21,8,0:0:0:0:
253,167,93074,1,0,0:0:0:0:
250,196,93169,1,0,0:0:0:0:
247,225,93264,1,0,0:0:0:0:
243,253,93360,1,2,1:2:0:0:
343,313,93550,22,0,B|353:307|353:307|351:294,3,25.6666674499512,2|2|2|10,0:0|0:0|0:0|0:0,0:0:0:0:
326,171,93929,2,0,B|323:159|323:159|310:158,3,25.6666674499512,2|2|2|2,0:0|0:0|0:0|1:2,0:0:0:0:
184,150,94309,2,0,B|172:149|172:149|167:161,3,25.6666674499512,2|2|2|10,0:0|0:0|0:0|0:0,0:0:0:0:
243,253,94689,1,2,0:0:0:0:
169,342,94879,21,0,1:0:0:0:
140,353,94974,2,0,P|106:334|68:333,1,77.0000023498536,0|0,0:0|0:0,0:0:0:0:
18,246,95353,2,0,L|96:236,1,77.0000023498536,0|0,0:0|0:0,0:0:0:0:
115,213,95638,2,0,L|122:175,2,38.5000011749268,0|0|0,1:0|0:0|0:0,0:0:0:0:
228,186,96018,21,8,0:0:0:0:
256,185,96113,1,0,0:0:0:0:
283,195,96207,1,0,0:0:0:0:
303,215,96302,1,0,0:0:0:0:
314,242,96398,2,0,L|330:346,1,77.0000023498536,0|0,1:0|0:0,0:0:0:0:
442,367,96777,21,8,0:0:0:0:
442,367,96872,1,0,0:0:0:0:
442,367,96967,1,0,0:0:0:0:
481,258,97157,2,0,L|521:250,2,38.5000011749268,0|0|0,1:0|0:0|0:0,0:0:0:0:
394,180,97537,21,8,0:0:0:0:
374,159,97631,1,0,0:0:0:0:
348,146,97726,1,0,0:0:0:0:
320,143,97821,1,0,0:0:0:0:
292,150,97917,2,0,L|250:163,2,35,0|0|0,1:0|0:0|0:0,0:0:0:0:
322,236,98296,6,0,L|310:329,1,70,8|0,0:0|0:0,0:0:0:0:
236,356,98676,1,0,1:0:0:0:
235,360,98866,1,0,1:0:0:0:
151,324,99056,2,0,L|116:331,2,35,8|0|0,0:0|0:0|1:0,0:0:0:0:
209,247,99436,22,0,P|199:207|105:195,1,140,4|8,1:1|0:0,0:0:0:0:
24,213,100005,1,0,0:0:0:0:
35,122,100195,2,0,L|47:28,1,70,0|0,1:0|0:0,0:0:0:0:
123,98,100575,2,0,L|135:4,1,70,8|0,0:0|0:0,0:0:0:0:
220,6,100955,22,0,L|261:10,1,35,0|0,1:0|0:0,0:0:0:0:
317,75,101239,1,0,0:0:0:0:
214,165,101524,1,0,0:0:0:0:
276,248,101714,21,0,1:0:0:0:
297,227,101808,1,0,0:0:0:0:
322,214,101903,1,0,0:0:0:0:
350,209,101998,1,0,0:0:0:0:
379,213,102094,2,0,L|417:220,2,38.5000011749268,8|0|0,0:0|0:0|0:0,0:0:0:0:
444,130,102474,37,0,1:0:0:0:
451,104,102569,1,0,0:0:0:0:
446,79,102663,1,0,0:0:0:0:
431,58,102758,1,0,0:0:0:0:
409,45,102853,2,0,L|306:26,1,105,8|0,0:0|0:0,0:0:0:0:
291,50,103233,2,0,L|296:84,2,35,0|0|0,1:0|0:0|0:0,0:0:0:0:
195,6,103613,21,8,0:0:0:0:
189,31,103707,1,0,0:0:0:0:
183,57,103802,1,0,0:0:0:0:
177,82,103897,1,0,0:0:0:0:
171,108,103993,2,0,L|128:113,2,35,2|0|0,1:3|0:0|0:0,0:0:0:0:
262,162,104372,2,0,L|305:157,2,35,8|0|0,0:0|0:0|0:0,0:0:0:0:
158,207,104752,2,0,L|114:211,2,35,2|0|0,1:3|0:0|0:0,0:0:0:0:
249,275,105132,21,8,0:0:0:0:
274,279,105226,1,0,0:0:0:0:
300,284,105321,1,0,0:0:0:0:
326,288,105416,1,0,0:0:0:0:
352,293,105512,38,0,P|397:276|427:278,1,70,4|0,1:1|3:0,0:0:0:0:
495,225,105891,1,0,3:0:0:0:
502,213,105986,1,0,3:0:0:0:
396,169,106176,1,0,3:0:0:0:
406,179,106271,2,0,L|395:93,1,70,0|0,3:0|3:0,0:0:0:0:
296,36,106651,5,0,3:0:0:0:
301,23,106746,1,0,3:0:0:0:
217,101,106936,1,0,3:0:0:0:
222,114,107031,1,0,3:0:0:0:
119,63,107221,1,0,3:0:0:0:
39,127,107410,5,0,3:0:0:0:
49,142,107504,1,0,3:0:0:0:
56,158,107599,1,0,3:0:0:0:
61,175,107694,1,0,3:0:0:0:
64,192,107790,2,0,L|69:239,1,35,0|0,3:0|3:0,0:0:0:0:
126,297,108075,5,0,3:0:0:0:
143,293,108170,2,0,L|177:288,3,35,0|0|0|0,3:0|3:0|3:0|3:0,0:0:0:0:
194,269,108550,22,0,P|242:339|287:331,1,125.999996154785,0|0,3:0|3:0,0:0:0:0:
297,347,108929,22,0,P|357:341|383:287,1,125.999996154785,0|0,3:0|3:0,0:0:0:0:
399,267,109309,38,0,P|396:185|299:193,1,167.999994873047,0|0,3:0|3:0,0:0:0:0:
304,188,109784,1,0,3:0:0:0:
283,191,109879,1,0,3:0:0:0:
262,194,109973,1,0,3:0:0:0:
243,211,110069,6,0,P|160:241|178:97,1,293.999991027832,0|0,3:0|3:0,0:0:0:0:
192,81,110828,5,0,1:0:0:0:
294,128,111018,1,0,1:0:0:0:
365,42,111208,1,8,0:0:0:0:
389,30,111302,1,0,0:0:0:0:
415,28,111397,1,0,1:0:0:0:
508,92,111588,21,4,1:1:0:0:
