osu file format v14

[General]
AudioFilename: audio.mp3
AudioLeadIn: 0
PreviewTime: 13518
Countdown: 0
SampleSet: Soft
StackLeniency: 0.7
Mode: 0
LetterboxInBreaks: 0
WidescreenStoryboard: 1

[Editor]
Bookmarks: 2214,4872
DistanceSpacing: 1
BeatDivisor: 4
GridSize: 32
TimelineZoom: 1.6

[Metadata]
Title:refrain
TitleUnicode:refrain
Artist:dj TAKA feat. AiMEE
ArtistUnicode:dj TAKA feat. AiMEE
Creator:Firika
Version:Hard
Source:REFLEC BEAT groovin'!!
Tags:Oiso Nemodoko thanh_nemo video game electronic English trance beatmania IIDX 23 copula REFLEC BEAT plus MUSIC PACK 71 bemani konami Takayuki Ishikawa 石川貴之
BeatmapID:2963824
BeatmapSetID:1440543

[Difficulty]
HPDrainRate:4
CircleSize:3.5
OverallDifficulty:6
ApproachRate:7.5
SliderMultiplier:1.2
SliderTickRate:1

[Events]
//Background and Video events
0,0,"12321.jpg",0,0
//Break Periods
//Storyboard Layer 0 (Background)
//Storyboard Layer 1 (Fail)
//Storyboard Layer 2 (Pass)
//Storyboard Layer 3 (Foreground)
//Storyboard Layer 4 (Overlay)
//Storyboard Sound Samples

[TimingPoints]
1063,392.156862745098,4,2,1,30,1,0
1063,-142.857142857143,4,2,1,30,0,0
2221,379.746835443038,4,2,1,50,1,0
2221,-125,4,2,1,50,0,0
8297,-100,4,2,1,60,0,0
13613,-125,4,2,1,50,0,0
14372,-100,4,2,2,70,0,0
38676,-100,4,2,1,65,0,0
39056,-100,4,2,1,65,0,0
62980,-111.111111111111,4,2,1,50,0,0
81208,-100,4,2,1,65,0,0
86145,-100,4,2,1,50,0,0
87284,-90.9090909090909,4,2,2,75,0,0
97917,-100,4,2,2,65,0,0
99436,-100,4,2,2,60,0,0
100955,-100,4,2,2,65,0,0
102474,-90.9090909090909,4,2,2,75,0,0
105512,-100,4,2,2,65,0,0
110828,-100,4,2,2,75,0,0

[Colours]
Combo1 : 75,243,243
Combo2 : 128,191,255
Combo3 : 64,112,255
Combo4 : 159,159,159

[HitObjects]
471,223,1063,38,0,P|467:182|444:148,2,83.9999974365235,2|2|2,0:0|0:0|0:0,0:0:0:0:
368,321,2221,22,0,B|265:161|26:212|26:212|85:144|206:148,1,576,4|0,0:1|0:0,0:0:0:0:
319,67,4879,5,2,0:0:0:0:
395,97,5069,2,0,P|384:285|199:230,1,432,2|0,0:0|0:0,0:0:0:0:
68,90,7727,6,0,L|12:99,2,48,2|2|2,0:3|0:3|0:3,0:0:0:0:
153,42,8296,21,0,3:0:0:0:
153,42,8486,1,0,3:0:0:0:
222,98,8676,2,0,P|278:100|315:44,1,120,0|0,3:0|3:0,0:0:0:0:
328,41,9151,1,0,3:0:0:0:
411,73,9341,5,0,3:0:0:0:
427,65,9436,2,0,L|411:193,1,120,0|0,3:0|3:0,0:0:0:0:
466,256,10005,1,0,3:0:0:0:
397,313,10195,38,0,P|341:311|304:367,1,120,0|0,3:0|3:0,0:0:0:0:
292,371,10670,1,0,3:0:0:0:
210,333,10860,5,0,3:0:0:0:
199,319,10955,2,0,L|139:313,1,60,0|0,3:0|3:0,0:0:0:0:
62,265,11334,22,0,B|57:231|57:231|53:228|53:228|42:157,1,90,0|0,3:0|3:0,0:0:0:0:
42,160,11714,22,0,B|76:165|76:165|79:169|79:169|150:180,1,90,0|0,3:0|3:0,0:0:0:0:
142,190,12094,38,0,B|148:147|148:147|153:143|153:143|164:73,1,120,0|0,3:0|3:0,0:0:0:0:
95,14,12664,1,0,3:0:0:0:
77,17,12758,1,0,3:0:0:0:
60,21,12853,1,4,1:1:0:0:
371,73,13613,22,0,L|347:78,1,24,2|2,0:0|0:0,0:0:0:0:
266,48,13898,2,0,L|253:130,1,72,2|2,0:0|0:0,0:0:0:0:
292,200,14372,21,4,1:1:0:0:
307,210,14467,1,0,0:0:0:0:
391,179,14657,2,0,P|438:185|466:217,1,90,0|0,0:0|0:0,0:0:0:0:
485,303,15132,1,0,1:0:0:0:
470,313,15227,1,0,0:0:0:0:
385,281,15417,2,0,P|342:286|311:318,1,90,0|0,0:0|0:0,0:0:0:0:
238,370,15891,5,0,1:0:0:0:
223,360,15986,1,0,0:0:0:0:
135,338,16176,2,0,L|35:355,1,90,0|0,0:0|0:0,0:0:0:0:
0,274,16651,2,0,B|18:255|18:255|111:240,1,120,0|8,1:0|0:0,0:0:0:0:
168,170,17221,1,0,0:0:0:0:
249,206,17410,38,0,B|250:259|297:258|294:336,1,120,0|8,1:0|0:0,0:0:0:0:
378,346,17980,1,0,0:0:0:0:
465,370,18170,1,0,1:0:0:0:
481,362,18265,1,0,0:0:0:0:
497,354,18360,2,0,P|490:301|421:282,1,120,0|0,0:0|0:0,0:0:0:0:
358,228,18929,6,0,L|373:106,1,120,0|8,1:0|0:0,0:0:0:0:
316,38,19499,1,0,0:0:0:0:
227,52,19689,2,0,L|212:171,1,120,0|8,1:0|0:0,0:0:0:0:
35,134,20448,38,0,P|47:75|105:60,1,120,0|8,1:0|0:0,0:0:0:0:
187,41,21018,1,2,0:0:0:0:
250,105,21208,2,0,P|312:135|378:131,1,120,0|8,1:0|0:0,0:0:0:0:
442,176,21777,1,2,0:0:0:0:
503,110,21967,6,0,P|502:62|429:38,1,120,0|8,1:0|0:0,0:0:0:0:
354,54,22537,1,0,0:0:0:0:
272,91,22727,2,0,P|251:152|254:219,1,120,0|8,1:0|0:0,0:0:0:0:
288,288,23296,1,0,0:0:0:0:
366,243,23486,38,0,P|412:237|489:272,2,120,0|8|0,1:0|0:0|1:0,0:0:0:0:
227,358,24626,2,0,L|166:351,1,60,8|0,0:0|0:0,0:0:0:0:
93,300,25005,5,0,1:0:0:0:
75,302,25099,1,0,0:0:0:0:
57,304,25194,1,0,0:0:0:0:
3,231,25385,2,0,P|28:201|59:196,1,60,8|0,0:0|0:0,0:0:0:0:
134,218,25765,5,0,1:0:0:0:
160,119,25955,1,0,1:0:0:0:
259,145,26145,1,8,0:0:0:0:
233,244,26334,1,0,1:0:0:0:
332,218,26524,21,4,1:1:0:0:
350,213,26619,1,0,0:0:0:0:
433,247,26809,2,0,L|445:153,1,90,0|0,0:0|0:0,0:0:0:0:
393,82,27284,1,0,1:0:0:0:
375,87,27379,1,0,0:0:0:0:
292,53,27569,2,0,L|280:147,1,90,0|0,0:0|0:0,0:0:0:0:
199,181,28043,5,0,1:0:0:0:
181,176,28138,1,0,0:0:0:0:
117,112,28328,2,0,P|65:115|32:150,1,90,0|0,0:0|0:0,0:0:0:0:
5,223,28803,2,0,P|38:266|45:340,1,120,0|8,1:0|0:0,0:0:0:0:
124,375,29372,1,0,0:0:0:0:
185,309,29562,38,0,P|255:294|305:309,1,120,0|8,1:0|0:0,0:0:0:0:
379,350,30132,1,0,0:0:0:0:
443,286,30322,1,0,1:0:0:0:
448,268,30417,1,0,0:0:0:0:
453,250,30512,2,0,L|322:265,1,120,0|0,0:0|0:0,0:0:0:0:
286,187,31081,6,0,L|155:202,1,120,0|8,1:0|0:0,0:0:0:0:
77,215,31651,1,0,0:0:0:0:
7,157,31841,2,0,P|9:107|69:85,1,120,0|8,1:0|0:0,0:0:0:0:
248,79,32600,38,0,P|264:119|259:213,1,120,0|8,1:0|0:0,0:0:0:0:
225,276,33170,1,2,0:0:0:0:
143,237,33360,2,0,P|82:241|38:291,1,120,0|8,1:0|0:0,0:0:0:0:
64,368,33929,1,2,0:0:0:0:
154,374,34119,6,0,L|273:360,1,120,0|8,1:0|0:0,0:0:0:0:
346,307,34689,1,0,0:0:0:0:
428,342,34879,2,0,P|437:313|432:284,1,60,0|0,1:0|0:0,0:0:0:0:
368,220,35258,2,0,P|358:191|363:162,1,60,8|0,0:0|0:0,0:0:0:0:
444,121,35638,38,0,P|499:111|484:44,2,120,0|8|0,1:0|0:0|1:0,0:0:0:0:
281,42,36777,2,0,L|270:111,1,60,8|0,0:0|0:0,0:0:0:0:
205,163,37157,5,0,1:0:0:0:
187,166,37251,1,0,0:0:0:0:
169,169,37346,1,0,0:0:0:0:
84,136,37537,2,0,P|59:178|65:206,1,60,8|0,0:0|0:0,0:0:0:0:
90,272,37917,5,0,1:0:0:0:
191,286,38107,1,0,1:0:0:0:
280,237,38296,1,8,0:0:0:0:
381,251,38486,1,0,1:0:0:0:
411,361,38676,21,4,1:1:0:0:
280,237,39056,38,0,L|300:93,1,120,10|0,0:0|1:0,0:0:0:0:
258,35,39626,1,2,0:0:0:0:
342,6,39815,2,0,P|369:15|388:39,1,60,10|2,0:0|0:0,0:0:0:0:
469,78,40195,2,0,L|452:196,1,120,2|10,1:2|0:0,0:0:0:0:
384,256,40765,2,0,B|328:263|332:224|269:232,1,120,2|2,0:0|0:0,0:0:0:0:
108,314,41524,1,2,0:0:0:0:
31,266,41714,22,0,P|28:215|-3:149,2,120,0|8|0,1:0|0:0|1:0,0:0:0:0:
111,222,42664,2,0,P|139:212|169:213,1,60,2|10,0:0|0:0,0:0:0:0:
250,251,43043,2,0,P|315:311|402:304,1,180,2|8,0:0|0:0,0:0:0:0:
484,143,43993,1,2,1:2:0:0:
409,192,44183,1,2,0:0:0:0:
327,155,44372,2,0,L|333:91,1,60,10|2,0:0|0:0,0:0:0:0:
267,31,44752,22,0,P|224:70|158:74,1,120,2|10,1:2|0:0,0:0:0:0:
82,35,45322,2,0,P|42:38|9:107,1,120,2|2,0:0|0:0,0:0:0:0:
74,270,46081,1,2,0:0:0:0:
154,309,46271,2,0,P|175:234|209:198,1,120,0|8,1:0|0:0,0:0:0:0:
287,174,46841,1,2,0:0:0:0:
351,237,47031,2,0,L|424:245,1,60,2|2,1:2|0:0,0:0:0:0:
489,199,47410,2,0,L|481:126,1,60,10|2,0:0|0:0,0:0:0:0:
420,73,47790,22,0,P|448:51|496:54,2,60,2|2|10,1:2|0:0|0:0,0:0:0:0:
332,48,48360,2,0,L|198:60,1,120,2|2,0:0|0:0,0:0:0:0:
55,146,49119,1,2,0:0:0:0:
130,196,49310,21,0,1:0:0:0:
133,214,49404,1,0,0:0:0:0:
136,232,49499,1,0,0:0:0:0:
213,277,49689,2,0,P|238:262|275:267,1,60,10|0,0:0|0:0,0:0:0:0:
341,315,50069,37,2,1:2:0:0:
440,292,50258,1,0,1:0:0:0:
376,212,50449,1,10,0:0:0:0:
475,189,50638,1,0,1:0:0:0:
510,86,50828,21,4,1:1:0:0:
344,15,51208,38,0,P|352:65|283:103,1,120,10|0,0:0|1:0,0:0:0:0:
122,111,51967,2,0,P|140:63|218:65,1,120,10|0,0:0|1:0,0:0:0:0:
272,112,52537,2,0,L|256:253,1,120,2|2,0:0|0:0,0:0:0:0:
325,293,53107,2,0,P|351:279|391:281,1,60,2|2,1:2|0:0,0:0:0:0:
457,326,53486,1,10,0:0:0:0:
377,368,53676,1,2,0:0:0:0:
258,231,54056,22,0,P|213:209|181:210,1,60,2|10,0:0|0:0,0:0:0:0:
133,264,54436,1,2,0:0:0:0:
52,223,54626,2,0,L|42:148,1,60,2|2,1:2|0:0,0:0:0:0:
30,74,55005,1,10,0:0:0:0:
115,107,55195,2,0,P|165:60|236:76,1,120,2|2,0:0|0:0,0:0:0:0:
335,194,55955,2,0,P|276:192|237:149,1,120,2|2,0:0|0:0,0:0:0:0:
300,84,56524,2,0,P|361:85|428:114,1,120,10|0,0:0|1:0,0:0:0:0:
473,175,57094,22,0,L|483:245,1,60,2|10,0:0|0:0,0:0:0:0:
441,315,57474,1,2,0:0:0:0:
360,274,57664,2,0,L|300:265,1,60,2|2,1:2|0:0,0:0:0:0:
239,331,58043,2,0,P|196:360|134:361,1,90,10|0,0:0|0:0,0:0:0:0:
143,354,58423,2,0,P|125:298|78:263,1,120,2|10,1:2|0:0,0:0:0:0:
40,181,58993,2,0,B|53:168|53:168|153:182,1,120,2|2,0:0|0:0,0:0:0:0:
328,139,59752,22,0,L|335:258,1,120,2|0,0:0|0:0,0:0:0:0:
409,312,60322,1,10,0:0:0:0:
338,368,60512,2,0,P|307:338|228:340,1,120,2|2,0:0|0:0,0:0:0:0:
59,293,61271,1,2,0:0:0:0:
132,240,61461,21,0,1:0:0:0:
150,243,61555,1,0,0:0:0:0:
168,246,61650,1,0,0:0:0:0:
246,200,61841,2,0,L|237:120,1,60,8|0,0:0|0:0,0:0:0:0:
297,71,62221,37,0,1:0:0:0:
398,83,62410,1,0,1:0:0:0:
354,175,62600,1,8,0:0:0:0:
455,187,62789,1,0,1:0:0:0:
437,307,62980,22,0,B|392:339|332:324|283:296|336:191|126:192|60:309|60:309|16:314|16:314|91:153,1,647.99998022461,4|0,1:1|0:0,0:0:0:0:
241,109,65638,5,2,0:0:0:0:
295,169,65828,2,0,B|369:177|356:111|443:121,1,161.999995056153,2|0,0:0|0:0,0:0:0:0:
505,174,66588,2,0,P|500:240|453:265,1,107.999996704102,2|2,0:0|0:0,0:0:0:0:
396,293,67157,1,2,0:0:0:0:
396,293,67347,2,0,P|335:269|285:272,1,107.999996704102,2|0,0:0|0:0,0:0:0:0:
224,310,67917,1,2,0:0:0:0:
224,310,68107,2,0,P|188:348|135:353,1,107.999996704102,2|2,0:0|0:3,0:0:0:0:
65,312,68676,2,0,P|40:289|11:287,1,53.9999983520508,2|2,0:3|0:3,0:0:0:0:
160,199,69246,37,2,0:0:0:0:
160,199,69436,2,0,L|227:189,1,53.9999983520508,2|2,0:0|0:0,0:0:0:0:
280,236,69815,2,0,L|347:226,1,53.9999983520508,2|2,0:0|0:0,0:0:0:0:
400,273,70195,2,0,P|438:245|506:242,1,107.999996704102,2|2,0:0|0:0,0:0:0:0:
387,127,70955,1,2,0:0:0:0:
387,127,71145,2,0,L|405:16,1,107.999996704102,2|2,0:0|0:0,0:0:0:0:
247,62,71904,6,0,B|176:71|202:116|148:138|106:127,1,161.999995056153,2|0,0:0|0:0,0:0:0:0:
43,77,72664,2,0,P|24:126|42:175,1,107.999996704102,2|2,0:0|0:0,0:0:0:0:
108,230,73233,1,2,0:0:0:0:
108,230,73423,2,0,P|189:205|233:208,1,107.999996704102,2|0,0:0|0:0,0:0:0:0:
286,236,73993,5,2,0:0:0:0:
346,63,74372,1,2,0:0:0:0:
453,213,74752,1,2,0:0:0:0:
384,359,75132,22,0,P|410:340|433:340,2,53.9999983520508,4|2|2,1:1|0:0|0:0,0:0:0:0:
311,321,75702,2,0,L|197:311,1,107.999996704102,2|2,0:0|0:0,0:0:0:0:
129,344,76271,2,0,L|75:339,1,53.9999983520508,2|2,0:0|0:0,0:0:0:0:
8,293,76651,2,0,P|13:246|82:221,1,107.999996704102,2|2,0:0|0:0,0:0:0:0:
130,173,77221,2,0,B|147:66|147:66|91:91,1,161.999995056153,2|2,0:0|0:3,0:0:0:0:
224,218,78170,6,0,L|215:273,2,53.9999983520508,2|2|2,0:0|0:0|0:0,0:0:0:0:
292,174,78739,2,0,L|345:164,1,53.9999983520508,2|0,0:0|0:0,0:0:0:0:
423,185,79119,2,0,L|438:77,1,107.999996704102,2|0,0:0|0:0,0:0:0:0:
384,16,79689,2,0,L|330:25,1,53.9999983520508,2|2,0:0|0:0,0:0:0:0:
271,81,80069,1,2,0:0:0:0:
271,81,80258,2,0,P|225:90|168:40,1,107.999996704102,2|2,0:0|0:3,0:0:0:0:
29,128,81018,1,2,0:3:0:0:
113,172,81208,37,2,3:2:0:0:
113,172,81398,1,0,3:0:0:0:
173,238,81588,2,0,L|302:214,1,120,0|2,3:0|3:2,0:0:0:0:
301,201,82062,1,0,3:0:0:0:
370,257,82252,5,0,3:0:0:0:
380,272,82347,2,0,P|412:281|474:211,1,120,0|2,3:0|3:2,0:0:0:0:
424,155,82917,1,0,3:0:0:0:
442,66,83107,38,0,L|313:90,1,120,0|0,3:0|3:0,0:0:0:0:
314,103,83581,1,0,3:0:0:0:
240,50,83771,5,0,3:0:0:0:
230,34,83866,2,0,P|199:18|160:24,1,60,2|0,3:2|3:0,0:0:0:0:
95,63,84246,22,0,B|90:97|90:97|86:100|86:100|75:171,1,90,2|0,3:2|3:0,0:0:0:0:
75,168,84626,22,0,B|109:163|109:163|112:159|112:159|183:148,1,90,2|0,3:2|3:0,0:0:0:0:
175,138,85006,38,0,B|181:181|181:181|186:185|186:185|197:255,1,120,0|0,3:0|3:0,0:0:0:0:
188,270,85480,1,0,3:0:0:0:
185,287,85574,1,0,3:0:0:0:
182,305,85669,1,0,3:0:0:0:
179,323,85764,1,4,1:1:0:0:
358,344,86145,22,0,L|351:373,2,30,2|2|2,0:0|0:0|0:0,0:0:0:0:
333,257,86524,38,0,L|404:249,1,60,2|2,0:3|0:3,0:0:0:0:
466,198,86904,38,0,L|472:168,2,30,2|2|2,0:0|0:0|0:0,0:0:0:0:
409,111,87284,38,0,L|343:118,1,66.0000020141602,4|0,1:1|0:0,0:0:0:0:
327,107,87569,1,0,0:0:0:0:
311,96,87664,1,8,0:0:0:0:
238,160,87853,1,0,0:0:0:0:
238,160,87948,1,0,0:0:0:0:
238,160,88043,2,0,L|212:305,1,132.00000402832,0|8,1:0|0:0,0:0:0:0:
146,362,88613,1,0,0:0:0:0:
53,326,88803,21,0,1:0:0:0:
50,306,88898,1,0,0:0:0:0:
118,234,89088,2,0,L|135:136,1,99.0000030212403,0|0,0:0|0:0,0:0:0:0:
62,69,89562,2,0,L|27:76,2,33.0000010070801,0|0|0,1:0|0:0|0:0,0:0:0:0:
152,27,89942,1,8,0:0:0:0:
171,30,90036,1,0,0:0:0:0:
190,34,90131,1,0,0:0:0:0:
253,110,90322,22,0,P|290:163|353:177,1,132.00000402832,0|8,1:0|0:0,0:0:0:0:
347,79,90891,1,0,0:0:0:0:
434,31,91081,2,0,L|438:-1,2,33.0000010070801,0|0|0,1:0|0:0|0:0,0:0:0:0:
498,107,91461,2,0,L|489:172,1,66.0000020141602,8|0,0:0|0:0,0:0:0:0:
474,270,91841,22,0,B|405:274|430:327|367:336,1,132.00000402832,2|8,1:3|0:0,0:0:0:0:
281,285,92410,1,0,0:0:0:0:
218,361,92600,1,2,1:3:0:0:
198,357,92695,1,0,0:0:0:0:
179,354,92789,1,0,0:0:0:0:
93,302,92980,2,0,P|57:311|28:338,1,66.0000020141602,8|0,0:0|0:0,0:0:0:0:
181,253,93360,22,0,L|200:122,1,132.00000402832,0|8,1:0|0:0,0:0:0:0:
144,40,93929,1,2,0:0:0:0:
236,4,94119,2,0,P|293:31|320:93,1,132.00000402832,0|8,1:0|0:0,0:0:0:0:
284,184,94689,1,2,0:0:0:0:
357,250,94879,21,0,1:0:0:0:
376,244,94974,1,0,0:0:0:0:
470,212,95164,2,0,L|457:310,1,99.0000030212403,0|0,0:0|0:0,0:0:0:0:
364,342,95638,2,0,L|359:374,2,33.0000010070801,0|0|0,1:0|0:0|0:0,0:0:0:0:
274,297,96018,1,8,0:0:0:0:
254,301,96113,1,0,0:0:0:0:
235,304,96207,1,0,0:0:0:0:
161,236,96398,22,0,B|171:168|208:189|217:120,1,132.00000402832,0|8,1:0|0:0,0:0:0:0:
186,25,96967,1,0,0:0:0:0:
93,60,97157,2,0,L|105:141,1,66.0000020141602,0|0,1:0|0:0,0:0:0:0:
36,199,97537,2,0,L|45:264,1,66.0000020141602,8|0,0:0|0:0,0:0:0:0:
117,319,97917,6,0,L|112:356,2,30,0|0|0,1:0|0:0|0:0,0:0:0:0:
195,275,98296,2,0,L|268:262,1,60,8|0,0:0|0:0,0:0:0:0:
348,259,98676,1,0,1:0:0:0:
348,259,98866,1,0,1:0:0:0:
413,197,99056,2,0,L|418:160,2,30,8|0|0,0:0|0:0|1:0,0:0:0:0:
491,254,99436,22,0,P|487:339|447:356,1,120,4|8,1:1|0:0,0:0:0:0:
380,376,100005,1,0,0:0:0:0:
380,376,100195,2,0,P|323:348|262:355,1,120,0|8,1:0|0:0,0:0:0:0:
197,296,100765,1,0,0:0:0:0:
258,230,100955,22,0,L|265:180,1,30,0|0,1:0|0:0,0:0:0:0:
180,162,101239,2,0,L|167:72,1,90,0|0,0:0|0:0,0:0:0:0:
254,30,101714,2,0,L|261:-20,2,30,0|0|0,1:0|0:0|0:0,0:0:0:0:
323,105,102094,1,8,0:0:0:0:
323,105,102284,1,0,0:0:0:0:
424,73,102474,38,0,B|446:101|446:101|431:196,1,132.00000402832,0|8,1:0|0:0,0:0:0:0:
361,266,103043,1,0,0:0:0:0:
281,207,103233,1,0,1:0:0:0:
261,204,103327,1,0,0:0:0:0:
241,201,103422,1,0,0:0:0:0:
154,153,103613,2,0,P|168:125|198:111,1,66.0000020141602,8|0,0:0|0:0,0:0:0:0:
224,15,103993,22,0,L|77:32,1,132.00000402832,2|8,1:3|0:0,0:0:0:0:
4,75,104562,1,0,0:0:0:0:
75,144,104752,2,0,L|64:211,1,66.0000020141602,2|0,1:3|0:0,0:0:0:0:
149,260,105132,2,0,L|159:194,1,66.0000020141602,8|0,0:0|0:0,0:0:0:0:
243,139,105512,5,4,1:1:0:0:
243,139,105702,1,0,3:0:0:0:
322,181,105891,1,0,3:0:0:0:
340,177,105986,2,0,L|411:160,1,60,0|0,3:0|3:0,3:0:0:0:
416,158,106271,1,0,3:0:0:0:
501,188,106461,5,0,3:0:0:0:
476,274,106651,2,0,L|447:266,1,30,0|0,3:0|3:0,0:0:0:0:
365,304,106936,1,0,3:0:0:0:
348,298,107031,2,0,L|359:379,1,60,0|0,3:0|3:0,0:0:0:0:
249,343,107410,6,0,L|232:224,1,120,0|0,3:0|3:0,0:0:0:0:
240,207,107885,1,0,3:0:0:0:
154,177,108075,5,0,3:0:0:0:
137,170,108170,2,0,B|127:95,1,60,0|0,3:0|3:0,0:0:0:0:
188,42,108550,22,0,B|222:38|222:38|225:34|225:34|296:25,1,90,0|0,3:0|3:0,0:0:0:0:
294,26,108930,22,0,B|287:59|287:59|283:62|283:62|270:133,1,90,0|0,3:0|3:0,0:0:0:0:
261,124,109310,38,0,B|303:131|303:131|307:136|307:136|377:150,1,120,0|0,3:0|3:0,0:0:0:0:
389,163,109784,1,0,3:0:0:0:
401,176,109879,1,0,3:0:0:0:
413,189,109974,1,0,3:0:0:0:
425,202,110069,6,0,L|443:333,1,120,0|0,3:0|3:0,0:0:0:0:
267,368,110828,5,0,1:0:0:0:
290,269,111017,1,0,1:0:0:0:
188,281,111208,1,8,0:0:0:0:
211,182,111397,1,0,1:0:0:0:
318,141,111588,21,4,1:1:0:0:
