osu file format v14

[General]
AudioFilename: audio.mp3
AudioLeadIn: 0
PreviewTime: 13518
Countdown: 0
SampleSet: Soft
StackLeniency: 0.3
Mode: 0
LetterboxInBreaks: 0
WidescreenStoryboard: 1

[Editor]
Bookmarks: 2214,4872
DistanceSpacing: 1
BeatDivisor: 4
GridSize: 16
TimelineZoom: 2

[Metadata]
Title:refrain
TitleUnicode:refrain
Artist:dj TAKA feat. AiMEE
ArtistUnicode:dj TAKA feat. AiMEE
Creator:Firika
Version:Extra
Source:REFLEC BEAT groovin'!!
Tags:Oiso Nemodoko thanh_nemo video game electronic English trance beatmania IIDX 23 copula REFLEC BEAT plus MUSIC PACK 71 bemani konami Takayuki Ishikawa 石川貴之
BeatmapID:2965939
BeatmapSetID:1440543

[Difficulty]
HPDrainRate:6
CircleSize:3.6
OverallDifficulty:8.2
ApproachRate:9.2
SliderMultiplier:2
SliderTickRate:1

[Events]
//Background and Video events
0,0,"12321.jpg",0,0
//Break Periods
//Storyboard Layer 0 (Background)
//Storyboard Layer 1 (Fail)
//Storyboard Layer 2 (Pass)
//Storyboard Layer 3 (Foreground)
//Storyboard Layer 4 (Overlay)
//Storyboard Sound Samples

[TimingPoints]
1063,392.156862745098,4,2,1,30,1,0
1063,-125,4,2,1,30,0,0
1357,-125,4,2,1,5,0,0
1455,-125,4,2,1,30,0,0
1749,-125,4,2,1,5,0,0
1847,-125,4,2,1,30,0,0
2141,-125,4,2,1,5,0,0
2221,379.746835443038,4,2,1,50,1,0
2221,-249.999999999999,4,2,1,50,0,0
7727,-166.666666666666,4,2,1,50,0,0
8296,-100,4,2,1,60,0,0
11334,-83.3333333333333,4,2,1,60,0,0
12569,-166.666666666667,4,2,1,60,0,0
13613,-125,4,2,1,50,0,0
14372,-66.6666666666667,4,2,2,70,0,0
14942,-133.333333333333,4,2,2,70,0,0
15132,-66.6666666666667,4,2,2,70,0,0
15702,-133.333333333333,4,2,2,70,0,0
15891,-66.6666666666667,4,2,2,70,0,0
16461,-133.333333333333,4,2,2,70,0,0
16651,-66.6666666666667,4,2,2,70,0,0
16841,-133.333333333333,4,2,2,70,0,0
17031,-83.3333333333333,4,2,2,70,0,0
17221,-66.6666666666667,4,2,2,70,0,0
18929,-55.5555555555556,4,2,2,70,0,0
19119,-83.3333333333333,4,2,2,70,0,0
19309,-66.6666666666667,4,2,2,70,0,0
19499,-100,4,2,2,70,0,0
20069,-66.6666666666667,4,2,2,70,0,0
20258,-50,4,2,2,70,0,0
20448,-66.6666666666667,4,2,2,70,0,0
21967,-200,4,2,2,70,0,0
22157,-100,4,2,2,70,0,0
22347,-66.6666666666667,4,2,2,70,0,0
22917,-100,4,2,2,70,0,0
23107,-66.6666666666667,4,2,2,70,0,0
23486,-100,4,2,2,70,0,0
24056,-83.3333333333333,4,2,2,70,0,0
24626,-55.5555555555556,4,2,2,70,0,0
26524,-66.6666666666667,4,2,2,70,0,0
27094,-133.333333333333,4,2,2,70,0,0
27284,-66.6666666666667,4,2,2,70,0,0
27853,-133.333333333333,4,2,2,70,0,0
28043,-66.6666666666667,4,2,2,70,0,0
28613,-133.333333333333,4,2,2,70,0,0
28803,-66.6666666666667,4,2,2,70,0,0
28993,-133.333333333333,4,2,2,70,0,0
29183,-83.3333333333333,4,2,2,70,0,0
29372,-66.6666666666667,4,2,2,70,0,0
31081,-55.5555555555556,4,2,2,70,0,0
31271,-83.3333333333333,4,2,2,70,0,0
31461,-66.6666666666667,4,2,2,70,0,0
31651,-100,4,2,2,70,0,0
32221,-66.6666666666667,4,2,2,70,0,0
32410,-50,4,2,2,70,0,0
32600,-66.6666666666667,4,2,2,70,0,0
34119,-100,4,2,2,70,0,0
34499,-66.6666666666667,4,2,2,70,0,0
35069,-100,4,2,2,70,0,0
35258,-66.6666666666667,4,2,2,70,0,0
35638,-100,4,2,2,70,0,0
36208,-83.3333333333333,4,2,2,70,0,0
36777,-55.5555555555556,4,2,2,70,0,0
38676,-66.6666666666667,4,2,1,65,0,0
39056,-100,4,2,1,65,0,0
40195,-83.3333333333333,4,2,1,65,0,0
40765,-83.3333333333333,4,2,1,65,0,0
49309,-66.6666666666667,4,2,1,65,0,0
50069,-55.5555555555556,4,2,1,65,0,0
51018,-83.3333333333333,4,2,1,65,0,0
51208,-66.6666666666667,4,2,1,65,0,0
51777,-83.3333333333333,4,2,1,65,0,0
51967,-66.6666666666667,4,2,1,65,0,0
52537,-83.3333333333333,4,2,1,65,0,0
62221,-55.5555555555556,4,2,1,65,0,0
62980,-166.666666666667,4,2,1,50,0,0
74752,-250,4,2,1,50,0,0
75037,-250,4,2,1,5,0,0
75132,-125,4,2,1,50,0,0
77221,-166.666666666667,4,2,1,50,0,0
78739,-125,4,2,1,50,0,0
79119,-166.666666666667,4,2,1,50,0,0
79594,-166.666666666667,4,2,1,5,0,0
79689,-166.666666666667,4,2,1,50,0,0
81208,-100,4,2,1,65,0,0
84246,-83.3333333333333,4,2,1,65,0,0
85480,-166.666666666667,4,2,1,65,0,0
86145,-125,4,2,1,50,0,0
86809,-125,4,2,1,5,0,0
86904,-125,4,2,1,50,0,0
87284,-66.6666666666667,4,2,2,75,0,0
89942,-50,4,2,2,75,0,0
90132,-66.6666666666667,4,2,2,75,0,0
90702,-55.5555555555556,4,2,2,75,0,0
92031,-66.6666666666667,4,2,2,75,0,0
92221,-55.5555555555556,4,2,2,75,0,0
92410,-66.6666666666667,4,2,2,75,0,0
92600,-50,4,2,2,75,0,0
92790,-55.5555555555556,4,2,2,75,0,0
92980,-50,4,2,2,75,0,0
93170,-55.5555555555556,4,2,2,75,0,0
93360,-55.5555555555556,4,2,2,75,0,0
94879,-66.6666666666667,4,2,2,75,0,0
95828,-55.5555555555556,4,2,2,75,0,0
96777,-100,4,2,2,75,0,0
97157,-66.6666666666667,4,2,2,75,0,0
97537,-83.3333333333333,4,2,2,75,0,0
97727,-55.5555555555556,4,2,2,75,0,0
97917,-100,4,2,2,65,0,0
98676,-66.6666666666667,4,2,2,65,0,0
98866,-83.3333333333333,4,2,2,65,0,0
99056,-100,4,2,2,65,0,0
99436,-83.3333333333333,4,2,2,60,0,0
100955,-100,4,2,2,65,0,0
101714,-90.9090909090909,4,2,2,65,0,0
102474,-66.6666666666667,4,2,2,75,0,0
102853,-55.5555555555556,4,2,2,75,0,0
104183,-66.6666666666667,4,2,2,75,0,0
104372,-55.5555555555556,4,2,2,75,0,0
104562,-66.6666666666667,4,2,2,75,0,0
104752,-50,4,2,2,75,0,0
104942,-55.5555555555556,4,2,2,75,0,0
105132,-50,4,2,2,75,0,0
105322,-55.5555555555556,4,2,2,75,0,0
105512,-100,4,2,2,65,0,0
108550,-83.3333333333333,4,2,2,65,0,0
109784,-166.666666666667,4,2,2,65,0,0
110069,-83.3333333333333,4,2,2,65,0,0
110828,-55.5555555555556,4,2,2,75,0,0

[Colours]
Combo1 : 75,243,243
Combo2 : 128,191,255
Combo3 : 64,112,255
Combo4 : 159,159,159

[HitObjects]
166,140,1063,38,0,P|135:187|83:170,1,120,2|0,0:0|0:0,0:0:0:0:
140,102,1455,2,0,P|137:158|83:170,1,120,2|0,0:0|0:0,0:0:0:0:
98,83,1847,2,0,P|124:132|83:170,1,120,2|0,0:0|0:0,0:0:0:0:
0,177,2221,22,0,B|149:200|149:200|188:353|188:353|438:324,1,560,4|2,0:1|0:0,0:0:0:0:
499,242,5069,6,0,P|361:248|461:152,1,360,2|0,0:0|0:0,0:0:0:0:
256,80,7727,6,0,L|256:152,2,59.9999981689454,2|2|2,0:3|0:3|0:3,0:0:0:0:
256,80,8296,21,0,3:0:0:0:
256,256,8486,1,0,3:0:0:0:
153,235,8676,5,0,3:0:0:0:
153,227,8770,1,0,3:0:0:0:
152,218,8865,1,0,3:0:0:0:
151,209,8960,1,0,3:0:0:0:
150,201,9056,1,0,3:0:0:0:
189,171,9151,1,0,3:0:0:0:
323,171,9341,37,0,3:0:0:0:
362,201,9437,1,0,3:0:0:0:
361,209,9531,1,0,3:0:0:0:
360,218,9627,1,0,3:0:0:0:
359,227,9722,1,0,3:0:0:0:
359,235,9816,1,0,3:0:0:0:
256,344,10006,5,0,3:0:0:0:
153,235,10195,37,0,3:0:0:0:
153,227,10289,1,0,3:0:0:0:
152,218,10384,1,0,3:0:0:0:
151,209,10479,1,0,3:0:0:0:
150,201,10575,1,0,3:0:0:0:
189,171,10670,1,0,3:0:0:0:
323,171,10860,5,0,3:0:0:0:
362,201,10956,1,0,3:0:0:0:
361,209,11050,1,0,3:0:0:0:
360,218,11146,1,0,3:0:0:0:
359,227,11239,1,0,3:0:0:0:
359,235,11334,38,0,L|366:272,4,29.9999990844727,0|0|0|0|0,3:0|3:0|3:0|3:0|3:0,0:0:0:0:
256,240,11619,5,0,3:0:0:0:
256,256,11714,2,0,L|256:304,4,29.9999990844727,0|0|0|0|0,3:0|3:0|3:0|3:0|3:0,0:0:0:0:
156,219,11999,21,0,3:0:0:0:
153,235,12094,2,0,L|146:272,8,29.9999990844727,0|0|0|0|0|0|0|0|0,3:0|3:0|3:0|3:0|3:0|3:0|3:0|3:0|3:0,0:0:0:0:
256,256,12569,22,0,L|256:304,2,29.9999990844727,0|0|0,3:0|3:0|3:0,0:0:0:0:
359,235,12853,37,4,1:1:0:0:
421,123,13613,21,2,0:0:0:0:
430,131,13708,1,2,0:0:0:0:
330,71,13898,2,0,L|211:85,1,120,2|2,0:0|0:0,0:0:0:0:
106,29,14372,21,4,1:1:0:0:
124,17,14467,2,0,L|110:90,1,75.0000028610231,0|0,0:0|0:0,0:0:0:0:
33,150,14657,2,0,P|1:146|16:118,1,75.0000028610231,0|8,0:0|0:0,0:0:0:0:
211,85,14942,38,0,L|204:121,1,37.5000014305115,0|0,0:0|0:0,0:0:0:0:
126,209,15132,21,0,1:0:0:0:
114,227,15227,2,0,L|187:213,1,75.0000028610231,0|0,0:0|0:0,0:0:0:0:
280,240,15417,2,0,P|295:268|263:272,1,75.0000028610231,0|8,0:0|0:0,0:0:0:0:
204,121,15702,22,0,L|211:85,1,37.5000014305115,0|0,0:0|0:0,0:0:0:0:
327,25,15891,5,0,1:0:0:0:
345,13,15986,2,0,L|331:86,1,75.0000028610231,0|0,0:0|0:0,0:0:0:0:
405,148,16176,2,0,P|436:144|421:115,1,75.0000028610231,0|8,0:0|0:0,0:0:0:0:
211,85,16461,38,0,L|204:121,1,37.5000014305115,0|0,0:0|0:0,0:0:0:0:
160,226,16651,22,0,L|85:234,1,75.0000028610231,0|0,1:0|0:0,0:0:0:0:
46,145,16841,2,0,L|88:141,1,37.5000014305115,0|0,0:0|0:0,0:0:0:0:
183,241,17031,38,0,L|243:236,1,59.9999981689454,8|0,0:0|0:0,0:0:0:0:
295,106,17221,2,0,L|370:98,1,75.0000028610231,0|0,0:0|0:0,0:0:0:0:
491,245,17410,5,0,1:0:0:0:
488,281,17505,1,0,0:0:0:0:
466,311,17599,1,0,0:0:0:0:
432,326,17694,1,0,0:0:0:0:
395,320,17790,2,0,B|388:277|388:277|393:269|393:269|370:97,1,225.000008583069,8|0,0:0|0:0,0:0:0:0:
429,30,18170,37,0,1:0:0:0:
466,35,18264,1,0,0:0:0:0:
503,41,18360,2,0,P|506:124|452:128,1,150.000005722046,0|8,0:0|0:0,0:0:0:0:
370,98,18645,37,0,0:0:0:0:
283,105,18739,1,0,0:0:0:0:
216,166,18834,1,0,0:0:0:0:
132,207,18929,22,0,L|43:193,1,89.9999972534181,0|0,1:0|0:0,0:0:0:0:
75,103,19119,2,0,L|16:94,1,59.9999981689454,0|0,0:0|0:0,0:0:0:0:
271,30,19309,38,0,L|283:105,1,75.0000028610231,8|0,0:0|0:0,0:0:0:0:
216,166,19499,2,0,L|223:215,1,50,0|0,0:0|0:0,0:0:0:0:
180,309,19689,5,0,1:0:0:0:
177,322,19783,1,0,0:0:0:0:
175,334,19878,1,0,0:0:0:0:
172,346,19973,1,0,0:0:0:0:
138,362,20069,38,0,P|110:337|74:336,1,75.0000028610231,8|0,0:0|0:0,0:0:0:0:
263,296,20258,2,0,P|304:270|352:279,1,100,0|0,0:0|0:0,0:0:0:0:
494,355,20448,6,0,P|448:364|448:281,1,150.000005722046,2|2,1:2|0:0,0:0:0:0:
442,283,20702,2,0,L|433:332,1,50.0000019073487,2|2,0:0|0:0,0:0:0:0:
352,279,20828,38,0,P|306:288|306:205,1,150.000005722046,10|2,0:0|0:0,0:0:0:0:
300,207,21081,2,0,L|291:255,1,50.0000019073487,2|2,0:0|0:0,0:0:0:0:
210,203,21208,6,0,P|164:212|164:129,1,150.000005722046,2|2,1:2|0:0,0:0:0:0:
158,131,21461,2,0,L|149:179,1,50.0000019073487,2|2,0:0|0:0,0:0:0:0:
68,127,21588,38,0,P|22:136|22:53,1,150.000005722046,10|2,0:0|0:0,0:0:0:0:
16,55,21841,2,0,L|7:103,1,50.0000019073487,2|2,0:0|0:0,0:0:0:0:
103,46,21967,5,2,1:2:0:0:
113,38,22061,1,0,0:0:0:0:
122,30,22157,2,0,L|172:27,1,50,0|0,0:0|0:0,0:0:0:0:
340,171,22347,37,8,0:0:0:0:
300,207,22442,1,0,0:0:0:0:
249,190,22536,1,0,0:0:0:0:
239,137,22631,1,0,0:0:0:0:
280,102,22727,6,0,L|291:27,1,75.0000028610231,0|0,1:0|0:0,0:0:0:0:
390,65,22917,2,0,L|398:16,1,50,0|0,0:0|0:0,0:0:0:0:
502,135,23107,38,0,L|490:209,1,75.0000028610231,8|0,0:0|0:0,0:0:0:0:
384,252,23296,2,0,L|372:326,1,75.0000028610231,0|0,0:0|0:0,0:0:0:0:
240,373,23486,5,0,1:0:0:0:
230,365,23580,1,0,0:0:0:0:
221,357,23676,2,0,L|171:354,1,50,0|0,0:0|0:0,0:0:0:0:
114,293,23866,38,0,L|64:290,1,50,8|0,0:0|0:0,0:0:0:0:
29,369,24056,2,0,L|90:373,1,59.9999981689454,0|0,0:0|0:0,0:0:0:0:
195,274,24246,5,0,1:0:0:0:
214,235,24340,1,0,0:0:0:0:
207,191,24435,1,0,0:0:0:0:
175,160,24531,1,0,0:0:0:0:
132,153,24626,38,0,P|79:184|42:179,1,89.9999972534181,8|0,0:0|0:0,0:0:0:0:
11,72,24815,2,0,P|46:45|90:42,1,89.9999972534181,0|0,0:0|0:0,0:0:0:0:
289,134,25005,5,0,1:0:0:0:
250,110,25100,1,0,0:0:0:0:
252,64,25195,1,0,0:0:0:0:
463,133,25385,37,8,0:0:0:0:
460,156,25480,1,0,0:0:0:0:
456,178,25575,1,0,0:0:0:0:
492,335,25765,22,0,P|452:354|409:347,1,89.9999972534181,0|0,1:0|0:0,0:0:0:0:
299,217,25955,2,0,P|280:177|289:134,1,89.9999972534181,0|0,1:0|0:0,0:0:0:0:
456,178,26145,2,0,P|442:220|406:246,1,89.9999972534181,8|0,0:0|0:0,0:0:0:0:
243,300,26335,2,0,P|202:284|177:248,1,89.9999972534181,0|0,1:0|0:0,0:0:0:0:
197,24,26524,21,4,1:1:0:0:
214,9,26619,2,0,L|202:83,1,75.0000028610231,0|0,0:0|0:0,0:0:0:0:
289,133,26809,2,0,P|324:109|363:110,1,75.0000028610231,0|8,0:0|0:0,0:0:0:0:
132,155,27094,38,0,L|94:160,1,37.5000014305115,0|0,0:0|0:0,0:0:0:0:
25,276,27284,21,0,1:0:0:0:
10,293,27379,2,0,L|84:281,1,75.0000028610231,0|0,0:0|0:0,0:0:0:0:
176,247,27569,2,0,P|200:282|199:321,1,75.0000028610231,0|8,0:0|0:0,0:0:0:0:
94,160,27853,22,0,L|132:155,1,37.5000014305115,0|0,0:0|0:0,0:0:0:0:
289,133,28043,5,0,1:0:0:0:
272,118,28138,2,0,L|283:192,1,75.0000028610231,0|0,0:0|0:0,0:0:0:0:
357,257,28328,2,0,P|378:227|381:190,1,75.0000028610231,0|8,0:0|0:0,0:0:0:0:
132,155,28613,38,0,L|94:160,1,37.5000014305115,0|0,0:0|0:0,0:0:0:0:
258,29,28803,22,0,P|294:26|330:53,1,75.0000028610231,0|0,1:0|0:0,0:0:0:0:
418,184,28993,2,0,L|380:189,1,37.5000014305115,0|0,0:0|0:0,0:0:0:0:
222,143,29183,38,0,P|242:121|272:118,1,59.9999981689454,8|0,0:0|0:0,0:0:0:0:
418,25,29372,2,0,L|406:107,1,75.0000028610231,0|0,0:0|0:0,0:0:0:0:
466,349,29562,5,0,1:0:0:0:
485,317,29656,1,0,0:0:0:0:
474,283,29751,1,0,0:0:0:0:
441,268,29846,1,0,0:0:0:0:
408,282,29942,2,0,B|391:310|391:310|176:335,1,225.000008583069,8|0,0:0|0:0,0:0:0:0:
126,275,30322,37,0,1:0:0:0:
88,269,30416,1,0,0:0:0:0:
51,263,30512,2,0,P|41:324|112:360,1,150.000005722046,0|8,0:0|0:0,0:0:0:0:
199,332,30796,37,0,0:0:0:0:
259,260,30891,1,0,0:0:0:0:
348,232,30986,1,0,0:0:0:0:
442,233,31081,22,0,L|529:252,1,89.9999972534181,0|0,1:0|0:0,0:0:0:0:
277,160,31271,2,0,L|218:172,1,59.9999981689454,0|0,0:0|0:0,0:0:0:0:
432,140,31461,38,0,L|505:123,1,75.0000028610231,8|0,0:0|0:0,0:0:0:0:
348,232,31651,2,0,L|337:280,1,50,0|0,0:0|0:0,0:0:0:0:
258,75,31841,5,0,1:0:0:0:
255,62,31935,1,0,0:0:0:0:
252,50,32030,1,0,0:0:0:0:
249,38,32125,1,0,0:0:0:0:
279,14,32221,38,0,P|306:38|343:39,1,75.0000028610231,8|0,0:0|0:0,0:0:0:0:
153,89,32410,2,0,P|125:113|62:115,1,100,0|0,0:0|0:0,0:0:0:0:
15,1,32600,6,0,P|72:44|64:116,1,150.000005722046,2|2,1:2|0:0,0:0:0:0:
64,116,32853,2,0,L|15:108,1,50.0000019073487,2|2,0:0|0:0,0:0:0:0:
153,89,32980,38,0,P|210:131|202:203,1,150.000005722046,10|2,0:0|0:0,0:0:0:0:
202,203,33233,2,0,L|152:195,1,50.0000019073487,2|2,0:0|0:0,0:0:0:0:
290,175,33360,6,0,P|347:217|339:289,1,150.000005722046,2|2,1:2|0:0,0:0:0:0:
339,289,33613,2,0,L|289:281,1,50.0000019073487,2|2,0:0|0:0,0:0:0:0:
427,261,33739,38,0,P|484:303|476:375,1,150.000005722046,10|2,0:0|0:0,0:0:0:0:
476,375,33992,2,0,L|426:367,1,50.0000019073487,2|2,0:0|0:0,0:0:0:0:
339,289,34119,5,2,1:2:0:0:
331,299,34213,1,0,0:0:0:0:
323,308,34309,2,0,L|314:358,1,50.0000019073487,0|0,0:0|0:0,0:0:0:0:
201,203,34499,37,8,0:0:0:0:
249,185,34593,1,0,0:0:0:0:
257,135,34688,1,0,0:0:0:0:
216,104,34783,1,0,0:0:0:0:
169,125,34879,6,0,L|95:115,1,75.0000028610231,0|0,1:0|0:0,0:0:0:0:
117,30,35069,2,0,L|68:24,1,50,0|0,0:0|0:0,0:0:0:0:
253,12,35258,38,0,L|327:21,1,75.0000028610231,8|0,0:0|0:0,0:0:0:0:
422,113,35448,2,0,L|496:122,1,75.0000028610231,0|0,0:0|0:0,0:0:0:0:
388,244,35638,5,0,1:0:0:0:
380,234,35732,1,0,0:0:0:0:
372,225,35828,2,0,L|363:175,1,50.0000019073487,0|0,0:0|0:0,0:0:0:0:
413,63,36018,38,0,L|422:113,1,50.0000019073487,8|0,0:0|0:0,0:0:0:0:
267,102,36208,2,0,L|278:162,1,59.9999981689454,0|0,0:0|0:0,0:0:0:0:
166,258,36398,5,0,1:0:0:0:
123,262,36492,1,0,0:0:0:0:
81,246,36587,1,0,0:0:0:0:
54,211,36682,1,0,0:0:0:0:
46,167,36777,38,0,P|76:145|128:144,1,89.9999972534181,8|0,0:0|0:0,0:0:0:0:
201,48,36967,2,0,P|242:65|267:102,1,89.9999972534181,0|0,0:0|0:0,0:0:0:0:
372,225,37157,5,0,1:0:0:0:
365,269,37251,1,0,0:0:0:0:
359,314,37346,1,0,0:0:0:0:
509,149,37537,37,8,0:0:0:0:
506,171,37631,1,0,0:0:0:0:
503,194,37726,1,0,0:0:0:0:
267,102,37917,22,0,P|300:71|344:66,1,89.9999972534181,0|0,1:0|0:0,0:0:0:0:
287,216,38107,2,0,P|328:233|372:225,1,89.9999972534181,0|0,1:0|0:0,0:0:0:0:
158,97,38296,2,0,P|168:53|199:23,1,89.9999972534181,8|0,0:0|0:0,0:0:0:0:
187,259,38486,2,0,P|211:297|252:315,1,89.9999972534181,0|0,1:0|0:0,0:0:0:0:
104,190,38676,21,4,1:1:0:0:
8,336,38866,37,0,0:0:0:0:
18,347,38961,1,0,0:0:0:0:
28,358,39056,2,0,P|106:328|146:341,2,100,10|0|0,0:0|0:0|1:0,0:0:0:0:
188,260,39626,2,0,L|266:270,1,50,2|0,0:0|0:0,0:0:0:0:
306,333,39815,1,10,0:0:0:0:
276,99,40005,1,2,0:0:0:0:
499,194,40195,22,0,P|470:256|404:245,1,119.999996337891,2|0,1:2|0:0,0:0:0:0:
355,211,40480,1,0,0:0:0:0:
358,193,40575,2,0,L|366:134,1,59.9999981689454,10|0,0:0|0:0,0:0:0:0:
415,48,40765,2,0,B|426:54|426:54|533:41,1,119.999996337891,2|0,0:0|1:0,0:0:0:0:
276,99,41145,2,0,B|265:93|265:93|158:106,1,119.999996337891,2|8,0:0|0:0,0:0:0:0:
41,66,41524,21,2,0:0:0:0:
30,76,41619,1,0,0:0:0:0:
19,86,41714,2,0,P|47:137|35:194,1,119.999996337891,0|0,1:0|0:0,0:0:0:0:
110,229,41999,1,0,0:0:0:0:
113,243,42094,2,0,P|171:243|215:283,1,119.999996337891,8|0,0:0|0:0,0:0:0:0:
282,235,42379,1,0,0:0:0:0:
295,240,42474,1,0,1:0:0:0:
452,308,42664,22,0,L|527:296,1,59.9999981689454,2|0,0:0|0:0,0:0:0:0:
394,376,42853,1,10,0:0:0:0:
454,145,43043,1,2,0:0:0:0:
465,155,43138,1,0,0:0:0:0:
476,165,43233,2,0,L|355:183,1,119.999996337891,0|0,1:0|0:0,0:0:0:0:
309,114,43518,1,0,0:0:0:0:
320,104,43613,2,0,L|199:86,1,119.999996337891,8|0,0:0|0:0,0:0:0:0:
152,156,43898,1,0,0:0:0:0:
163,166,43993,21,2,1:2:0:0:
11,138,44183,1,2,0:0:0:0:
163,166,44372,1,10,0:0:0:0:
207,374,44562,1,2,0:0:0:0:
5,309,44752,22,0,P|37:270|111:281,1,119.999996337891,2|0,1:2|0:0,0:0:0:0:
207,374,45132,1,10,0:0:0:0:
320,335,45322,1,2,0:0:0:0:
330,324,45417,1,0,0:0:0:0:
340,313,45512,2,0,L|466:297,1,119.999996337891,0|2,1:0|0:0,0:0:0:0:
501,225,45796,1,0,0:0:0:0:
491,214,45891,2,0,L|365:198,1,119.999996337891,8|2,0:0|0:0,0:0:0:0:
315,136,46176,1,0,0:0:0:0:
325,125,46271,2,0,L|451:109,2,119.999996337891,0|0|8,1:0|0:0|0:0,0:0:0:0:
167,244,46841,22,0,L|226:252,1,59.9999981689454,2|0,0:0|0:0,0:0:0:0:
116,172,47031,1,2,1:2:0:0:
315,136,47221,1,2,0:0:0:0:
351,335,47410,1,10,0:0:0:0:
152,371,47600,1,2,0:0:0:0:
308,224,47790,22,0,L|426:243,2,119.999996337891,2|2|10,1:2|0:0|0:0,0:0:0:0:
92,308,48360,1,2,0:0:0:0:
78,313,48455,1,0,0:0:0:0:
63,318,48550,2,0,P|32:269|41:211,1,119.999996337891,0|2,1:0|0:0,0:0:0:0:
116,172,48834,1,0,0:0:0:0:
130,178,48929,2,0,P|161:128|152:70,1,119.999996337891,8|2,0:0|0:0,0:0:0:0:
84,20,49213,1,0,0:0:0:0:
70,26,49309,6,0,B|45:50|45:50|6:42,1,75.0000028610231,0|0,1:0|0:0,0:0:0:0:
152,70,49499,2,0,L|226:84,1,75.0000028610231,0|0,0:0|0:0,0:0:0:0:
330,71,49689,6,0,L|364:321,1,225.000008583069,10|0,0:0|0:0,0:0:0:0:
419,364,50069,38,0,P|451:334|451:290,1,89.9999972534181,2|0,1:2|0:0,0:0:0:0:
300,221,50258,2,0,P|268:251|269:295,1,89.9999972534181,0|0,1:0|0:0,0:0:0:0:
219,372,50448,38,0,L|122:359,1,89.9999972534181,10|0,0:0|0:0,0:0:0:0:
70,254,50638,2,0,L|167:267,1,89.9999972534181,0|0,1:0|0:0,0:0:0:0:
360,293,50828,37,4,1:1:0:0:
494,142,51018,38,0,P|487:175|465:185,1,59.9999981689454,0|0,0:0|0:0,0:0:0:0:
372,160,51208,2,0,B|375:138|375:138|365:116|365:116|379:13,2,150.000005722046,10|0|0,0:0|0:0|1:0,0:0:0:0:
147,182,51777,22,0,P|154:149|176:139,1,59.9999981689454,0|0,0:0|0:0,0:0:0:0:
269,164,51967,2,0,B|266:186|266:186|276:208|276:208|261:310,2,150.000005722046,10|0|0,0:0|0:0|1:0,0:0:0:0:
73,86,52537,21,2,0:0:0:0:
86,79,52632,1,0,0:0:0:0:
98,71,52727,2,0,P|155:85|175:139,1,119.999996337891,8|2,0:0|0:0,0:0:0:0:
189,221,53012,1,0,0:0:0:0:
181,234,53107,2,0,L|61:246,1,119.999996337891,2|2,1:2|0:0,0:0:0:0:
269,164,53486,1,10,0:0:0:0:
155,342,53676,2,0,L|95:348,2,59.9999981689454,2|0|0,0:0|0:0|1:0,0:0:0:0:
446,246,54056,22,0,L|440:305,1,59.9999981689454,2|0,0:0|0:0,0:0:0:0:
377,375,54246,1,10,0:0:0:0:
181,234,54436,1,2,0:0:0:0:
194,227,54531,1,0,0:0:0:0:
207,220,54626,2,0,P|279:230|318:274,2,119.999996337891,2|2|10,1:2|0:0|0:0,0:0:0:0:
420,98,55195,22,0,P|450:150|515:135,1,119.999996337891,2|0,0:0|1:0,0:0:0:0:
227,89,55575,2,0,P|257:37|322:52,1,119.999996337891,2|8,0:0|0:0,0:0:0:0:
504,146,55955,21,2,0:0:0:0:
491,154,56050,1,0,0:0:0:0:
478,162,56145,2,0,L|464:281,1,119.999996337891,0|2,1:0|0:0,0:0:0:0:
391,325,56429,1,0,0:0:0:0:
378,317,56524,2,0,L|364:197,1,119.999996337891,10|0,0:0|0:0,0:0:0:0:
291,154,56809,1,0,0:0:0:0:
278,162,56904,1,0,1:0:0:0:
166,368,57094,22,0,P|141:345|100:343,1,59.9999981689454,2|0,0:0|0:0,0:0:0:0:
39,293,57284,1,10,0:0:0:0:
244,248,57474,1,2,0:0:0:0:
52,164,57664,1,2,1:2:0:0:
178,136,57853,2,0,L|190:70,1,59.9999981689454,2|0,0:0|0:0,0:0:0:0:
266,31,58043,2,0,P|336:36|371:80,1,119.999996337891,10|0,0:0|0:0,0:0:0:0:
244,248,58423,22,0,B|293:239|293:239|300:231|300:231|358:220,1,119.999996337891,2|0,1:2|0:0,0:0:0:0:
433,267,58708,1,0,0:0:0:0:
442,255,58803,2,0,L|450:187,1,59.9999981689454,10|0,0:0|0:0,0:0:0:0:
358,220,58993,2,0,B|300:231|300:231|293:239|293:239|244:248,1,119.999996337891,2|0,0:0|1:0,0:0:0:0:
178,136,59372,2,0,B|120:147|120:147|113:155|113:155|64:164,1,119.999996337891,2|8,0:0|0:0,0:0:0:0:
33,285,59752,21,2,0:0:0:0:
26,298,59847,1,0,0:0:0:0:
19,311,59942,2,0,P|52:358|137:354,1,119.999996337891,0|0,1:0|0:0,0:0:0:0:
244,248,60322,2,0,L|181:258,1,59.9999981689454,10|0,0:0|0:0,0:0:0:0:
325,295,60512,2,0,L|342:153,1,119.999996337891,2|0,0:0|1:0,0:0:0:0:
495,135,60891,2,0,L|480:254,1,119.999996337891,2|8,0:0|0:0,0:0:0:0:
383,373,61271,1,2,0:0:0:0:
244,248,61461,37,0,1:0:0:0:
201,237,61556,1,0,0:0:0:0:
170,269,61651,1,0,0:0:0:0:
36,138,61841,5,8,0:0:0:0:
67,170,61937,1,0,0:0:0:0:
110,159,62031,1,0,0:0:0:0:
305,16,62221,38,0,L|215:25,1,89.9999972534181,0|0,1:0|0:0,0:0:0:0:
188,113,62410,2,0,L|278:104,1,89.9999972534181,0|0,1:0|0:0,0:0:0:0:
495,135,62600,38,0,L|485:224,1,89.9999972534181,8|0,0:0|0:0,0:0:0:0:
397,251,62790,2,0,L|407:162,1,89.9999972534181,0|0,1:0|0:0,0:0:0:0:
313,349,62980,38,0,B|342:345|342:345|341:296|386:271|386:271|257:243|215:293|212:397|112:379|62:347|62:347|112:329|139:291|170:209|72:142|-4:215|20:266,1,779.99997619629,4|0,1:1|0:0,0:0:0:0:
20,266,65638,5,2,0:0:0:0:
122,208,65828,2,0,L|144:28,1,179.999994506836,2|0,0:0|0:0,0:0:0:0:
143,29,66588,38,0,P|182:87|244:85,1,119.999996337891,2|2,0:0|0:0,0:0:0:0:
301,49,67157,1,2,0:0:0:0:
382,70,67347,2,0,B|392:139|424:109|434:175,1,119.999996337891,2|0,0:0|0:0,0:0:0:0:
351,189,67917,2,0,L|344:254,1,59.9999981689454,2|2,0:0|0:0,0:0:0:0:
71,348,68486,21,2,0:3:0:0:
178,332,68676,1,2,0:3:0:0:
285,316,68866,1,2,0:3:0:0:
71,348,69246,37,2,0:0:0:0:
10,258,69436,2,0,P|35:241|65:240,1,59.9999981689454,2|2,0:0|0:0,0:0:0:0:
134,289,69815,2,0,P|163:294|184:315,2,59.9999981689454,2|2|2,0:0|0:0|0:0,0:0:0:0:
72,157,70575,38,0,B|129:171|128:137|188:151,1,119.999996337891,2|2,0:0|0:0,0:0:0:0:
259,203,71145,2,0,P|330:152|320:117,1,119.999996337891,2|2,0:0|0:0,0:0:0:0:
232,30,71904,6,0,B|186:22|186:22|177:33|177:33|189:151,1,179.999994506836,2|0,0:0|0:0,0:0:0:0:
259,203,72664,2,0,P|308:168|371:168,1,119.999996337891,2|2,0:0|0:0,0:0:0:0:
439,208,73233,1,2,0:0:0:0:
483,280,73423,2,0,P|468:336|414:357,1,119.999996337891,2|0,0:0|0:0,0:0:0:0:
319,310,73993,6,0,L|260:324,1,59.9999981689454,2|0,0:0|0:0,0:0:0:0:
197,269,74372,22,0,L|211:210,1,59.9999981689454,2|0,0:0|0:0,0:0:0:0:
155,147,74752,38,0,L|96:161,1,59.9999981689454,2|0,0:0|0:0,0:0:0:0:
77,144,75132,22,0,P|58:117|-8:121,2,80,4|2|2,1:1|0:0|0:0,0:0:0:0:
149,220,75702,2,0,P|216:174|310:173,1,160,2|2,0:0|0:0,0:0:0:0:
394,194,76271,1,2,0:0:0:0:
446,284,76461,1,2,0:0:0:0:
394,194,76651,38,0,B|406:126|476:149|489:73,1,160,2|2,0:0|0:0,0:0:0:0:
398,46,77221,2,0,P|327:19|332:94,1,179.999994506836,2|2,0:0|0:3,0:0:0:0:
446,284,78170,5,2,0:0:0:0:
394,194,78360,1,2,0:0:0:0:
292,168,78550,1,2,0:0:0:0:
202,216,78739,2,0,P|172:254|117:253,1,80,2|0,0:0|0:0,0:0:0:0:
52,226,79119,2,0,L|35:75,1,149.999995422363,2|0,0:0|0:0,0:0:0:0:
55,54,79689,37,2,0:0:0:0:
152,91,79879,1,2,0:0:0:0:
256,80,80069,1,2,0:0:0:0:
340,19,80258,2,0,P|356:104|300:172,1,179.999994506836,2|2,0:0|0:3,0:0:0:0:
256,80,81018,21,2,0:3:0:0:
256,80,81208,21,2,3:2:0:0:
256,286,81398,1,0,3:0:0:0:
153,235,81588,5,0,3:0:0:0:
151,222,81682,1,0,3:0:0:0:
150,210,81777,1,0,3:0:0:0:
149,197,81872,1,0,3:0:0:0:
147,185,81967,1,2,3:2:0:0:
187,155,82062,1,0,3:0:0:0:
325,155,82252,37,0,3:0:0:0:
364,185,82347,1,0,3:0:0:0:
362,197,82442,1,0,3:0:0:0:
361,210,82537,1,2,3:2:0:0:
360,222,82632,1,0,3:0:0:0:
359,235,82727,1,2,3:2:0:0:
256,344,82918,5,0,3:0:0:0:
153,235,83107,37,0,3:0:0:0:
151,222,83201,1,0,3:0:0:0:
150,210,83296,1,2,3:2:0:0:
149,197,83391,1,0,3:0:0:0:
147,185,83486,1,0,3:0:0:0:
187,155,83581,1,0,3:0:0:0:
325,155,83771,5,0,3:0:0:0:
364,185,83866,1,2,3:2:0:0:
362,197,83961,1,0,3:0:0:0:
361,210,84056,1,0,3:0:0:0:
360,222,84151,1,0,3:0:0:0:
359,235,84246,38,0,L|366:272,4,29.9999990844727,2|0|0|0|0,3:2|3:0|3:0|3:0|3:0,0:0:0:0:
256,240,84531,5,0,3:0:0:0:
256,256,84626,2,0,L|256:304,4,29.9999990844727,2|0|0|0|2,3:2|3:0|3:0|3:0|3:2,0:0:0:0:
156,219,84910,21,0,3:0:0:0:
153,235,85005,2,0,L|146:272,8,29.9999990844727,0|0|0|0|0|0|0|0|0,3:0|3:0|3:0|3:0|3:0|3:0|3:0|3:0|3:0,0:0:0:0:
256,256,85481,22,0,L|256:304,2,29.9999990844727,0|0|0,3:0|3:0|3:0,0:0:0:0:
359,235,85765,37,4,1:1:0:0:
153,235,86145,37,2,0:0:0:0:
150,249,86239,1,2,0:0:0:0:
147,264,86334,1,2,0:0:0:0:
256,140,86524,21,2,0:3:0:0:
256,344,86714,2,0,L|256:384,1,40,2|0,0:3|0:0,0:0:0:0:
359,235,86904,37,2,0:0:0:0:
361,249,86998,1,2,0:0:0:0:
364,264,87093,1,2,0:0:0:0:
244,127,87284,38,0,L|90:110,1,150.000005722046,4|0,1:1|0:0,0:0:0:0:
20,58,87569,1,0,0:0:0:0:
96,11,87664,22,0,L|250:28,1,150.000005722046,8|0,0:0|0:0,0:0:0:0:
320,80,87948,1,0,0:0:0:0:
407,108,88043,21,0,1:0:0:0:
458,92,88138,1,0,0:0:0:0:
469,39,88233,2,0,P|438:18|401:15,1,75.0000028610231,0|0,0:0|0:0,0:0:0:0:
244,127,88423,21,8,0:0:0:0:
248,183,88517,1,0,0:0:0:0:
252,239,88613,2,0,L|258:320,1,75.0000028610231,0|0,0:0|0:0,0:0:0:0:
394,373,88803,21,0,1:0:0:0:
407,356,88898,2,0,L|484:367,1,75.0000028610231,0|0,0:0|0:0,0:0:0:0:
348,272,89088,22,0,L|121:291,1,225.000008583069,0|0,0:0|0:0,0:0:0:0:
397,183,89562,21,0,1:0:0:0:
437,217,89656,1,0,0:0:0:0:
488,200,89751,1,0,0:0:0:0:
498,147,89846,1,0,0:0:0:0:
458,111,89942,22,0,L|450:5,1,100,8|0,0:0|0:0,0:0:0:0:
309,162,90132,2,0,L|303:87,1,75.0000028610231,0|0,0:0|0:0,0:0:0:0:
164,31,90322,21,0,1:0:0:0:
152,75,90416,1,0,0:0:0:0:
118,106,90511,1,0,0:0:0:0:
72,113,90606,1,0,0:0:0:0:
30,94,90702,2,0,P|80:72|122:222,1,269.999991760254,8|0,0:0|0:0,0:0:0:0:
0,261,91081,21,0,1:0:0:0:
48,199,91176,1,0,0:0:0:0:
124,220,91271,2,0,L|132:314,1,89.9999972534181,0|0,0:0|0:0,0:0:0:0:
258,367,91461,37,8,0:0:0:0:
264,345,91556,1,0,0:0:0:0:
271,324,91650,1,0,0:0:0:0:
278,302,91745,1,0,0:0:0:0:
273,262,91841,38,0,L|375:252,1,89.9999972534181,2|0,1:3|0:0,0:0:0:0:
437,302,92031,2,0,L|512:294,1,75.0000028610231,0|0,0:0|0:0,0:0:0:0:
247,53,92221,22,0,L|349:63,1,89.9999972534181,8|0,0:0|0:0,0:0:0:0:
424,126,92410,2,0,L|498:133,1,75.0000028610231,0|0,0:0|0:0,0:0:0:0:
74,351,92600,22,0,L|173:341,1,100,2|0,1:3|0:0,0:0:0:0:
273,262,92790,2,0,L|375:252,1,89.9999972534181,0|0,0:0|0:0,0:0:0:0:
20,95,92980,22,0,L|119:104,1,100,8|0,0:0|0:0,0:0:0:0:
247,53,93170,2,0,L|349:63,1,89.9999972534181,0|0,0:0|0:0,0:0:0:0:
504,209,93360,22,0,P|422:206|423:125,1,179.999994506836,2|2,1:2|0:0,0:0:0:0:
423,125,93613,2,0,L|431:189,1,59.9999981689454,2|2,0:0|0:0,0:0:0:0:
363,253,93739,22,0,P|281:250|282:169,1,179.999994506836,10|2,0:0|0:0,0:0:0:0:
282,169,93993,2,0,L|290:233,1,59.9999981689454,2|0,0:0|0:0,0:0:0:0:
222,297,94119,22,0,P|140:294|141:213,1,179.999994506836,2|2,1:2|0:0,0:0:0:0:
141,213,94372,2,0,L|149:277,1,59.9999981689454,2|2,0:0|0:0,0:0:0:0:
81,341,94499,22,0,P|0:338|0:257,1,179.999994506836,10|2,0:0|0:0,0:0:0:0:
0,257,94752,2,0,L|8:321,1,59.9999981689454,2|2,0:0|0:0,0:0:0:0:
141,213,94879,21,2,1:2:0:0:
158,200,94974,2,0,L|147:123,1,75.0000028610231,0|0,0:0|0:0,0:0:0:0:
16,138,95164,2,0,L|5:61,1,75.0000028610231,0|8,0:0|0:0,0:0:0:0:
144,105,95353,22,0,B|194:113|194:113|199:110|199:110|378:136,1,225.000008583069,0|0,0:0|1:0,0:0:0:0:
447,98,95733,1,0,0:0:0:0:
460,88,95828,2,0,L|445:200,1,89.9999972534181,0|0,0:0|0:0,0:0:0:0:
303,365,96018,21,8,0:0:0:0:
321,289,96112,1,0,0:0:0:0:
392,255,96207,1,0,0:0:0:0:
462,290,96302,1,0,0:0:0:0:
479,312,96398,22,0,B|412:322|412:322|405:318|405:318|212:346,1,269.999991760254,0|0,1:0|0:0,0:0:0:0:
131,292,96777,37,8,0:0:0:0:
109,287,96871,1,0,0:0:0:0:
87,282,96967,2,0,L|94:331,1,50,0|0,0:0|0:0,0:0:0:0:
229,208,97157,38,0,L|238:133,1,75.0000028610231,0|0,1:0|0:0,0:0:0:0:
140,108,97347,2,0,L|149:33,1,75.0000028610231,0|0,0:0|0:0,0:0:0:0:
15,196,97537,22,0,L|74:187,1,59.9999981689454,8|0,0:0|0:0,0:0:0:0:
242,113,97727,2,0,L|330:99,1,89.9999972534181,0|0,0:0|0:0,0:0:0:0:
458,33,97917,37,0,1:0:0:0:
494,41,98011,1,0,0:0:0:0:
508,74,98106,1,0,0:0:0:0:
387,221,98296,21,8,0:0:0:0:
331,99,98486,1,0,0:0:0:0:
508,74,98676,22,0,L|499:154,1,75.0000028610231,0|0,1:0|0:0,0:0:0:0:
394,162,98866,2,0,L|387:221,1,59.9999981689454,0|0,1:0|0:0,0:0:0:0:
451,291,99056,21,8,0:0:0:0:
448,315,99150,1,0,0:0:0:0:
445,340,99245,1,0,1:0:0:0:
298,216,99436,22,0,P|265:264|197:276,1,119.999996337891,4|0,1:1|0:0,0:0:0:0:
135,240,99721,1,0,0:0:0:0:
117,237,99815,1,8,0:0:0:0:
35,164,100005,21,0,0:0:0:0:
53,161,100099,1,0,0:0:0:0:
71,158,100195,2,0,L|82:90,3,59.9999981689454,0|0|0|0,1:0|0:0|0:0|0:0,0:0:0:0:
152,44,100575,21,8,0:0:0:0:
170,47,100669,1,0,0:0:0:0:
188,50,100765,2,0,L|199:118,1,59.9999981689454,0|0,0:0|0:0,0:0:0:0:
273,157,100955,21,0,1:0:0:0:
270,175,101049,1,0,0:0:0:0:
162,248,101239,2,0,P|209:201|298:215,1,150,0|0,0:0|0:0,0:0:0:0:
402,304,101714,21,0,1:0:0:0:
424,339,101809,1,0,0:0:0:0:
461,355,101904,2,0,L|528:359,1,55.0000016784668,0|0,0:0|0:0,0:0:0:0:
486,139,102094,5,8,0:0:0:0:
437,114,102188,1,0,0:0:0:0:
382,115,102283,1,0,0:0:0:0:
334,141,102378,1,0,0:0:0:0:
287,207,102474,22,0,L|182:221,1,75.0000028610231,0|0,1:0|0:0,0:0:0:0:
98,139,102664,2,0,L|-7:152,1,75.0000028610231,0|0,0:0|0:0,0:0:0:0:
183,18,102853,2,0,B|233:7|233:7|246:21|246:21|229:138|229:138|223:144|223:144|213:217,1,269.999991760254,8|0,0:0|0:0,0:0:0:0:
105,338,103233,21,0,1:0:0:0:
58,274,103328,1,0,0:0:0:0:
124,228,103423,2,0,L|213:216,1,89.9999972534181,0|0,0:0|0:0,0:0:0:0:
436,304,103613,37,8,0:0:0:0:
433,326,103707,1,0,0:0:0:0:
420,343,103802,1,0,0:0:0:0:
399,351,103897,1,0,0:0:0:0:
360,360,103993,38,0,L|345:270,1,89.9999972534181,2|0,1:3|0:0,0:0:0:0:
213,216,104183,2,0,L|200:142,1,75.0000028610231
42,58,104372,22,0,L|130:72,1,89.9999972534181,8|0,0:0|0:0,0:0:0:0:
332,172,104562,2,0,L|405:184,1,75.0000028610231,0|0,0:0|0:0,0:0:0:0:
512,75,104752,22,0,L|413:58,1,100,2|0,1:3|0:0,0:0:0:0:
127,253,104942,2,0,L|38:238,1,89.9999972534181,0|0,0:0|0:0,0:0:0:0:
223,27,105132,22,0,L|239:125,1,100,8|0,0:0|0:0,0:0:0:0:
345,271,105322,2,0,L|359:359,1,89.9999972534181,0|0,0:0|0:0,0:0:0:0:
505,205,105512,5,4,1:1:0:0:
332,172,105702,1,0,3:0:0:0:
247,326,105891,5,0,3:0:0:0:
256,344,105986,1,0,3:0:0:0:
74,293,106176,1,0,3:0:0:0:
59,307,106271,1,0,3:0:0:0:
53,119,106461,37,0,3:0:0:0:
212,44,106650,5,0,3:0:0:0:
215,24,106745,1,0,3:0:0:0:
332,172,106935,1,0,3:0:0:0:
353,170,107030,1,0,3:0:0:0:
256,344,107221,21,0,3:0:0:0:
153,235,107410,37,0,3:0:0:0:
153,227,107504,1,0,3:0:0:0:
152,218,107599,1,0,3:0:0:0:
151,209,107694,1,0,3:0:0:0:
150,201,107790,1,0,3:0:0:0:
189,171,107885,1,0,3:0:0:0:
323,171,108075,5,0,3:0:0:0:
362,201,108171,1,0,3:0:0:0:
361,209,108265,1,0,3:0:0:0:
360,218,108361,1,0,3:0:0:0:
359,227,108456,1,0,3:0:0:0:
359,235,108550,38,0,L|366:272,4,29.9999990844727,0|0|0|0|0,3:0|3:0|3:0|3:0|3:0,0:0:0:0:
256,240,108834,5,0,3:0:0:0:
256,256,108929,2,0,L|256:304,4,29.9999990844727,0|0|0|0|0,3:0|3:0|3:0|3:0|3:0,0:0:0:0:
156,219,109214,21,0,3:0:0:0:
153,235,109309,2,0,L|146:272,8,29.9999990844727,0|0|0|0|0|0|0|0|0,3:0|3:0|3:0|3:0|3:0|3:0|3:0|3:0|3:0,0:0:0:0:
256,256,109784,22,0,L|256:304,2,29.9999990844727,0|0|0,3:0|3:0|3:0,0:0:0:0:
359,235,110069,38,0,L|366:272,14,29.9999990844727,0|0|0|0|0|0|0|0|0|0|0|0|0|0|0,3:0|3:0|3:0|3:0|3:0|3:0|3:0|3:0|3:0|3:0|3:0|3:0|3:0|3:0|3:0,0:0:0:0:
371,144,110828,22,0,L|475:174,1,89.9999972534181,0|0,1:0|0:0,0:0:0:0:
141,144,111018,2,0,L|37:174,1,89.9999972534181,0|0,1:0|0:0,0:0:0:0:
256,140,111208,5,8,0:0:0:0:
256,100,111303,1,0,0:0:0:0:
256,60,111398,1,0,1:0:0:0:
256,344,111588,5,4,1:1:0:0:
