osu file format v14

[General]
AudioFilename: audio.mp3
AudioLeadIn: 0
PreviewTime: 80764
Countdown: 0
SampleSet: Soft
StackLeniency: 0.7
Mode: 3
LetterboxInBreaks: 0
SpecialStyle: 0
WidescreenStoryboard: 1

[Editor]
DistanceSpacing: 0.7
BeatDivisor: 4
GridSize: 8
TimelineZoom: 1.5

[Metadata]
Title:True Blue
TitleUnicode:True Blue
Artist:dj TAKA feat. AiMEE
ArtistUnicode:dj TAKA feat. AiMEE
Creator:Schopfer
Version:Rin's 4K Shadow of Remorse
Source:jubeat saucer
Tags:Shima Rin Tofu1222 Aimee Blackschleger Takayuki Ishikawa 石川貴之 trance female vocals KONAMI BEMANI Video Game English beatmania IIDX 20 tricoro Dance Dance Revolution DDR jukebeat pop'n music Sunny Park REFLEC BEAT colette -Spring- plus RUNRUNマラソン! PACK 2 SOUND VOLTEX II -infinite infection- True Blue.... ノスタルジア Op.2 ポップンリズミン ESSENTIALLY エッセンシャリ―
BeatmapID:3308956
BeatmapSetID:1579889

[Difficulty]
HPDrainRate:8.3
CircleSize:4
OverallDifficulty:7.5
ApproachRate:6.7
SliderMultiplier:1.4
SliderTickRate:1

[Events]
//Background and Video events
0,0,"background.jpg",0,0
//Break Periods
//Storyboard Layer 0 (Background)
//Storyboard Layer 1 (Fail)
//Storyboard Layer 2 (Pass)
//Storyboard Layer 3 (Foreground)
//Storyboard Layer 4 (Overlay)
//Storyboard Sound Samples

[TimingPoints]
1100,365.853658536585,4,2,1,30,1,0
24514,-100,4,2,1,50,0,0
59636,-100,4,2,1,70,0,0
81587,-100,4,2,1,70,0,1
105002,-100,4,2,1,70,0,0
128417,-100,4,2,1,30,0,0
140124,-100,4,2,1,50,0,0
151831,-100,4,2,1,70,0,1
192807,-100,4,2,1,70,0,0
245490,-100,4,2,1,30,0,0

[HitObjects]
320,192,1100,128,0,2563:0:0:0:0:
448,192,1100,128,0,2563:0:0:0:0:
192,192,2563,128,0,3935:0:0:0:0:
64,192,2563,128,0,4026:0:0:0:0:
320,192,4026,128,0,5490:0:0:0:0:
192,192,4026,128,0,5490:0:0:0:0:
64,192,5490,128,0,5856:0:0:0:0:
448,192,5490,128,0,6221:0:0:0:0:
192,192,5856,128,0,6221:0:0:0:0:
64,192,6221,128,0,6953:0:0:0:0:
320,192,6221,128,0,6587:0:0:0:0:
448,192,6587,128,0,6953:0:0:0:0:
192,192,6953,128,0,7319:0:0:0:0:
320,192,6953,128,0,8417:0:0:0:0:
64,192,7319,128,0,7685:0:0:0:0:
448,192,7685,128,0,8051:0:0:0:0:
192,192,8051,128,0,8417:0:0:0:0:
64,192,8417,128,0,9148:0:0:0:0:
448,192,8417,128,0,9880:0:0:0:0:
320,192,9148,128,0,9880:0:0:0:0:
192,192,9880,128,0,10246:0:0:0:0:
64,192,9880,128,0,11343:0:0:0:0:
448,192,10246,128,0,10612:0:0:0:0:
320,192,10612,128,0,10978:0:0:0:0:
448,192,10978,128,0,11343:0:0:0:0:
192,192,11343,128,0,11984:0:0:0:0:
320,192,11343,128,0,12075:0:0:0:0:
192,192,12075,128,0,12807:0:0:0:0:
64,192,12075,128,0,12807:0:0:0:0:
320,192,12807,128,0,14270:0:0:0:0:
448,192,12807,128,0,14270:0:0:0:0:
192,192,14270,128,0,15642:0:0:0:0:
64,192,14270,128,0,15734:0:0:0:0:
320,192,15734,128,0,17197:0:0:0:0:
192,192,15734,128,0,17197:0:0:0:0:
64,192,17197,128,0,17563:0:0:0:0:
448,192,17197,128,0,17929:0:0:0:0:
192,192,17563,128,0,17929:0:0:0:0:
320,192,17929,128,0,18295:0:0:0:0:
64,192,17929,128,0,18660:0:0:0:0:
448,192,18295,128,0,18660:0:0:0:0:
320,192,18660,128,0,20124:0:0:0:0:
192,192,18660,128,0,19026:0:0:0:0:
64,192,19026,128,0,19392:0:0:0:0:
448,192,19392,128,0,19758:0:0:0:0:
192,192,19758,128,0,20124:0:0:0:0:
64,192,20124,128,0,20856:0:0:0:0:
448,192,20124,128,0,21587:0:0:0:0:
320,192,20856,128,0,21587:0:0:0:0:
192,192,21587,128,0,21953:0:0:0:0:
64,192,21587,128,0,23051:0:0:0:0:
448,192,21953,128,0,22319:0:0:0:0:
320,192,22319,128,0,22685:0:0:0:0:
448,192,22685,128,0,23051:0:0:0:0:
192,192,23051,128,0,23691:0:0:0:0:
320,192,23051,128,0,23782:0:0:0:0:
192,192,23782,128,0,24514:0:0:0:0:
64,192,23782,128,0,24514:0:0:0:0:
320,192,24514,1,0,0:0:0:0:
448,192,24514,128,0,25978:0:0:0:0:
64,192,24697,1,0,0:0:0:0:
192,192,24880,1,0,0:0:0:0:
320,192,25063,1,0,0:0:0:0:
64,192,25429,1,0,0:0:0:0:
192,192,25612,1,0,0:0:0:0:
320,192,25795,1,0,0:0:0:0:
192,192,25978,1,0,0:0:0:0:
64,192,25978,128,0,27441:0:0:0:0:
320,192,26160,1,0,0:0:0:0:
448,192,26343,1,0,0:0:0:0:
192,192,26526,1,0,0:0:0:0:
448,192,26892,1,0,0:0:0:0:
320,192,27075,1,0,0:0:0:0:
192,192,27258,1,0,0:0:0:0:
448,192,27441,1,0,0:0:0:0:
320,192,27441,128,0,28904:0:0:0:0:
192,192,27624,1,0,0:0:0:0:
64,192,27807,1,0,0:0:0:0:
448,192,27990,1,0,0:0:0:0:
64,192,28173,1,0,0:0:0:0:
192,192,28356,1,0,0:0:0:0:
448,192,28539,1,0,0:0:0:0:
64,192,28721,1,0,0:0:0:0:
192,192,28904,128,0,29270:0:0:0:0:
448,192,28904,1,0,0:0:0:0:
320,192,29087,1,0,0:0:0:0:
64,192,29270,1,0,0:0:0:0:
448,192,29270,128,0,29636:0:0:0:0:
320,192,29453,1,0,0:0:0:0:
192,192,29453,1,0,0:0:0:0:
64,192,29636,128,0,30002:0:0:0:0:
320,192,30002,128,0,30368:0:0:0:0:
448,192,30002,1,0,0:0:0:0:
448,192,30368,128,0,30734:0:0:0:0:
192,192,30368,1,0,0:0:0:0:
64,192,30551,1,0,0:0:0:0:
192,192,30734,128,0,31099:0:0:0:0:
320,192,30734,1,0,0:0:0:0:
448,192,30917,1,0,0:0:0:0:
320,192,31099,128,0,31465:0:0:0:0:
192,192,31465,1,0,0:0:0:0:
64,192,31465,128,0,31831:0:0:0:0:
320,192,31831,1,0,0:0:0:0:
448,192,31831,128,0,32563:0:0:0:0:
192,192,32197,1,0,0:0:0:0:
64,192,32380,1,0,0:0:0:0:
320,192,32563,128,0,33295:0:0:0:0:
192,192,32563,1,0,0:0:0:0:
448,192,32746,1,0,0:0:0:0:
192,192,33112,1,0,0:0:0:0:
64,192,33295,128,0,34758:0:0:0:0:
448,192,33295,1,0,0:0:0:0:
320,192,33478,1,0,0:0:0:0:
192,192,33660,1,0,0:0:0:0:
448,192,33843,1,0,0:0:0:0:
192,192,34026,1,0,0:0:0:0:
320,192,34209,1,0,0:0:0:0:
448,192,34392,1,0,0:0:0:0:
320,192,34758,1,0,0:0:0:0:
448,192,34758,128,0,35490:0:0:0:0:
320,192,35124,1,0,0:0:0:0:
64,192,35124,1,0,0:0:0:0:
192,192,35490,1,0,0:0:0:0:
64,192,35490,128,0,36221:0:0:0:0:
448,192,35856,1,0,0:0:0:0:
192,192,35856,1,0,0:0:0:0:
448,192,36221,128,0,37685:0:0:0:0:
320,192,36221,1,0,0:0:0:0:
64,192,36404,1,0,0:0:0:0:
192,192,36587,1,0,0:0:0:0:
320,192,36770,1,0,0:0:0:0:
64,192,37136,1,0,0:0:0:0:
192,192,37319,1,0,0:0:0:0:
320,192,37502,1,0,0:0:0:0:
192,192,37685,1,0,0:0:0:0:
64,192,37685,128,0,39148:0:0:0:0:
320,192,37868,1,0,0:0:0:0:
448,192,38051,1,0,0:0:0:0:
192,192,38234,1,0,0:0:0:0:
448,192,38599,1,0,0:0:0:0:
320,192,38782,1,0,0:0:0:0:
192,192,38965,1,0,0:0:0:0:
320,192,39148,128,0,40612:0:0:0:0:
448,192,39148,1,0,0:0:0:0:
192,192,39331,1,0,0:0:0:0:
64,192,39514,1,0,0:0:0:0:
448,192,39697,1,0,0:0:0:0:
64,192,39880,1,0,0:0:0:0:
192,192,40063,1,0,0:0:0:0:
448,192,40246,1,0,0:0:0:0:
64,192,40429,1,0,0:0:0:0:
448,192,40612,1,0,0:0:0:0:
192,192,40612,128,0,40978:0:0:0:0:
320,192,40795,1,0,0:0:0:0:
64,192,40978,1,0,0:0:0:0:
448,192,40978,128,0,41343:0:0:0:0:
192,192,41160,1,0,0:0:0:0:
320,192,41160,1,0,0:0:0:0:
64,192,41343,128,0,41709:0:0:0:0:
320,192,41709,128,0,42075:0:0:0:0:
448,192,41709,1,0,0:0:0:0:
448,192,42075,128,0,42441:0:0:0:0:
192,192,42075,1,0,0:0:0:0:
64,192,42258,1,0,0:0:0:0:
192,192,42441,128,0,42807:0:0:0:0:
320,192,42441,1,0,0:0:0:0:
448,192,42624,1,0,0:0:0:0:
320,192,42807,128,0,43173:0:0:0:0:
64,192,43173,128,0,43539:0:0:0:0:
192,192,43173,1,0,0:0:0:0:
448,192,43539,128,0,44270:0:0:0:0:
320,192,43539,1,0,0:0:0:0:
192,192,43904,1,0,0:0:0:0:
64,192,44087,1,0,0:0:0:0:
320,192,44270,128,0,45002:0:0:0:0:
192,192,44270,1,0,0:0:0:0:
448,192,44453,1,0,0:0:0:0:
192,192,44819,1,0,0:0:0:0:
448,192,45002,1,0,0:0:0:0:
64,192,45002,128,0,46465:0:0:0:0:
320,192,45185,1,0,0:0:0:0:
192,192,45368,1,0,0:0:0:0:
448,192,45551,1,0,0:0:0:0:
192,192,45734,1,0,0:0:0:0:
320,192,45917,1,0,0:0:0:0:
448,192,46099,1,0,0:0:0:0:
448,192,46465,128,0,47197:0:0:0:0:
320,192,46465,1,0,0:0:0:0:
64,192,46831,1,0,0:0:0:0:
320,192,46831,1,0,0:0:0:0:
192,192,47197,1,0,0:0:0:0:
64,192,47197,128,0,47929:0:0:0:0:
448,192,47563,1,0,0:0:0:0:
192,192,47563,1,0,0:0:0:0:
320,192,47929,1,0,0:0:0:0:
448,192,47929,1,0,0:0:0:0:
64,192,48112,1,0,0:0:0:0:
192,192,48295,1,0,0:0:0:0:
320,192,48478,1,0,0:0:0:0:
448,192,48478,128,0,49209:0:0:0:0:
64,192,48843,1,0,0:0:0:0:
192,192,49026,1,0,0:0:0:0:
320,192,49209,1,0,0:0:0:0:
64,192,49392,128,0,49667:0:0:0:0:
192,192,49392,1,0,0:0:0:0:
320,192,49575,1,0,0:0:0:0:
448,192,49758,128,0,49849:0:0:0:0:
192,192,49758,1,0,0:0:0:0:
320,192,49941,128,0,50307:0:0:0:0:
64,192,49941,1,0,0:0:0:0:
448,192,50307,1,0,0:0:0:0:
192,192,50307,128,0,50581:0:0:0:0:
320,192,50490,1,0,0:0:0:0:
64,192,50673,128,0,51404:0:0:0:0:
448,192,50673,1,0,0:0:0:0:
192,192,50856,1,0,0:0:0:0:
448,192,51039,1,0,0:0:0:0:
320,192,51221,1,0,0:0:0:0:
192,192,51404,1,0,0:0:0:0:
64,192,51587,1,0,0:0:0:0:
448,192,51770,128,0,51862:0:0:0:0:
192,192,51953,1,0,0:0:0:0:
320,192,51953,128,0,52045:0:0:0:0:
448,192,52136,1,0,0:0:0:0:
64,192,52136,128,0,52685:0:0:0:0:
192,192,52319,1,0,0:0:0:0:
320,192,52502,1,0,0:0:0:0:
448,192,52685,1,0,0:0:0:0:
192,192,52868,1,0,0:0:0:0:
64,192,52868,1,0,0:0:0:0:
320,192,53051,128,0,53417:0:0:0:0:
64,192,53417,1,0,0:0:0:0:
192,192,53417,128,0,53782:0:0:0:0:
448,192,53782,1,0,0:0:0:0:
320,192,53782,128,0,54331:0:0:0:0:
64,192,53965,1,0,0:0:0:0:
192,192,54148,1,0,0:0:0:0:
448,192,54331,1,0,0:0:0:0:
64,192,54697,128,0,54789:0:0:0:0:
192,192,54880,128,0,54971:0:0:0:0:
448,192,54880,1,0,0:0:0:0:
320,192,55063,128,0,55154:0:0:0:0:
64,192,55246,1,0,0:0:0:0:
192,192,55246,128,0,55612:0:0:0:0:
448,192,55612,128,0,55795:0:0:0:0:
320,192,55612,1,0,0:0:0:0:
192,192,55795,1,0,0:0:0:0:
64,192,55978,128,0,56160:0:0:0:0:
448,192,56160,1,0,0:0:0:0:
320,192,56343,128,0,56709:0:0:0:0:
64,192,56526,1,0,0:0:0:0:
448,192,56709,1,0,0:0:0:0:
192,192,56709,128,0,57075:0:0:0:0:
64,192,56892,1,0,0:0:0:0:
448,192,57075,1,0,0:0:0:0:
320,192,57258,1,0,0:0:0:0:
64,192,57258,128,0,57624:0:0:0:0:
192,192,57441,1,0,0:0:0:0:
448,192,57624,1,0,0:0:0:0:
64,192,57807,128,0,57898:0:0:0:0:
320,192,57807,1,0,0:0:0:0:
448,192,57990,1,0,0:0:0:0:
192,192,57990,128,0,58173:0:0:0:0:
320,192,58173,1,0,0:0:0:0:
64,192,58173,1,0,0:0:0:0:
192,192,58539,128,0,58721:0:0:0:0:
448,192,58539,1,0,0:0:0:0:
64,192,58904,1,0,0:0:0:0:
320,192,58904,128,0,59270:0:0:0:0:
192,192,59270,1,0,0:0:0:0:
448,192,59270,128,0,59636:0:0:0:0:
320,192,59636,1,0,0:0:0:70:twinkling.wav
192,192,59636,1,0,0:0:0:70:LR_CymbalRDW.wav
64,192,59636,1,2,0:0:0:0:
448,192,59819,1,0,0:0:0:0:
320,192,59910,1,0,0:0:0:0:
64,192,60002,1,0,0:0:0:0:
448,192,60185,1,0,0:0:0:0:
192,192,60276,1,0,0:0:0:0:
192,192,60368,1,0,0:0:0:0:
448,192,60551,1,0,0:0:0:0:
320,192,60642,1,0,0:0:0:0:
192,192,60734,1,0,0:0:0:0:
320,192,60917,1,0,0:0:0:0:
192,192,61008,1,0,0:0:0:0:
448,192,61099,1,0,0:0:0:0:
64,192,61099,1,0,0:0:0:0:
192,192,61282,1,0,0:0:0:0:
320,192,61374,1,0,0:0:0:0:
448,192,61465,1,0,0:0:0:0:
64,192,61648,1,0,0:0:0:0:
320,192,61740,1,0,0:0:0:0:
320,192,61831,1,0,0:0:0:0:
64,192,61923,1,0,0:0:0:0:
192,192,62014,1,0,0:0:0:0:
448,192,62106,1,0,0:0:0:0:
64,192,62197,1,0,0:0:0:0:
320,192,62289,1,0,0:0:0:0:
448,192,62380,1,0,0:0:0:0:
192,192,62471,1,0,0:0:0:0:
64,192,62563,1,0,0:0:0:0:
448,192,62654,1,0,0:0:0:0:
192,192,62746,1,0,0:0:0:0:
320,192,62837,1,0,0:0:0:0:
64,192,62929,1,0,0:0:0:0:
192,192,63020,1,0,0:0:0:0:
448,192,63112,1,0,0:0:0:0:
320,192,63203,1,0,0:0:0:0:
192,192,63295,1,0,0:0:0:0:
64,192,63386,1,0,0:0:0:0:
448,192,63478,1,0,0:0:0:0:
320,192,63569,1,0,0:0:0:0:
192,192,63660,1,0,0:0:0:0:
448,192,63752,1,0,0:0:0:0:
64,192,63843,1,0,0:0:0:0:
320,192,63935,1,0,0:0:0:0:
192,192,64026,1,0,0:0:0:0:
64,192,64026,1,0,0:0:0:0:
448,192,64118,1,0,0:0:0:0:
192,192,64209,1,0,0:0:0:0:
320,192,64301,1,0,0:0:0:0:
64,192,64392,1,0,0:0:0:0:
448,192,64392,1,0,0:0:0:0:
320,192,64484,1,0,0:0:0:0:
64,192,64575,1,0,0:0:0:0:
192,192,64667,1,0,0:0:0:0:
448,192,64758,1,0,0:0:0:0:
320,192,64758,1,0,0:0:0:0:
192,192,64849,1,0,0:0:0:0:
448,192,64941,1,0,0:0:0:0:
64,192,65032,1,0,0:0:0:0:
320,192,65124,1,0,0:0:0:0:
192,192,65124,1,0,0:0:0:0:
448,192,65215,1,0,0:0:0:0:
320,192,65307,1,0,0:0:0:0:
64,192,65398,1,0,0:0:0:0:
192,192,65490,1,0,0:0:0:0:
448,192,65490,1,0,0:0:0:0:
320,192,65581,1,0,0:0:0:0:
64,192,65673,1,0,0:0:0:0:
192,192,65764,1,0,0:0:0:0:
448,192,65856,1,0,0:0:0:0:
64,192,65947,1,0,0:0:0:0:
320,192,66039,1,0,0:0:0:0:
192,192,66130,1,0,0:0:0:0:
448,192,66221,1,0,0:0:0:0:
320,192,66313,1,0,0:0:0:0:
64,192,66404,1,0,0:0:0:0:
192,192,66496,1,0,0:0:0:0:
448,192,66587,1,0,0:0:0:0:
320,192,66679,1,0,0:0:0:0:
192,192,66770,1,0,0:0:0:0:
448,192,66862,1,0,0:0:0:0:
64,192,66953,1,0,0:0:0:0:
320,192,66953,1,0,0:0:0:0:
192,192,67045,1,0,0:0:0:0:
448,192,67136,1,0,0:0:0:0:
320,192,67228,1,0,0:0:0:0:
64,192,67319,1,0,0:0:0:0:
192,192,67410,1,0,0:0:0:0:
448,192,67502,1,0,0:0:0:0:
320,192,67593,1,0,0:0:0:0:
64,192,67685,1,0,0:0:0:0:
192,192,67685,1,0,0:0:0:0:
448,192,67776,1,0,0:0:0:0:
320,192,67868,1,0,0:0:0:0:
64,192,67959,1,0,0:0:0:0:
192,192,68051,1,0,0:0:0:0:
448,192,68142,1,0,0:0:0:0:
192,192,68234,1,0,0:0:0:0:
320,192,68325,1,0,0:0:0:0:
448,192,68417,128,0,68508:0:0:0:0:
192,192,68417,1,0,0:0:0:70:LR_CymbalRDW.wav
64,192,68417,1,2,0:0:0:0:
64,192,68599,128,0,68691:0:0:0:0:
192,192,68691,128,0,68782:0:0:0:0:
320,192,68874,128,0,68965:0:0:0:0:
192,192,69057,128,0,69148:0:0:0:0:
448,192,69148,128,0,69240:0:0:0:0:
64,192,69331,128,0,69423:0:0:0:0:
192,192,69423,128,0,69514:0:0:0:0:
320,192,69606,128,0,69697:0:0:0:0:
192,192,69789,128,0,69880:0:0:0:0:
448,192,69880,128,0,69971:0:0:0:0:
64,192,70063,128,0,70154:0:0:0:0:
192,192,70154,128,0,70246:0:0:0:0:
320,192,70337,128,0,70429:0:0:0:0:
192,192,70520,128,0,70612:0:0:0:0:
448,192,70612,128,0,70703:0:0:0:0:
320,192,70795,128,0,70886:0:0:0:0:
192,192,70978,128,0,71069:0:0:0:0:
320,192,71160,1,0,0:0:0:0:
64,192,71160,128,2,71252:0:0:0:0:
448,192,71343,1,0,0:0:0:0:
64,192,71343,1,0,0:0:0:70:LR_CymbalRDW.wav
192,192,71343,128,2,71435:0:0:0:0:
64,192,71526,128,0,71618:0:0:0:0:
320,192,71618,128,0,71709:0:0:0:0:
192,192,71801,128,0,71892:0:0:0:0:
320,192,71984,128,0,72075:0:0:0:0:
448,192,72075,128,0,72167:0:0:0:0:
64,192,72258,128,0,72349:0:0:0:0:
448,192,72349,1,0,0:0:0:0:
320,192,72395,1,0,0:0:0:0:
192,192,72441,1,0,0:0:0:0:
64,192,72487,1,0,0:0:0:0:
448,192,72532,128,0,72624:0:0:0:0:
192,192,72624,128,0,72715:0:0:0:0:
64,192,72715,128,0,72807:0:0:0:0:
320,192,72807,128,0,72898:0:0:0:0:
64,192,72990,128,0,73081:0:0:0:0:
192,192,73081,128,0,73173:0:0:0:0:
320,192,73264,128,0,73356:0:0:0:0:
192,192,73447,128,0,73539:0:0:0:0:
448,192,73539,128,0,73630:0:0:0:0:
64,192,73721,1,0,0:0:0:0:
192,192,73767,1,0,0:0:0:0:
448,192,73813,1,0,0:0:0:0:
320,192,73859,1,0,0:0:0:0:
192,192,73904,1,0,0:0:0:0:
448,192,73950,1,0,0:0:0:0:
320,192,73996,1,0,0:0:0:0:
192,192,74087,128,0,74179:0:0:0:0:
64,192,74087,1,2,0:0:0:0:
64,192,74270,1,0,0:0:0:0:
320,192,74270,128,0,74362:0:0:0:70:LR_CymbalRDW.wav
448,192,74270,1,2,0:0:0:0:
64,192,74453,128,0,74545:0:0:0:0:
192,192,74545,128,0,74636:0:0:0:0:
320,192,74728,128,0,74819:0:0:0:0:
192,192,74910,128,0,75002:0:0:0:0:
448,192,75002,128,0,75093:0:0:0:0:
320,192,75185,128,0,75276:0:0:0:0:
192,192,75368,128,0,75459:0:0:0:0:
64,192,75551,128,0,75642:0:0:0:0:
320,192,75551,1,2,0:0:0:0:
64,192,75734,1,0,0:0:0:0:
448,192,75734,1,0,0:0:0:70:LR_CymbalRDW.wav
192,192,75734,128,2,75825:0:0:0:0:
64,192,75917,128,0,76008:0:0:0:0:
320,192,76008,128,0,76099:0:0:0:0:
192,192,76191,128,0,76282:0:0:0:0:
320,192,76374,128,0,76465:0:0:0:0:
448,192,76465,128,0,76557:0:0:0:0:
64,192,76648,128,0,76740:0:0:0:0:
320,192,76831,128,0,76923:0:0:0:0:
192,192,77014,128,0,77106:0:0:0:0:
64,192,77014,1,2,0:0:0:0:
448,192,77197,1,0,0:0:0:0:
64,192,77197,1,0,0:0:0:70:LR_CymbalRDW.wav
320,192,77197,128,2,77289:0:0:0:0:
448,192,77380,128,0,77471:0:0:0:0:
192,192,77563,128,0,77654:0:0:0:0:
64,192,77746,128,0,77837:0:0:0:0:
320,192,77929,1,0,0:0:0:0:
448,192,77929,1,0,0:0:0:0:
192,192,77929,128,2,78020:0:0:0:0:
448,192,78112,128,0,78203:0:0:0:0:
64,192,78295,128,0,78386:0:0:0:0:
320,192,78478,128,0,78569:0:0:0:0:
192,192,78660,128,0,78752:0:0:0:0:
64,192,78660,1,0,0:0:0:0:
448,192,78660,1,2,0:0:0:0:
320,192,78752,128,0,78843:0:0:0:0:
448,192,78843,128,0,78935:0:0:0:0:
192,192,78935,1,0,0:0:0:0:
64,192,78935,128,2,79026:0:0:0:0:
320,192,79026,128,0,79118:0:0:0:0:
448,192,79026,1,2,0:0:0:0:
192,192,79118,128,0,79209:0:0:0:0:
64,192,79209,128,0,79301:0:0:0:0:
320,192,79301,1,0,0:0:0:0:
448,192,79301,128,2,79392:0:0:0:0:
192,192,79392,128,0,79484:0:0:0:0:
64,192,79392,1,2,0:0:0:0:
320,192,79484,128,0,79575:0:0:0:0:
64,192,79575,1,0,0:0:0:0:
448,192,79575,1,2,0:0:0:0:
192,192,79667,128,0,79758:0:0:0:0:
448,192,79758,1,0,0:0:0:0:
320,192,79758,1,2,0:0:0:0:
64,192,79849,128,0,79941:0:0:0:0:
192,192,79849,1,2,0:0:0:0:
448,192,79941,128,0,80032:0:0:0:0:
320,192,79941,1,2,0:0:0:0:
192,192,80032,1,0,0:0:0:0:
64,192,80032,128,2,80124:0:0:0:0:
320,192,80856,128,0,81221:0:0:0:0:
64,192,81039,128,0,81313:0:0:0:0:
192,192,81130,128,0,81404:0:0:0:0:
448,192,81221,128,0,81496:0:0:0:0:
320,192,81313,128,0,81496:0:0:0:0:
64,192,81404,128,0,81496:0:0:0:0:
192,192,81496,128,0,81587:0:0:0:0:
448,192,81587,1,0,0:0:0:0:
320,192,81587,128,4,81679:0:0:0:0:
64,192,81587,1,2,0:0:0:0:
192,192,81679,128,0,81770:0:0:0:0:
64,192,81770,128,0,81862:0:0:0:0:
320,192,81862,128,0,81953:0:0:0:0:
448,192,81953,128,0,82136:0:0:0:0:
192,192,81953,1,2,0:0:0:0:
192,192,82136,128,0,82228:0:0:0:0:
320,192,82228,128,0,82319:0:0:0:0:
448,192,82319,128,0,82410:0:0:0:0:
64,192,82319,1,2,0:0:0:0:
192,192,82410,128,0,82502:0:0:0:0:
64,192,82502,128,0,82685:0:0:0:0:
448,192,82685,128,0,82776:0:0:0:0:
192,192,82685,1,2,0:0:0:0:
320,192,82776,128,0,82868:0:0:0:0:
64,192,82868,128,0,82959:0:0:0:0:
192,192,82959,128,0,83051:0:0:0:0:
448,192,83051,128,0,83142:0:0:0:0:
320,192,83051,1,2,0:0:0:0:
64,192,83142,128,0,83234:0:0:0:0:
320,192,83234,128,0,83325:0:0:0:0:
448,192,83325,128,0,83417:0:0:0:0:
64,192,83417,1,0,0:0:0:0:
192,192,83417,128,2,83599:0:0:0:0:
64,192,83599,128,0,83691:0:0:0:0:
448,192,83691,128,0,83782:0:0:0:0:
320,192,83782,1,0,0:0:0:0:
192,192,83782,128,2,83874:0:0:0:0:
64,192,83874,128,0,83965:0:0:0:0:
320,192,83965,128,0,84148:0:0:0:0:
192,192,84148,128,0,84240:0:0:0:0:
64,192,84148,1,2,0:0:0:0:
448,192,84240,128,0,84331:0:0:0:0:
320,192,84331,128,0,84423:0:0:0:0:
64,192,84423,128,0,84514:0:0:0:0:
192,192,84514,128,0,84606:0:0:0:0:
448,192,84514,1,2,0:0:0:0:
320,192,84606,128,0,84697:0:0:0:0:
448,192,84697,128,0,84789:0:0:0:0:
64,192,84789,128,0,84880:0:0:0:0:
320,192,84880,128,0,84971:0:0:0:0:
192,192,84880,1,2,0:0:0:0:
64,192,84971,128,0,85063:0:0:0:0:
448,192,85063,128,0,85154:0:0:0:0:
192,192,85154,128,0,85246:0:0:0:0:
320,192,85246,128,0,85337:0:0:0:0:
64,192,85246,1,2,0:0:0:0:
448,192,85337,128,0,85429:0:0:0:0:
64,192,85429,128,0,85520:0:0:0:0:
192,192,85520,128,0,85612:0:0:0:0:
64,192,85612,128,0,85795:0:0:0:0:
320,192,85612,128,2,85978:0:0:0:0:
448,192,85703,128,0,85886:0:0:0:0:
192,192,85795,128,0,85886:0:0:0:0:
64,192,85886,128,0,86160:0:0:0:0:
448,192,85978,128,0,86252:0:0:0:0:
192,192,85978,128,2,86069:0:0:0:0:
320,192,86069,128,0,86252:0:0:0:0:
192,192,86160,128,0,86343:0:0:0:0:
64,192,86252,128,0,86435:0:0:0:0:
320,192,86343,128,0,86618:0:0:0:0:
448,192,86343,128,2,86526:0:0:0:0:
192,192,86435,128,0,86709:0:0:0:0:
64,192,86526,128,0,86618:0:0:0:0:
448,192,86618,128,0,86892:0:0:0:0:
320,192,86709,128,0,86892:0:0:0:0:
64,192,86709,128,2,86801:0:0:0:0:
192,192,86801,128,0,86892:0:0:0:0:
64,192,86892,128,0,87075:0:0:0:0:
192,192,86984,128,0,87167:0:0:0:0:
448,192,87075,128,0,87349:0:0:0:0:
320,192,87075,128,2,87258:0:0:0:0:
64,192,87167,128,0,87349:0:0:0:0:
192,192,87258,128,0,87441:0:0:0:0:
320,192,87349,128,0,87441:0:0:0:0:
448,192,87441,1,0,0:0:0:0:
64,192,87441,128,2,87532:0:0:0:0:
320,192,87532,128,0,87624:0:0:0:0:
192,192,87624,128,0,87715:0:0:0:0:
448,192,87715,128,0,87807:0:0:0:0:
64,192,87807,128,0,87990:0:0:0:0:
320,192,87807,1,2,0:0:0:0:
448,192,87990,128,0,88081:0:0:0:0:
192,192,88081,128,0,88173:0:0:0:0:
448,192,88173,1,0,0:0:0:0:
320,192,88173,128,2,88264:0:0:0:0:
64,192,88264,128,0,88356:0:0:0:0:
448,192,88356,128,0,88539:0:0:0:0:
64,192,88539,1,0,0:0:0:0:
192,192,88539,128,2,88630:0:0:0:0:
320,192,88630,128,0,88721:0:0:0:0:
64,192,88721,128,0,88813:0:0:0:0:
192,192,88813,128,0,88904:0:0:0:0:
448,192,88904,128,0,88996:0:0:0:0:
320,192,88904,1,2,0:0:0:0:
64,192,88996,128,0,89087:0:0:0:0:
320,192,89087,128,0,89179:0:0:0:0:
192,192,89179,128,0,89270:0:0:0:0:
448,192,89270,128,0,89362:0:0:0:0:
64,192,89270,1,2,0:0:0:0:
320,192,89362,128,0,89453:0:0:0:0:
192,192,89453,128,0,89545:0:0:0:0:
64,192,89545,128,0,89636:0:0:0:0:
320,192,89636,128,0,89728:0:0:0:0:
448,192,89636,128,2,89910:0:0:0:0:
192,192,89728,128,0,89910:0:0:0:0:
320,192,89819,128,0,90002:0:0:0:0:
64,192,89910,128,0,90185:0:0:0:0:
448,192,90002,128,0,90276:0:0:0:0:
192,192,90002,128,2,90093:0:0:0:0:
320,192,90093,128,0,90276:0:0:0:0:
192,192,90185,128,0,90368:0:0:0:0:
64,192,90276,128,0,90368:0:0:0:0:
448,192,90368,128,0,90551:0:0:0:0:
320,192,90368,1,2,0:0:0:0:
192,192,90459,128,0,90642:0:0:0:0:
320,192,90551,128,0,90734:0:0:0:0:
448,192,90642,128,0,90825:0:0:0:0:
192,192,90734,1,0,0:0:0:0:
64,192,90734,128,2,90917:0:0:0:0:
320,192,90825,128,0,91008:0:0:0:0:
192,192,90917,128,0,91099:0:0:0:0:
64,192,91008,128,0,91191:0:0:0:0:
448,192,91099,128,0,91282:0:0:0:0:
320,192,91099,1,2,0:0:0:0:
192,192,91191,128,0,91374:0:0:0:0:
320,192,91282,128,0,91465:0:0:0:0:
448,192,91374,128,0,91557:0:0:0:0:
64,192,91465,1,0,0:0:0:0:
192,192,91465,128,2,91740:0:0:0:0:
320,192,91557,128,0,91740:0:0:0:0:
64,192,91648,128,0,91831:0:0:0:0:
448,192,91740,128,0,91831:0:0:0:0:
320,192,91831,128,0,92106:0:0:0:0:
192,192,91831,128,2,92014:0:0:0:0:
64,192,91923,128,0,92106:0:0:0:0:
448,192,92014,128,0,92197:0:0:0:0:
192,192,92106,128,0,92289:0:0:0:0:
320,192,92197,128,0,92380:0:0:0:0:
64,192,92197,128,2,92471:0:0:0:0:
448,192,92289,128,0,92471:0:0:0:0:
192,192,92380,128,0,92563:0:0:0:0:
320,192,92471,128,0,92654:0:0:0:0:
64,192,92563,128,0,92837:0:0:0:0:
448,192,92563,128,2,92654:0:0:0:0:
192,192,92654,128,0,92746:0:0:0:0:
448,192,92746,128,0,92837:0:0:0:0:
320,192,92746,128,2,92929:0:0:0:0:
192,192,92837,128,0,93020:0:0:0:0:
64,192,92929,128,0,93020:0:0:0:0:
448,192,92929,128,2,93203:0:0:0:0:
320,192,93020,128,0,93112:0:0:0:0:
64,192,93112,128,0,93203:0:0:0:0:
192,192,93112,128,2,93203:0:0:0:0:
320,192,93203,128,0,93295:0:0:0:0:
192,192,93295,128,0,93386:0:0:0:0:
64,192,93295,1,4,0:0:0:0:
448,192,93295,1,2,0:0:0:0:
320,192,93386,128,0,93478:0:0:0:0:
448,192,93478,128,0,93569:0:0:0:0:
320,192,93569,128,0,93660:0:0:0:0:
192,192,93660,128,0,93843:0:0:0:0:
64,192,93660,1,2,0:0:0:0:
320,192,93843,128,0,93935:0:0:0:0:
448,192,93935,1,0,0:0:0:0:
192,192,93935,128,0,94026:0:0:0:0:
448,192,94026,1,0,0:0:0:0:
64,192,94026,128,2,94118:0:0:0:0:
192,192,94118,128,0,94209:0:0:0:0:
320,192,94209,128,0,94392:0:0:0:0:
192,192,94392,1,0,0:0:0:0:
448,192,94392,128,2,94484:0:0:0:0:
320,192,94484,128,0,94575:0:0:0:0:
64,192,94575,128,0,94667:0:0:0:0:
192,192,94667,128,0,94758:0:0:0:0:
320,192,94758,128,0,94849:0:0:0:0:
448,192,94758,1,2,0:0:0:0:
192,192,94849,128,0,94941:0:0:0:0:
64,192,94941,128,0,95032:0:0:0:0:
320,192,95032,128,0,95124:0:0:0:0:
192,192,95124,1,0,0:0:0:0:
448,192,95124,128,2,95307:0:0:0:0:
192,192,95307,128,0,95398:0:0:0:0:
320,192,95398,128,0,95490:0:0:0:0:
64,192,95398,1,0,0:0:0:0:
64,192,95490,1,0,0:0:0:0:
448,192,95490,128,2,95581:0:0:0:0:
192,192,95581,128,0,95673:0:0:0:0:
64,192,95673,128,0,95856:0:0:0:0:
448,192,95856,128,0,95947:0:0:0:0:
192,192,95856,1,2,0:0:0:0:
320,192,95947,128,0,96039:0:0:0:0:
192,192,96039,128,0,96130:0:0:0:0:
64,192,96130,128,0,96221:0:0:0:0:
320,192,96221,1,0,0:0:0:0:
448,192,96221,128,2,96313:0:0:0:0:
192,192,96313,128,0,96404:0:0:0:0:
64,192,96404,128,0,96496:0:0:0:0:
320,192,96496,128,0,96587:0:0:0:0:
448,192,96587,1,0,0:0:0:0:
192,192,96587,128,2,96770:0:0:0:0:
64,192,96770,128,0,96862:0:0:0:0:
320,192,96862,128,0,96953:0:0:0:0:
448,192,96953,128,0,97045:0:0:0:0:
64,192,96953,1,2,0:0:0:0:
192,192,97045,128,0,97136:0:0:0:0:
320,192,97136,128,0,97319:0:0:0:0:
448,192,97319,128,0,97410:0:0:0:0:
192,192,97319,1,2,0:0:0:0:
320,192,97410,128,0,97502:0:0:0:0:
64,192,97502,128,0,97593:0:0:0:0:
192,192,97593,128,0,97685:0:0:0:0:
320,192,97685,128,0,97868:0:0:0:0:
448,192,97685,128,2,97959:0:0:0:0:
64,192,97776,128,0,97959:0:0:0:0:
192,192,97868,128,0,98051:0:0:0:0:
320,192,97959,128,0,98142:0:0:0:0:
64,192,98051,128,0,98234:0:0:0:0:
448,192,98051,128,2,98325:0:0:0:0:
192,192,98142,128,0,98325:0:0:0:0:
320,192,98234,128,0,98417:0:0:0:0:
64,192,98325,128,0,98599:0:0:0:0:
448,192,98417,128,0,98508:0:0:0:0:
192,192,98417,128,2,98599:0:0:0:0:
320,192,98508,128,0,98599:0:0:0:0:
448,192,98599,128,0,98782:0:0:0:0:
192,192,98691,128,0,98874:0:0:0:0:
320,192,98782,128,0,99057:0:0:0:0:
64,192,98782,128,2,98965:0:0:0:0:
448,192,98874,128,0,99057:0:0:0:0:
192,192,98965,128,0,99148:0:0:0:0:
64,192,99057,128,0,99148:0:0:0:0:
448,192,99148,1,0,0:0:0:0:
320,192,99148,128,2,99240:0:0:0:0:
64,192,99240,128,0,99331:0:0:0:0:
192,192,99331,128,0,99423:0:0:0:0:
320,192,99423,128,0,99514:0:0:0:0:
64,192,99514,128,0,99697:0:0:0:0:
448,192,99514,1,2,0:0:0:0:
192,192,99697,128,0,99789:0:0:0:0:
448,192,99789,128,0,99880:0:0:0:0:
64,192,99880,1,0,0:0:0:0:
320,192,99880,128,2,99971:0:0:0:0:
192,192,99971,128,0,100063:0:0:0:0:
448,192,100063,128,0,100246:0:0:0:0:
320,192,100246,1,0,0:0:0:0:
192,192,100246,128,2,100337:0:0:0:0:
64,192,100337,128,0,100429:0:0:0:0:
448,192,100429,128,0,100520:0:0:0:0:
320,192,100520,128,0,100612:0:0:0:0:
192,192,100612,128,0,100703:0:0:0:0:
64,192,100612,1,2,0:0:0:0:
448,192,100703,128,0,100795:0:0:0:0:
320,192,100795,128,0,100886:0:0:0:0:
64,192,100886,128,0,100978:0:0:0:0:
448,192,100978,128,0,101069:0:0:0:0:
192,192,100978,1,2,0:0:0:0:
64,192,101069,128,0,101160:0:0:0:0:
320,192,101160,128,0,101252:0:0:0:0:
192,192,101252,128,0,101343:0:0:0:0:
64,192,101343,128,0,101526:0:0:0:0:
448,192,101343,128,2,101709:0:0:0:0:
320,192,101435,128,0,101618:0:0:0:0:
192,192,101526,128,0,101618:0:0:0:0:
64,192,101618,128,0,101892:0:0:0:0:
192,192,101709,128,0,101801:0:0:0:0:
320,192,101709,128,2,101984:0:0:0:0:
448,192,101801,128,0,101984:0:0:0:0:
192,192,101892,128,0,102075:0:0:0:0:
64,192,101984,128,0,102075:0:0:0:0:
448,192,102075,128,0,102258:0:0:0:0:
320,192,102075,1,2,0:0:0:0:
192,192,102167,128,0,102349:0:0:0:0:
320,192,102258,128,0,102441:0:0:0:0:
448,192,102349,128,0,102532:0:0:0:0:
192,192,102441,1,0,0:0:0:0:
64,192,102441,128,2,102624:0:0:0:0:
320,192,102532,128,0,102715:0:0:0:0:
192,192,102624,128,0,102807:0:0:0:0:
64,192,102715,128,0,102898:0:0:0:0:
320,192,102807,1,0,0:0:0:0:
448,192,102807,128,2,102990:0:0:0:0:
192,192,102898,128,0,103081:0:0:0:0:
320,192,102990,128,0,103173:0:0:0:0:
448,192,103081,128,0,103264:0:0:0:0:
192,192,103173,1,0,0:0:0:0:
64,192,103173,128,2,103264:0:0:0:0:
320,192,103264,128,0,103356:0:0:0:0:
192,192,103356,128,0,103447:0:0:0:0:
448,192,103447,128,0,103539:0:0:0:0:
64,192,103539,128,2,103630:0:0:0:0:
320,192,103539,1,0,0:0:0:0:
192,192,103630,128,0,103721:0:0:0:0:
448,192,103721,128,0,103904:0:0:0:0:
320,192,103813,128,0,103996:0:0:0:0:
64,192,103904,128,2,104179:0:0:0:0:
192,192,103904,128,0,104087:0:0:0:0:
448,192,103996,128,0,104179:0:0:0:0:
320,192,104087,128,0,104362:0:0:0:0:
192,192,104179,128,0,104270:0:0:0:0:
448,192,104270,128,0,104545:0:0:0:0:
64,192,104270,128,2,104362:0:0:0:0:
192,192,104362,128,0,104453:0:0:0:0:
64,192,104453,128,0,104545:0:0:0:0:
320,192,104453,128,2,104636:0:0:0:0:
192,192,104545,128,0,104728:0:0:0:0:
448,192,104636,128,0,104728:0:0:0:0:
64,192,104636,128,2,104910:0:0:0:0:
320,192,104728,128,0,104819:0:0:0:0:
448,192,104819,128,0,104910:0:0:0:0:
192,192,104819,128,2,104910:0:0:0:0:
320,192,104910,128,0,105002:0:0:0:0:
448,192,105002,1,0,0:0:0:0:
64,192,105002,1,2,0:0:0:0:
192,192,105002,1,4,0:0:0:0:
320,192,105093,1,0,0:0:0:0:
64,192,105185,1,0,0:0:0:0:
192,192,105276,1,0,0:0:0:0:
448,192,105368,1,0,0:0:0:0:
320,192,105368,1,2,0:0:0:0:
64,192,105459,1,0,0:0:0:0:
192,192,105551,1,0,0:0:0:0:
448,192,105642,1,0,0:0:0:0:
320,192,105734,1,0,0:0:0:0:
64,192,105734,128,2,106282:0:0:0:0:
192,192,105825,1,0,0:0:0:0:
448,192,105917,1,0,0:0:0:0:
320,192,106008,1,0,0:0:0:0:
192,192,106099,1,0,0:0:0:0:
448,192,106099,1,2,0:0:0:0:
320,192,106191,1,0,0:0:0:0:
192,192,106282,1,0,0:0:0:0:
448,192,106374,1,0,0:0:0:0:
64,192,106465,1,0,0:0:0:0:
320,192,106465,128,2,106831:0:0:0:0:
192,192,106557,1,0,0:0:0:0:
448,192,106648,1,0,0:0:0:0:
64,192,106740,1,0,0:0:0:0:
192,192,106831,128,0,106923:0:0:0:0:
448,192,106831,1,2,0:0:0:0:
320,192,106923,1,0,0:0:0:0:
64,192,107014,128,0,107289:0:0:0:0:
192,192,107106,1,0,0:0:0:0:
448,192,107197,1,0,0:0:0:0:
320,192,107197,1,2,0:0:0:0:
192,192,107289,1,0,0:0:0:0:
448,192,107380,128,0,107746:0:0:0:0:
320,192,107471,1,0,0:0:0:0:
64,192,107563,1,0,0:0:0:0:
192,192,107563,1,2,0:0:0:0:
320,192,107654,1,0,0:0:0:0:
64,192,107746,1,0,0:0:0:0:
192,192,107837,1,0,0:0:0:0:
448,192,107929,1,0,0:0:0:0:
320,192,107929,128,2,108112:0:0:0:0:
192,192,108020,1,0,0:0:0:0:
64,192,108112,1,0,0:0:0:0:
320,192,108203,1,0,0:0:0:0:
192,192,108295,1,0,0:0:0:0:
448,192,108295,128,2,108386:0:0:0:0:
64,192,108386,1,0,0:0:0:0:
192,192,108478,128,0,108660:0:0:0:0:
320,192,108569,1,0,0:0:0:0:
448,192,108660,1,0,0:0:0:0:
64,192,108660,1,2,0:0:0:0:
320,192,108752,1,0,0:0:0:0:
64,192,108843,128,0,109026:0:0:0:0:
192,192,108935,1,0,0:0:0:0:
448,192,109026,1,0,0:0:0:0:
320,192,109026,1,2,0:0:0:0:
64,192,109118,1,0,0:0:0:0:
192,192,109209,128,0,109392:0:0:0:0:
320,192,109301,1,0,0:0:0:0:
64,192,109392,1,0,0:0:0:0:
448,192,109392,1,2,0:0:0:0:
192,192,109484,1,0,0:0:0:0:
320,192,109575,1,0,0:0:0:0:
64,192,109667,1,0,0:0:0:0:
192,192,109758,128,0,109941:0:0:0:0:
448,192,109758,1,2,0:0:0:0:
320,192,109849,1,0,0:0:0:0:
64,192,109941,1,0,0:0:0:0:
192,192,110032,1,0,0:0:0:0:
448,192,110124,1,0,0:0:0:0:
320,192,110124,128,2,110307:0:0:0:0:
192,192,110215,1,0,0:0:0:0:
64,192,110307,1,0,0:0:0:0:
320,192,110398,1,0,0:0:0:0:
192,192,110490,1,0,0:0:0:0:
448,192,110490,128,2,110856:0:0:0:0:
64,192,110581,1,0,0:0:0:0:
320,192,110673,1,0,0:0:0:0:
192,192,110764,1,0,0:0:0:0:
320,192,110856,1,0,0:0:0:0:
64,192,110856,1,2,0:0:0:0:
192,192,110947,1,0,0:0:0:0:
448,192,111039,1,0,0:0:0:0:
64,192,111130,1,0,0:0:0:0:
192,192,111221,1,0,0:0:0:0:
320,192,111221,128,2,111587:0:0:0:0:
448,192,111313,1,0,0:0:0:0:
64,192,111404,1,0,0:0:0:0:
448,192,111496,1,0,0:0:0:0:
64,192,111587,1,0,0:0:0:0:
192,192,111587,128,2,111770:0:0:0:0:
320,192,111679,1,0,0:0:0:0:
448,192,111770,1,0,0:0:0:0:
64,192,111862,1,0,0:0:0:0:
192,192,111953,1,0,0:0:0:0:
320,192,111953,128,2,112136:0:0:0:0:
448,192,112045,1,0,0:0:0:0:
64,192,112136,1,0,0:0:0:0:
192,192,112228,1,0,0:0:0:0:
320,192,112319,1,0,0:0:0:0:
448,192,112319,128,2,112685:0:0:0:0:
192,192,112410,1,0,0:0:0:0:
64,192,112502,1,0,0:0:0:0:
320,192,112593,1,0,0:0:0:0:
64,192,112685,1,0,0:0:0:0:
192,192,112685,1,2,0:0:0:0:
448,192,112776,1,0,0:0:0:0:
192,192,112868,128,0,113142:0:0:0:0:
320,192,112959,1,0,0:0:0:0:
448,192,113051,1,0,0:0:0:0:
64,192,113051,1,2,0:0:0:0:
320,192,113142,1,0,0:0:0:0:
192,192,113234,1,0,0:0:0:0:
448,192,113325,1,0,0:0:0:0:
64,192,113417,128,0,113599:0:0:0:0:
320,192,113417,1,2,0:0:0:0:
192,192,113508,1,0,0:0:0:0:
320,192,113599,1,0,0:0:0:0:
448,192,113691,1,0,0:0:0:0:
192,192,113782,1,0,0:0:0:0:
64,192,113782,128,2,113965:0:0:0:0:
320,192,113874,1,0,0:0:0:0:
448,192,113965,1,0,0:0:0:0:
192,192,114057,1,0,0:0:0:0:
64,192,114148,1,0,0:0:0:0:
320,192,114148,128,2,114240:0:0:0:0:
448,192,114240,1,0,0:0:0:0:
64,192,114331,128,0,115246:0:0:0:0:
192,192,114423,1,0,0:0:0:0:
448,192,114514,1,0,0:0:0:0:
320,192,114514,1,2,0:0:0:0:
192,192,114606,1,0,0:0:0:0:
320,192,114697,1,0,0:0:0:0:
448,192,114789,1,0,0:0:0:0:
192,192,114880,1,0,0:0:0:0:
320,192,114880,1,2,0:0:0:0:
448,192,114971,1,0,0:0:0:0:
192,192,115063,1,0,0:0:0:0:
320,192,115154,1,0,0:0:0:0:
192,192,115246,1,0,0:0:0:0:
448,192,115246,128,2,115337:0:0:0:0:
320,192,115337,128,0,115429:0:0:0:0:
64,192,115429,128,0,115520:0:0:0:0:
192,192,115520,128,0,115612:0:0:0:0:
320,192,115612,128,0,115795:0:0:0:0:
448,192,115612,1,2,0:0:0:0:
192,192,115795,128,0,115886:0:0:0:0:
448,192,115886,128,0,115978:0:0:0:0:
64,192,115978,128,0,116160:0:0:0:0:
320,192,115978,1,2,0:0:0:0:
320,192,116160,128,0,116343:0:0:0:0:
448,192,116160,128,2,116252:0:0:0:0:
64,192,116252,128,0,116435:0:0:0:0:
448,192,116343,128,0,116618:0:0:0:0:
192,192,116343,128,2,116435:0:0:0:0:
320,192,116435,128,0,116526:0:0:0:0:
192,192,116526,128,0,116618:0:0:0:0:
64,192,116526,128,2,116618:0:0:0:0:
320,192,116618,128,0,116709:0:0:0:0:
448,192,116709,1,0,0:0:0:0:
192,192,116709,1,4,0:0:0:0:
64,192,116709,1,2,0:0:0:0:
320,192,116801,1,0,0:0:0:0:
64,192,116892,1,0,0:0:0:0:
192,192,116984,1,0,0:0:0:0:
64,192,117075,1,0,0:0:0:0:
448,192,117075,1,2,0:0:0:0:
320,192,117075,1,8,0:0:0:0:
192,192,117167,1,0,0:0:0:0:
320,192,117258,1,0,0:0:0:0:
64,192,117349,1,0,0:0:0:0:
448,192,117441,128,0,117990:0:0:0:0:
192,192,117441,1,2,0:0:0:0:
320,192,117532,1,0,0:0:0:0:
64,192,117624,1,0,0:0:0:0:
192,192,117715,1,0,0:0:0:0:
320,192,117807,1,8,0:0:0:0:
64,192,117807,1,2,0:0:0:0:
192,192,117898,1,0,0:0:0:0:
320,192,117990,1,0,0:0:0:0:
64,192,118081,1,0,0:0:0:0:
192,192,118173,128,0,118356:0:0:0:0:
448,192,118173,1,2,0:0:0:0:
320,192,118264,1,0,0:0:0:0:
64,192,118356,1,0,0:0:0:0:
192,192,118447,1,0,0:0:0:0:
320,192,118539,128,0,118630:0:0:0:0:
448,192,118539,1,8,0:0:0:0:
64,192,118539,1,2,0:0:0:0:
192,192,118630,1,0,0:0:0:0:
448,192,118721,128,0,118904:0:0:0:0:
64,192,118813,1,0,0:0:0:0:
192,192,118904,1,0,0:0:0:0:
320,192,118904,1,2,0:0:0:0:
448,192,118996,1,0,0:0:0:0:
64,192,119087,128,0,119453:0:0:0:0:
192,192,119179,1,0,0:0:0:0:
320,192,119270,1,2,0:0:0:0:
448,192,119270,1,8,0:0:0:0:
192,192,119362,1,0,0:0:0:0:
320,192,119453,1,0,0:0:0:0:
64,192,119545,1,0,0:0:0:0:
192,192,119636,128,0,119819:0:0:0:0:
448,192,119636,1,2,0:0:0:0:
320,192,119728,1,0,0:0:0:0:
64,192,119819,1,0,0:0:0:0:
448,192,119910,1,0,0:0:0:0:
64,192,120002,128,0,120185:0:0:0:0:
320,192,120002,1,8,0:0:0:0:
192,192,120002,1,2,0:0:0:0:
448,192,120093,1,0,0:0:0:0:
320,192,120185,128,0,120368:0:0:0:0:
64,192,120276,1,0,0:0:0:0:
192,192,120368,1,0,0:0:0:0:
448,192,120368,1,2,0:0:0:0:
64,192,120459,1,0,0:0:0:0:
192,192,120551,1,0,0:0:0:0:
448,192,120551,128,0,120734:0:0:0:0:
320,192,120642,1,0,0:0:0:0:
192,192,120734,1,8,0:0:0:0:
64,192,120734,1,2,0:0:0:0:
448,192,120825,1,0,0:0:0:0:
320,192,120917,128,0,121282:0:0:0:0:
192,192,121008,1,0,0:0:0:0:
64,192,121099,1,0,0:0:0:0:
448,192,121099,1,2,0:0:0:0:
192,192,121191,1,0,0:0:0:0:
448,192,121282,1,0,0:0:0:0:
320,192,121374,1,0,0:0:0:0:
64,192,121465,128,0,121648:0:0:0:0:
448,192,121465,1,8,0:0:0:0:
192,192,121465,1,2,0:0:0:0:
320,192,121557,1,0,0:0:0:0:
192,192,121648,1,0,0:0:0:0:
448,192,121740,1,0,0:0:0:0:
192,192,121831,128,0,122014:0:0:0:0:
320,192,121831,1,2,0:0:0:0:
64,192,121923,1,0,0:0:0:0:
448,192,122014,1,0,0:0:0:0:
192,192,122106,1,0,0:0:0:0:
320,192,122197,128,0,122563:0:0:0:0:
64,192,122197,1,8,0:0:0:0:
448,192,122197,1,2,0:0:0:0:
192,192,122289,1,0,0:0:0:0:
64,192,122380,1,0,0:0:0:0:
448,192,122471,1,0,0:0:0:0:
192,192,122563,1,0,0:0:0:0:
64,192,122563,1,2,0:0:0:0:
320,192,122654,1,0,0:0:0:0:
448,192,122746,1,0,0:0:0:0:
64,192,122837,1,0,0:0:0:0:
320,192,122929,1,0,0:0:0:0:
192,192,122929,1,8,0:0:0:0:
448,192,122929,128,2,123112:0:0:0:0:
64,192,123020,1,0,0:0:0:0:
320,192,123112,1,0,0:0:0:0:
192,192,123203,1,0,0:0:0:0:
64,192,123295,1,0,0:0:0:0:
320,192,123295,128,2,123660:0:0:0:0:
448,192,123386,1,0,0:0:0:0:
192,192,123478,1,0,0:0:0:0:
64,192,123569,1,0,0:0:0:0:
448,192,123660,128,2,123843:0:0:0:0:
192,192,123660,1,8,0:0:0:0:
320,192,123752,1,0,0:0:0:0:
192,192,123843,1,0,0:0:0:0:
448,192,123935,1,0,0:0:0:0:
320,192,124026,128,0,124392:0:0:0:0:
64,192,124026,1,2,0:0:0:0:
192,192,124118,1,0,0:0:0:0:
448,192,124209,1,0,0:0:0:0:
64,192,124301,1,0,0:0:0:0:
448,192,124392,1,8,0:0:0:0:
192,192,124392,1,2,0:0:0:0:
320,192,124484,1,0,0:0:0:0:
64,192,124575,128,0,124758:0:0:0:0:
192,192,124667,1,0,0:0:0:0:
320,192,124758,1,0,0:0:0:0:
448,192,124758,1,2,0:0:0:0:
192,192,124849,1,0,0:0:0:0:
64,192,124941,1,0,0:0:0:0:
448,192,125032,1,0,0:0:0:0:
320,192,125124,1,0,0:0:0:0:
64,192,125124,1,8,0:0:0:0:
192,192,125124,128,2,125307:0:0:0:0:
448,192,125215,1,0,0:0:0:0:
320,192,125307,1,0,0:0:0:0:
64,192,125398,1,0,0:0:0:0:
192,192,125490,128,0,125856:0:0:0:0:
448,192,125490,1,2,0:0:0:0:
320,192,125581,1,0,0:0:0:0:
64,192,125673,1,0,0:0:0:0:
448,192,125764,1,0,0:0:0:0:
64,192,125856,1,2,0:0:0:0:
320,192,125856,128,8,125947:0:0:0:0:
448,192,125947,1,0,0:0:0:0:
64,192,126039,128,0,126953:0:0:0:0:
192,192,126130,1,0,0:0:0:0:
320,192,126221,1,0,0:0:0:0:
448,192,126221,1,2,0:0:0:0:
192,192,126313,1,0,0:0:0:0:
320,192,126404,1,0,0:0:0:0:
448,192,126496,1,0,0:0:0:0:
320,192,126587,1,8,0:0:0:0:
192,192,126587,1,2,0:0:0:0:
448,192,126679,1,0,0:0:0:0:
192,192,126770,1,0,0:0:0:0:
320,192,126862,1,0,0:0:0:0:
448,192,126953,1,0,0:0:0:0:
192,192,126953,1,2,0:0:0:0:
320,192,127045,1,0,0:0:0:0:
64,192,127136,1,0,0:0:0:0:
192,192,127228,1,0,0:0:0:0:
64,192,127319,1,0,0:0:0:0:
448,192,127319,1,8,0:0:0:0:
320,192,127319,1,2,0:0:0:0:
192,192,127410,1,0,0:0:0:0:
448,192,127502,1,0,0:0:0:0:
320,192,127593,1,0,0:0:0:0:
192,192,127685,1,0,0:0:0:0:
64,192,127685,1,2,0:0:0:0:
448,192,127776,1,0,0:0:0:0:
192,192,127868,1,0,0:0:0:0:
64,192,127868,1,2,0:0:0:0:
320,192,127959,1,0,0:0:0:0:
64,192,128051,1,0,0:0:0:0:
192,192,128051,1,2,0:0:0:0:
448,192,128051,1,8,0:0:0:0:
320,192,128142,1,0,0:0:0:0:
64,192,128234,1,0,0:0:0:0:
192,192,128234,1,2,0:0:0:0:
448,192,128325,1,0,0:0:0:0:
192,192,128417,1,0,0:0:0:70:twinkling.wav
64,192,128417,1,0,0:0:0:70:LR_CymbalRDW.wav
320,192,128417,128,2,128599:0:0:0:0:
192,192,128782,128,0,128965:0:0:0:0:
448,192,128965,128,0,129240:0:0:0:0:
64,192,129331,128,0,129606:0:0:0:0:
320,192,129697,128,0,129880:0:0:0:0:
192,192,129880,128,0,130337:0:0:0:0:
64,192,130429,128,0,130795:0:0:0:0:
192,192,130978,128,0,131160:0:0:0:0:
320,192,131343,128,0,131709:0:0:0:0:
448,192,131892,128,0,133173:0:0:0:0:
192,192,134087,128,0,134545:0:0:0:0:
64,192,134636,128,0,134728:0:0:0:0:
192,192,134819,128,0,135185:0:0:0:0:
64,192,135185,128,0,135276:0:0:0:0:
192,192,135368,128,0,135459:0:0:0:0:
448,192,135551,128,0,135734:0:0:0:0:
320,192,135734,128,0,136099:0:0:0:0:
192,192,136282,128,0,136831:0:0:0:0:
320,192,136831,128,0,137014:0:0:0:0:
320,192,137197,128,0,137471:0:0:0:0:
448,192,137563,128,0,137654:0:0:0:0:
192,192,137746,128,0,137929:0:0:0:0:
64,192,138112,128,0,138386:0:0:0:0:
192,192,138478,128,0,138752:0:0:0:0:
192,192,139026,128,0,139301:0:0:0:0:
320,192,139392,128,0,139667:0:0:0:0:
448,192,139758,128,0,140124:0:0:0:0:
320,192,140124,1,0,0:0:0:0:
192,192,140124,1,0,0:0:0:70:LR_CymbalRDW.wav
64,192,140124,1,2,0:0:0:0:
448,192,140307,1,0,0:0:0:0:
320,192,140398,1,0,0:0:0:0:
64,192,140490,1,0,0:0:0:0:
448,192,140673,1,0,0:0:0:0:
192,192,140764,1,0,0:0:0:0:
64,192,140856,1,0,0:0:0:0:
448,192,141039,1,0,0:0:0:0:
320,192,141130,1,0,0:0:0:0:
192,192,141221,1,0,0:0:0:0:
320,192,141404,1,0,0:0:0:0:
192,192,141496,1,0,0:0:0:0:
448,192,141587,1,0,0:0:0:0:
64,192,141587,1,0,0:0:0:0:
192,192,141770,1,0,0:0:0:0:
320,192,141862,1,0,0:0:0:0:
448,192,141953,1,0,0:0:0:0:
64,192,142136,1,0,0:0:0:0:
192,192,142228,1,0,0:0:0:0:
320,192,142319,1,0,0:0:0:0:
64,192,142502,1,0,0:0:0:0:
320,192,142593,1,0,0:0:0:0:
448,192,142685,1,0,0:0:0:0:
64,192,142868,1,0,0:0:0:0:
192,192,142959,1,0,0:0:0:0:
320,192,143051,1,0,0:0:0:0:
448,192,143051,1,0,0:0:0:0:
192,192,143234,1,0,0:0:0:0:
64,192,143325,1,0,0:0:0:0:
448,192,143417,1,0,0:0:0:0:
320,192,143599,1,0,0:0:0:0:
448,192,143691,1,0,0:0:0:0:
64,192,143782,1,0,0:0:0:0:
192,192,143965,1,0,0:0:0:0:
320,192,144057,1,0,0:0:0:0:
448,192,144148,1,0,0:0:0:0:
320,192,144331,1,0,0:0:0:0:
192,192,144423,1,0,0:0:0:0:
448,192,144514,1,0,0:0:0:0:
64,192,144514,1,0,0:0:0:0:
192,192,144697,1,0,0:0:0:0:
320,192,144789,1,0,0:0:0:0:
448,192,144880,1,0,0:0:0:0:
320,192,145063,1,0,0:0:0:0:
192,192,145154,1,0,0:0:0:0:
64,192,145246,1,0,0:0:0:0:
320,192,145429,1,0,0:0:0:0:
448,192,145520,1,0,0:0:0:0:
64,192,145612,1,0,0:0:0:0:
192,192,145795,1,0,0:0:0:0:
64,192,145886,1,0,0:0:0:0:
320,192,145978,1,0,0:0:0:0:
448,192,145978,1,0,0:0:0:70:LR_CymbalRDW.wav
192,192,145978,1,2,0:0:0:0:
192,192,146343,1,0,0:0:0:0:
64,192,146343,1,0,0:0:0:70:snare.wav
192,192,146709,1,0,0:0:0:0:
64,192,146709,1,0,0:0:0:50:snare.wav
64,192,147075,1,0,0:0:0:0:
192,192,147075,1,0,0:0:0:50:snare.wav
64,192,147441,1,0,0:0:0:0:
192,192,147441,1,0,0:0:0:50:snare.wav
192,192,147807,1,0,0:0:0:0:
64,192,147807,1,0,0:0:0:50:snare.wav
64,192,148081,1,0,0:0:0:0:
192,192,148081,1,0,0:0:0:50:snare.wav
448,192,148173,1,0,0:0:0:0:
320,192,148173,1,0,0:0:0:50:snare.wav
320,192,148356,1,0,0:0:0:0:
448,192,148356,1,0,0:0:0:50:snare.wav
64,192,148539,1,0,0:0:0:0:
192,192,148539,1,0,0:0:0:50:snare.wav
448,192,148630,1,0,0:0:0:0:
320,192,148630,1,0,0:0:0:50:snare.wav
192,192,148813,1,0,0:0:0:0:
320,192,148813,1,0,0:0:0:50:snare.wav
448,192,148904,1,0,0:0:0:0:
64,192,148904,1,0,0:0:0:50:snare.wav
64,192,149087,1,0,0:0:0:0:
448,192,149087,1,0,0:0:0:50:snare.wav
64,192,149270,1,0,0:0:0:0:
320,192,149270,1,0,0:0:0:50:snare.wav
320,192,149453,1,0,0:0:0:0:
64,192,149453,1,0,0:0:0:50:snare.wav
192,192,149636,1,0,0:0:0:0:
320,192,149636,1,0,0:0:0:50:snare.wav
192,192,149819,1,0,0:0:0:0:
320,192,149819,1,0,0:0:0:50:snare.wav
192,192,150002,1,0,0:0:0:0:
448,192,150002,1,0,0:0:0:50:snare.wav
448,192,150185,1,0,0:0:0:0:
192,192,150185,1,0,0:0:0:50:snare.wav
320,192,150368,1,0,0:0:0:0:
448,192,150368,1,0,0:0:0:50:snare.wav
64,192,150459,1,0,0:0:0:0:
192,192,150459,1,0,0:0:0:50:snare.wav
448,192,150551,1,0,0:0:0:0:
320,192,150551,1,0,0:0:0:50:snare.wav
192,192,150642,1,0,0:0:0:0:
64,192,150642,1,0,0:0:0:50:snare.wav
448,192,150734,1,0,0:0:0:0:
320,192,150734,1,0,0:0:0:50:snare.wav
64,192,150825,1,0,0:0:0:0:
192,192,150825,1,0,0:0:0:50:snare.wav
448,192,150917,1,0,0:0:0:0:
320,192,150917,1,0,0:0:0:50:snare.wav
192,192,151008,1,0,0:0:0:0:
64,192,151008,1,0,0:0:0:50:snare.wav
448,192,151099,1,0,0:0:0:50:snare.wav
320,192,151145,1,0,0:0:0:50:snare.wav
192,192,151191,1,0,0:0:0:0:
64,192,151191,1,0,0:0:0:50:snare.wav
448,192,151282,1,0,0:0:0:0:
320,192,151282,1,0,0:0:0:50:snare.wav
192,192,151374,1,0,0:0:0:0:
64,192,151374,1,0,0:0:0:50:snare.wav
320,192,151465,1,0,0:0:0:0:
448,192,151465,1,0,0:0:0:50:snare.wav
64,192,151557,1,0,0:0:0:0:
192,192,151557,1,0,0:0:0:50:snare.wav
320,192,151648,1,0,0:0:0:0:
448,192,151648,1,0,0:0:0:50:snare.wav
64,192,151740,1,0,0:0:0:50:snare.wav
192,192,151831,1,0,0:0:0:0:
448,192,151831,128,4,152014:0:0:0:0:
320,192,151831,1,2,0:0:0:0:
64,192,152014,128,0,152106:0:0:0:0:
192,192,152106,128,0,152197:0:0:0:0:
448,192,152197,1,0,0:0:0:0:
320,192,152197,128,2,152380:0:0:0:0:
192,192,152380,128,0,152471:0:0:0:0:
320,192,152471,128,0,152563:0:0:0:0:
64,192,152563,128,0,152654:0:0:0:0:
448,192,152563,1,2,0:0:0:0:
192,192,152654,128,0,152746:0:0:0:0:
320,192,152746,128,0,152837:0:0:0:0:
448,192,152837,128,0,152929:0:0:0:0:
192,192,152929,1,0,0:0:0:0:
64,192,152929,128,2,153020:0:0:0:0:
320,192,153020,128,0,153112:0:0:0:0:
192,192,153112,128,0,153203:0:0:0:0:
448,192,153203,128,0,153295:0:0:0:0:
64,192,153295,128,0,153386:0:0:0:0:
320,192,153295,1,2,0:0:0:0:
192,192,153386,128,0,153478:0:0:0:0:
320,192,153478,128,0,153569:0:0:0:0:
64,192,153569,128,0,153660:0:0:0:0:
192,192,153660,128,0,153752:0:0:0:0:
448,192,153660,1,2,0:0:0:0:
320,192,153752,128,0,153843:0:0:0:0:
64,192,153843,128,0,153935:0:0:0:0:
192,192,153935,128,0,154026:0:0:0:0:
320,192,154026,128,0,154118:0:0:0:0:
448,192,154026,1,2,0:0:0:0:
64,192,154118,128,0,154209:0:0:0:0:
448,192,154209,128,0,154301:0:0:0:0:
192,192,154301,128,0,154392:0:0:0:0:
64,192,154392,1,0,0:0:0:0:
320,192,154392,128,2,154484:0:0:0:0:
448,192,154484,128,0,154575:0:0:0:0:
320,192,154575,128,0,154667:0:0:0:0:
64,192,154667,128,0,154758:0:0:0:0:
448,192,154758,1,0,0:0:0:0:
192,192,154758,128,2,154849:0:0:0:0:
320,192,154849,128,0,154941:0:0:0:0:
448,192,154941,128,0,155032:0:0:0:0:
192,192,155032,128,0,155124:0:0:0:0:
64,192,155124,1,0,0:0:0:0:
320,192,155124,128,2,155307:0:0:0:0:
448,192,155307,128,0,155398:0:0:0:0:
320,192,155398,128,0,155490:0:0:0:0:
448,192,155490,1,0,0:0:0:0:
192,192,155490,128,2,155581:0:0:0:0:
64,192,155581,128,0,155673:0:0:0:0:
192,192,155673,128,0,155764:0:0:0:0:
320,192,155764,128,0,155856:0:0:0:0:
448,192,155856,1,0,0:0:0:0:
64,192,155856,128,2,155947:0:0:0:0:
192,192,155947,128,0,156039:0:0:0:0:
320,192,156039,128,0,156130:0:0:0:0:
64,192,156130,128,0,156221:0:0:0:0:
448,192,156221,1,0,0:0:0:0:
192,192,156221,128,2,156404:0:0:0:0:
64,192,156404,128,0,156587:0:0:0:0:
192,192,156496,128,0,156587:0:0:0:0:
320,192,156587,128,0,156770:0:0:0:0:
448,192,156587,1,2,0:0:0:0:
192,192,156770,128,0,156953:0:0:0:0:
320,192,156862,128,0,156953:0:0:0:0:
448,192,156953,128,0,157136:0:0:0:0:
64,192,156953,1,2,0:0:0:0:
320,192,157136,128,0,157319:0:0:0:0:
448,192,157228,128,0,157319:0:0:0:0:
192,192,157319,1,0,0:0:0:0:
64,192,157319,128,2,157502:0:0:0:0:
448,192,157502,128,0,157685:0:0:0:0:
64,192,157593,128,0,157685:0:0:0:0:
192,192,157685,128,0,157959:0:0:0:0:
320,192,157685,1,2,0:0:0:0:
448,192,157776,128,0,157959:0:0:0:0:
64,192,157868,128,0,158051:0:0:0:0:
320,192,157959,128,0,158051:0:0:0:0:
448,192,158051,128,0,158325:0:0:0:0:
192,192,158051,1,2,0:0:0:0:
320,192,158142,128,0,158325:0:0:0:0:
64,192,158234,128,0,158417:0:0:0:0:
192,192,158325,128,0,158417:0:0:0:0:
320,192,158417,128,0,158691:0:0:0:0:
448,192,158417,1,2,0:0:0:0:
192,192,158508,128,0,158691:0:0:0:0:
448,192,158599,128,0,158782:0:0:0:0:
64,192,158691,128,0,158782:0:0:0:0:
192,192,158782,128,0,159057:0:0:0:0:
320,192,158782,1,2,0:0:0:0:
64,192,158874,128,0,159057:0:0:0:0:
320,192,158965,128,0,159148:0:0:0:0:
448,192,159057,128,0,159148:0:0:0:0:
192,192,159148,1,0,0:0:0:0:
64,192,159148,128,2,159240:0:0:0:0:
320,192,159240,128,0,159331:0:0:0:0:
192,192,159331,128,0,159423:0:0:0:0:
448,192,159423,128,0,159514:0:0:0:0:
320,192,159514,128,0,159697:0:0:0:0:
64,192,159514,1,2,0:0:0:0:
192,192,159697,128,0,159880:0:0:0:0:
448,192,159880,1,0,0:0:0:0:
320,192,159880,128,2,159971:0:0:0:0:
64,192,159971,128,0,160063:0:0:0:0:
448,192,160063,128,0,160154:0:0:0:0:
320,192,160154,128,0,160246:0:0:0:0:
192,192,160246,128,0,160337:0:0:0:0:
448,192,160246,1,2,0:0:0:0:
64,192,160337,128,0,160429:0:0:0:0:
320,192,160429,128,0,160520:0:0:0:0:
448,192,160520,128,0,160612:0:0:0:0:
192,192,160612,128,0,160886:0:0:0:0:
64,192,160612,1,2,0:0:0:0:
320,192,160703,128,0,160886:0:0:0:0:
448,192,160795,128,0,160978:0:0:0:0:
64,192,160886,128,0,160978:0:0:0:0:
320,192,160978,1,0,0:0:0:0:
192,192,160978,128,2,161160:0:0:0:0:
448,192,161160,128,0,161252:0:0:0:0:
320,192,161252,128,0,161343:0:0:0:0:
64,192,161343,128,0,161618:0:0:0:0:
192,192,161343,1,2,0:0:0:0:
320,192,161435,128,0,161618:0:0:0:0:
192,192,161526,128,0,161709:0:0:0:0:
448,192,161618,128,0,161709:0:0:0:0:
320,192,161709,128,0,161984:0:0:0:0:
64,192,161709,1,2,0:0:0:0:
192,192,161801,128,0,161984:0:0:0:0:
64,192,161892,128,0,162075:0:0:0:0:
448,192,161984,128,0,162075:0:0:0:0:
192,192,162075,128,0,162349:0:0:0:0:
320,192,162075,1,2,0:0:0:0:
448,192,162167,128,0,162349:0:0:0:0:
64,192,162258,128,0,162441:0:0:0:0:
320,192,162349,128,0,162441:0:0:0:0:
448,192,162441,1,0,0:0:0:0:
192,192,162441,128,2,162715:0:0:0:0:
64,192,162532,128,0,162715:0:0:0:0:
448,192,162624,128,0,162898:0:0:0:0:
320,192,162715,128,0,162807:0:0:0:0:
192,192,162807,128,0,162990:0:0:0:0:
64,192,162807,128,2,162898:0:0:0:0:
320,192,162898,128,0,163081:0:0:0:0:
64,192,162990,128,0,163264:0:0:0:0:
448,192,162990,128,2,163081:0:0:0:0:
192,192,163081,128,0,163173:0:0:0:0:
448,192,163173,128,0,163264:0:0:0:0:
320,192,163173,128,2,163356:0:0:0:0:
192,192,163264,128,0,163447:0:0:0:0:
64,192,163356,128,0,163447:0:0:0:0:
448,192,163356,128,2,163539:0:0:0:0:
320,192,163447,128,0,163539:0:0:0:0:
64,192,163539,128,2,163721:0:0:0:0:
192,192,163539,1,4,0:0:0:0:
448,192,163721,128,0,163813:0:0:0:0:
320,192,163813,128,0,163904:0:0:0:0:
64,192,163904,1,0,0:0:0:0:
192,192,163904,128,2,164087:0:0:0:0:
320,192,164087,128,0,164179:0:0:0:0:
192,192,164179,128,0,164270:0:0:0:0:
448,192,164270,128,0,164362:0:0:0:0:
64,192,164270,1,2,0:0:0:0:
320,192,164362,128,0,164453:0:0:0:0:
192,192,164453,128,0,164545:0:0:0:0:
64,192,164545,128,0,164636:0:0:0:0:
448,192,164636,128,0,164728:0:0:0:0:
320,192,164636,1,2,0:0:0:0:
192,192,164728,128,0,164819:0:0:0:0:
320,192,164819,128,0,164910:0:0:0:0:
64,192,164910,128,0,165002:0:0:0:0:
448,192,165002,128,0,165093:0:0:0:0:
192,192,165002,1,2,0:0:0:0:
320,192,165093,128,0,165185:0:0:0:0:
192,192,165185,128,0,165276:0:0:0:0:
448,192,165276,128,0,165368:0:0:0:0:
320,192,165368,128,0,165459:0:0:0:0:
64,192,165368,1,2,0:0:0:0:
192,192,165459,128,0,165551:0:0:0:0:
448,192,165551,128,0,165642:0:0:0:0:
320,192,165642,128,0,165734:0:0:0:0:
64,192,165734,1,0,0:0:0:0:
192,192,165734,128,2,165825:0:0:0:0:
448,192,165825,128,0,165917:0:0:0:0:
64,192,165917,128,0,166008:0:0:0:0:
320,192,166008,128,0,166099:0:0:0:0:
448,192,166099,1,0,0:0:0:0:
192,192,166099,128,2,166191:0:0:0:0:
64,192,166191,128,0,166282:0:0:0:0:
192,192,166282,128,0,166374:0:0:0:0:
448,192,166374,128,0,166465:0:0:0:0:
320,192,166465,128,0,166557:0:0:0:0:
64,192,166465,1,2,0:0:0:0:
192,192,166557,128,0,166648:0:0:0:0:
64,192,166648,128,0,166740:0:0:0:0:
320,192,166740,128,0,166831:0:0:0:0:
448,192,166831,1,0,0:0:0:0:
192,192,166831,128,2,167014:0:0:0:0:
64,192,167014,128,0,167106:0:0:0:0:
192,192,167106,128,0,167197:0:0:0:0:
320,192,167197,128,0,167289:0:0:0:0:
64,192,167197,1,2,0:0:0:0:
448,192,167289,128,0,167380:0:0:0:0:
320,192,167380,128,0,167471:0:0:0:0:
192,192,167471,128,0,167563:0:0:0:0:
64,192,167563,1,0,0:0:0:0:
448,192,167563,128,2,167654:0:0:0:0:
320,192,167654,128,0,167746:0:0:0:0:
192,192,167746,128,0,167837:0:0:0:0:
448,192,167837,128,0,167929:0:0:0:0:
64,192,167929,1,0,0:0:0:0:
320,192,167929,128,2,168112:0:0:0:0:
448,192,168112,128,0,168295:0:0:0:0:
320,192,168203,128,0,168295:0:0:0:0:
192,192,168295,128,0,168478:0:0:0:0:
64,192,168295,1,2,0:0:0:0:
320,192,168478,128,0,168660:0:0:0:0:
192,192,168569,128,0,168660:0:0:0:0:
64,192,168660,128,0,168843:0:0:0:0:
448,192,168660,1,2,0:0:0:0:
192,192,168843,128,0,169026:0:0:0:0:
64,192,168935,128,0,169026:0:0:0:0:
448,192,169026,128,0,169209:0:0:0:0:
320,192,169026,1,2,0:0:0:0:
64,192,169209,128,0,169392:0:0:0:0:
448,192,169301,128,0,169392:0:0:0:0:
320,192,169392,128,0,169667:0:0:0:0:
192,192,169392,1,2,0:0:0:0:
64,192,169484,128,0,169667:0:0:0:0:
448,192,169575,128,0,169758:0:0:0:0:
192,192,169667,128,0,169758:0:0:0:0:
64,192,169758,128,0,170032:0:0:0:0:
320,192,169758,1,2,0:0:0:0:
192,192,169849,128,0,170032:0:0:0:0:
448,192,169941,128,0,170124:0:0:0:0:
320,192,170032,128,0,170124:0:0:0:0:
192,192,170124,128,0,170398:0:0:0:0:
64,192,170124,1,2,0:0:0:0:
320,192,170215,128,0,170398:0:0:0:0:
64,192,170307,128,0,170490:0:0:0:0:
448,192,170398,128,0,170490:0:0:0:0:
192,192,170490,1,0,0:0:0:0:
320,192,170490,128,2,170764:0:0:0:0:
448,192,170581,128,0,170764:0:0:0:0:
192,192,170673,128,0,170856:0:0:0:0:
64,192,170764,128,0,170856:0:0:0:0:
448,192,170856,128,0,170947:0:0:0:0:
320,192,170856,1,2,0:0:0:0:
192,192,170947,128,0,171039:0:0:0:0:
320,192,171039,128,0,171130:0:0:0:0:
64,192,171130,128,0,171221:0:0:0:0:
448,192,171221,1,0,0:0:0:0:
192,192,171221,128,2,171404:0:0:0:0:
320,192,171404,128,0,171587:0:0:0:0:
192,192,171587,128,0,171679:0:0:0:0:
64,192,171587,1,2,0:0:0:0:
448,192,171679,128,0,171770:0:0:0:0:
64,192,171770,128,0,171862:0:0:0:0:
192,192,171862,128,0,171953:0:0:0:0:
64,192,171953,1,0,0:0:0:0:
320,192,171953,128,2,172045:0:0:0:0:
448,192,172045,128,0,172136:0:0:0:0:
192,192,172136,128,0,172228:0:0:0:0:
64,192,172228,128,0,172319:0:0:0:0:
448,192,172319,1,0,0:0:0:0:
320,192,172319,128,2,172593:0:0:0:0:
192,192,172410,128,0,172593:0:0:0:0:
64,192,172502,128,0,172685:0:0:0:0:
448,192,172593,128,0,172685:0:0:0:0:
320,192,172685,128,0,172868:0:0:0:0:
192,192,172685,1,2,0:0:0:0:
64,192,172868,128,0,172959:0:0:0:0:
192,192,172959,128,0,173051:0:0:0:0:
448,192,173051,128,0,173325:0:0:0:0:
320,192,173051,1,2,0:0:0:0:
192,192,173142,128,0,173325:0:0:0:0:
320,192,173234,128,0,173417:0:0:0:0:
64,192,173325,128,0,173417:0:0:0:0:
192,192,173417,128,0,173599:0:0:0:0:
448,192,173417,1,2,0:0:0:0:
320,192,173508,128,0,173782:0:0:0:0:
64,192,173599,128,0,173782:0:0:0:0:
448,192,173599,1,2,0:0:0:0:
192,192,173691,128,0,173782:0:0:0:0:
448,192,173782,128,0,173874:0:0:0:0:
64,192,173874,128,0,173965:0:0:0:0:
192,192,173965,128,0,174057:0:0:0:0:
320,192,174057,128,0,174148:0:0:0:0:
448,192,174148,128,0,174240:0:0:0:0:
64,192,174240,128,0,174331:0:0:0:0:
320,192,174331,128,0,174423:0:0:0:0:
192,192,174423,128,0,174514:0:0:0:0:
320,192,174514,128,0,174697:0:0:0:0:
448,192,174514,128,2,174606:0:0:0:0:
64,192,174606,128,0,174789:0:0:0:0:
448,192,174697,128,0,174880:0:0:0:0:
192,192,174697,128,2,174789:0:0:0:0:
320,192,174789,128,0,174971:0:0:0:0:
64,192,174880,128,0,174971:0:0:0:0:
192,192,174880,128,2,175063:0:0:0:0:
448,192,174971,128,0,175154:0:0:0:0:
320,192,175063,128,0,175154:0:0:0:0:
64,192,175063,128,2,175154:0:0:0:0:
192,192,175154,128,0,175246:0:0:0:0:
448,192,175246,1,0,0:0:0:0:
320,192,175246,128,4,175429:0:0:0:0:
64,192,175246,1,2,0:0:0:0:
64,192,175429,128,0,175520:0:0:0:0:
192,192,175520,128,0,175612:0:0:0:0:
320,192,175612,1,0,0:0:0:0:
448,192,175612,128,2,175795:0:0:0:0:
64,192,175612,1,8,0:0:0:0:
64,192,175795,128,0,175886:0:0:0:0:
320,192,175886,128,0,175978:0:0:0:0:
192,192,175978,128,0,176069:0:0:0:0:
448,192,175978,1,2,0:0:0:0:
64,192,176069,128,0,176160:0:0:0:0:
448,192,176160,128,0,176252:0:0:0:0:
320,192,176252,128,0,176343:0:0:0:0:
192,192,176343,1,0,0:0:0:0:
64,192,176343,128,8,176435:0:0:0:0:
448,192,176343,1,2,0:0:0:0:
320,192,176435,128,0,176526:0:0:0:0:
192,192,176526,128,0,176618:0:0:0:0:
448,192,176618,128,0,176709:0:0:0:0:
320,192,176709,128,0,176801:0:0:0:0:
64,192,176709,1,2,0:0:0:0:
192,192,176801,128,0,176892:0:0:0:0:
64,192,176892,128,0,176984:0:0:0:0:
320,192,176984,128,0,177075:0:0:0:0:
192,192,177075,128,8,177167:0:0:0:0:
448,192,177075,1,2,0:0:0:0:
64,192,177167,128,0,177258:0:0:0:0:
320,192,177258,128,0,177349:0:0:0:0:
192,192,177349,128,0,177441:0:0:0:0:
448,192,177441,1,0,0:0:0:0:
64,192,177441,128,2,177532:0:0:0:0:
320,192,177532,128,0,177624:0:0:0:0:
192,192,177624,128,0,177715:0:0:0:0:
448,192,177715,128,0,177807:0:0:0:0:
320,192,177807,128,0,177898:0:0:0:0:
64,192,177807,1,2,0:0:0:0:
192,192,177807,1,8,0:0:0:0:
448,192,177898,128,0,177990:0:0:0:0:
192,192,177990,128,0,178081:0:0:0:0:
64,192,178081,128,0,178173:0:0:0:0:
448,192,178173,1,0,0:0:0:0:
320,192,178173,128,2,178264:0:0:0:0:
192,192,178264,128,0,178356:0:0:0:0:
64,192,178356,128,0,178447:0:0:0:0:
320,192,178447,128,0,178539:0:0:0:0:
64,192,178539,1,0,0:0:0:0:
192,192,178539,128,8,178721:0:0:0:0:
448,192,178539,1,2,0:0:0:0:
448,192,178721,128,0,178813:0:0:0:0:
320,192,178813,128,0,178904:0:0:0:0:
64,192,178904,1,0,0:0:0:0:
192,192,178904,128,2,178996:0:0:0:0:
320,192,178996,128,0,179087:0:0:0:0:
192,192,179087,128,0,179179:0:0:0:0:
64,192,179179,128,0,179270:0:0:0:0:
448,192,179270,128,0,179362:0:0:0:0:
320,192,179270,1,8,0:0:0:0:
192,192,179270,1,2,0:0:0:0:
64,192,179362,128,0,179453:0:0:0:0:
320,192,179453,128,0,179545:0:0:0:0:
192,192,179545,128,0,179636:0:0:0:0:
448,192,179636,128,0,179819:0:0:0:0:
64,192,179636,1,2,0:0:0:0:
192,192,179819,128,0,180002:0:0:0:0:
448,192,179910,128,0,180002:0:0:0:0:
320,192,180002,1,2,0:0:0:0:
64,192,180002,128,8,180185:0:0:0:0:
320,192,180185,128,0,180368:0:0:0:0:
64,192,180276,128,0,180368:0:0:0:0:
448,192,180368,1,0,0:0:0:0:
192,192,180368,128,2,180551:0:0:0:0:
448,192,180551,128,0,180734:0:0:0:0:
192,192,180642,128,0,180734:0:0:0:0:
320,192,180734,128,8,180917:0:0:0:0:
64,192,180734,1,2,0:0:0:0:
64,192,180917,128,0,181099:0:0:0:0:
320,192,181008,128,0,181099:0:0:0:0:
192,192,181099,128,0,181374:0:0:0:0:
448,192,181099,1,2,0:0:0:0:
320,192,181191,128,0,181374:0:0:0:0:
448,192,181282,128,0,181465:0:0:0:0:
64,192,181374,128,0,181465:0:0:0:0:
320,192,181465,128,8,181740:0:0:0:0:
192,192,181465,1,2,0:0:0:0:
448,192,181557,128,0,181740:0:0:0:0:
192,192,181648,128,0,181831:0:0:0:0:
64,192,181740,128,0,181831:0:0:0:0:
320,192,181831,128,0,182106:0:0:0:0:
448,192,181831,1,2,0:0:0:0:
192,192,181923,128,0,182106:0:0:0:0:
64,192,182014,128,0,182197:0:0:0:0:
448,192,182106,128,0,182197:0:0:0:0:
192,192,182197,128,2,182471:0:0:0:0:
320,192,182197,1,8,0:0:0:0:
64,192,182289,128,0,182471:0:0:0:0:
320,192,182380,128,0,182563:0:0:0:0:
448,192,182471,128,0,182563:0:0:0:0:
192,192,182563,128,0,182654:0:0:0:0:
64,192,182563,1,2,0:0:0:0:
320,192,182654,128,0,182746:0:0:0:0:
64,192,182746,128,0,182837:0:0:0:0:
448,192,182837,128,0,182929:0:0:0:0:
192,192,182929,128,0,183112:0:0:0:0:
64,192,182929,1,8,0:0:0:0:
320,192,182929,1,2,0:0:0:0:
64,192,183112,128,0,183295:0:0:0:0:
320,192,183295,128,0,183386:0:0:0:0:
448,192,183295,1,2,0:0:0:0:
192,192,183386,128,0,183478:0:0:0:0:
448,192,183478,128,0,183569:0:0:0:0:
320,192,183569,128,0,183660:0:0:0:0:
448,192,183660,1,0,0:0:0:0:
192,192,183660,128,8,183752:0:0:0:0:
64,192,183660,1,2,0:0:0:0:
320,192,183752,128,0,183843:0:0:0:0:
64,192,183843,128,0,183935:0:0:0:0:
192,192,183935,128,0,184026:0:0:0:0:
448,192,184026,128,0,184301:0:0:0:0:
320,192,184026,1,2,0:0:0:0:
64,192,184118,128,0,184301:0:0:0:0:
320,192,184209,128,0,184392:0:0:0:0:
192,192,184301,128,0,184392:0:0:0:0:
448,192,184392,128,2,184575:0:0:0:0:
64,192,184392,1,8,0:0:0:0:
192,192,184575,128,0,184667:0:0:0:0:
320,192,184667,128,0,184758:0:0:0:0:
448,192,184758,1,0,0:0:0:0:
64,192,184758,128,2,185032:0:0:0:0:
192,192,184849,128,0,185032:0:0:0:0:
448,192,184941,128,0,185124:0:0:0:0:
320,192,185032,128,0,185124:0:0:0:0:
192,192,185124,128,8,185398:0:0:0:0:
64,192,185124,1,2,0:0:0:0:
320,192,185215,128,0,185398:0:0:0:0:
64,192,185307,128,0,185490:0:0:0:0:
448,192,185398,128,0,185490:0:0:0:0:
320,192,185490,128,0,185764:0:0:0:0:
192,192,185490,1,2,0:0:0:0:
448,192,185581,128,0,185764:0:0:0:0:
192,192,185673,128,0,185856:0:0:0:0:
64,192,185764,128,0,185856:0:0:0:0:
320,192,185856,128,8,186130:0:0:0:0:
448,192,185856,1,2,0:0:0:0:
64,192,185947,128,0,186130:0:0:0:0:
448,192,186039,128,0,186313:0:0:0:0:
192,192,186130,128,0,186221:0:0:0:0:
320,192,186221,128,0,186313:0:0:0:0:
64,192,186221,128,2,186404:0:0:0:0:
192,192,186313,128,0,186496:0:0:0:0:
320,192,186404,128,0,186587:0:0:0:0:
448,192,186404,128,2,186496:0:0:0:0:
64,192,186496,128,0,186679:0:0:0:0:
448,192,186587,128,2,186862:0:0:0:0:
192,192,186587,128,8,186679:0:0:0:0:
320,192,186679,128,0,186770:0:0:0:0:
64,192,186770,128,0,186862:0:0:0:0:
192,192,186770,128,2,186862:0:0:0:0:
320,192,186862,128,0,186953:0:0:0:0:
448,192,186953,1,0,0:0:0:0:
64,192,186953,1,4,0:0:0:0:
192,192,186953,128,2,187136:0:0:0:0:
448,192,187136,128,0,187228:0:0:0:0:
320,192,187228,128,0,187319:0:0:0:0:
192,192,187319,1,0,0:0:0:0:
64,192,187319,128,8,187502:0:0:0:0:
448,192,187319,1,2,0:0:0:0:
448,192,187502,128,0,187593:0:0:0:0:
192,192,187593,128,0,187685:0:0:0:0:
64,192,187685,1,0,0:0:0:0:
320,192,187685,128,2,187776:0:0:0:0:
448,192,187776,128,0,187868:0:0:0:0:
64,192,187868,128,0,187959:0:0:0:0:
192,192,187959,128,0,188051:0:0:0:0:
448,192,188051,128,0,188142:0:0:0:0:
320,192,188051,1,8,0:0:0:0:
64,192,188051,1,2,0:0:0:0:
192,192,188142,128,0,188234:0:0:0:0:
320,192,188234,128,0,188325:0:0:0:0:
64,192,188325,128,0,188417:0:0:0:0:
192,192,188417,128,0,188508:0:0:0:0:
448,192,188417,1,2,0:0:0:0:
320,192,188508,128,0,188599:0:0:0:0:
448,192,188599,128,0,188691:0:0:0:0:
192,192,188691,128,0,188782:0:0:0:0:
64,192,188782,1,8,0:0:0:0:
320,192,188782,128,2,188874:0:0:0:0:
448,192,188874,128,0,188965:0:0:0:0:
192,192,188965,128,0,189057:0:0:0:0:
320,192,189057,128,0,189148:0:0:0:0:
64,192,189148,1,0,0:0:0:0:
448,192,189148,128,2,189240:0:0:0:0:
192,192,189240,128,0,189331:0:0:0:0:
320,192,189331,128,0,189423:0:0:0:0:
64,192,189423,128,0,189514:0:0:0:0:
192,192,189514,128,0,189606:0:0:0:0:
320,192,189514,1,8,0:0:0:0:
448,192,189514,1,2,0:0:0:0:
64,192,189606,128,0,189697:0:0:0:0:
320,192,189697,128,0,189789:0:0:0:0:
448,192,189789,128,0,189880:0:0:0:0:
192,192,189880,128,0,189971:0:0:0:0:
64,192,189880,1,2,0:0:0:0:
320,192,189971,128,0,190063:0:0:0:0:
448,192,190063,128,0,190154:0:0:0:0:
192,192,190154,128,0,190246:0:0:0:0:
64,192,190246,1,0,0:0:0:0:
320,192,190246,128,2,190429:0:0:0:0:
448,192,190246,1,8,0:0:0:0:
64,192,190429,128,0,190520:0:0:0:0:
192,192,190520,128,0,190612:0:0:0:0:
448,192,190612,1,0,0:0:0:0:
320,192,190612,128,2,190703:0:0:0:0:
192,192,190703,128,0,190795:0:0:0:0:
320,192,190795,128,0,190886:0:0:0:0:
448,192,190886,128,0,190978:0:0:0:0:
64,192,190978,128,0,191069:0:0:0:0:
192,192,190978,1,8,0:0:0:0:
320,192,190978,1,2,0:0:0:0:
448,192,191069,128,0,191160:0:0:0:0:
192,192,191160,128,0,191252:0:0:0:0:
320,192,191252,128,0,191343:0:0:0:0:
64,192,191343,128,0,191526:0:0:0:0:
448,192,191343,1,2,0:0:0:0:
320,192,191526,128,0,191709:0:0:0:0:
64,192,191618,128,0,191709:0:0:0:0:
448,192,191709,128,8,191892:0:0:0:0:
192,192,191709,1,2,0:0:0:0:
192,192,191892,128,0,192075:0:0:0:0:
448,192,191984,128,0,192075:0:0:0:0:
64,192,192075,1,0,0:0:0:0:
320,192,192075,128,2,192258:0:0:0:0:
64,192,192258,128,0,192441:0:0:0:0:
320,192,192349,128,0,192441:0:0:0:0:
448,192,192441,1,2,0:0:0:0:
192,192,192441,128,8,192624:0:0:0:0:
448,192,192624,128,0,192715:0:0:0:0:
320,192,192624,1,2,0:0:0:0:
192,192,192715,128,0,192807:0:0:0:0:
64,192,192807,5,0,0:0:0:0:
320,192,192807,1,0,0:0:0:70:LR_CymbalRDW.wav
448,192,192807,1,2,0:0:0:0:
192,192,192990,128,0,193173:0:0:0:0:
448,192,193173,1,8,0:0:0:0:
192,192,193356,128,0,193539:0:0:0:0:
192,192,193721,128,0,193904:0:0:0:0:
448,192,193904,1,8,0:0:0:0:
64,192,194087,1,0,0:0:0:0:
192,192,194087,1,2,0:0:0:0:
64,192,194270,1,0,0:0:0:0:
448,192,194270,1,0,0:0:0:70:LR_CymbalRDW.wav
192,192,194270,1,2,0:0:0:0:
320,192,194453,128,0,194636:0:0:0:0:
64,192,194636,1,8,0:0:0:0:
320,192,194819,128,0,195002:0:0:0:0:
448,192,195185,1,0,0:0:0:0:
320,192,195185,128,2,195368:0:0:0:0:
64,192,195368,1,8,0:0:0:0:
192,192,195368,1,2,0:0:0:0:
320,192,195551,1,0,0:0:0:0:
448,192,195551,1,2,0:0:0:0:
448,192,195734,1,0,0:0:0:0:
64,192,195734,1,0,0:0:0:70:LR_CymbalRDW.wav
320,192,195734,1,2,0:0:0:0:
192,192,195917,128,0,196099:0:0:0:0:
448,192,196099,1,8,0:0:0:0:
320,192,196282,1,0,0:0:0:0:
192,192,196282,128,2,196465:0:0:0:0:
448,192,196465,1,0,0:0:0:0:
320,192,196465,1,2,0:0:0:0:
64,192,196465,1,0,0:0:0:70:LR_CymbalRDW.wav
192,192,196648,128,0,196831:0:0:0:0:
448,192,196831,1,8,0:0:0:0:
320,192,197014,1,0,0:0:0:0:
192,192,197014,128,2,197197:0:0:0:0:
320,192,197197,1,0,0:0:0:0:
448,192,197197,1,0,0:0:0:70:LR_CymbalRDW.wav
64,192,197197,1,2,0:0:0:0:
64,192,197380,128,0,197563:0:0:0:0:
448,192,197563,1,0,0:0:0:0:
192,192,197563,1,0,0:0:0:70:LR_CymbalRDW.wav
320,192,197563,1,2,0:0:0:0:
192,192,197746,128,0,197929:0:0:0:0:
320,192,197929,1,0,0:0:0:0:
64,192,197929,1,0,0:0:0:0:
448,192,197929,1,2,0:0:0:0:
448,192,198112,1,0,0:0:0:0:
320,192,198112,128,2,198295:0:0:0:0:
64,192,198295,1,8,0:0:0:0:
192,192,198295,1,2,0:0:0:0:
320,192,198386,1,0,0:0:0:0:
448,192,198386,1,2,0:0:0:0:
64,192,198478,1,0,0:0:0:0:
192,192,198478,1,2,0:0:0:0:
320,192,198569,1,2,0:0:0:0:
192,192,198660,1,0,0:0:0:0:
448,192,198660,1,4,0:0:0:0:
64,192,198660,1,2,0:0:0:0:
320,192,198752,1,0,0:0:0:0:
192,192,198843,1,0,0:0:0:0:
448,192,198935,1,0,0:0:0:0:
64,192,199026,1,0,0:0:0:0:
320,192,199026,1,2,0:0:0:0:
192,192,199118,1,0,0:0:0:0:
448,192,199209,1,0,0:0:0:0:
320,192,199301,1,0,0:0:0:0:
64,192,199392,1,0,0:0:0:0:
448,192,199392,128,2,199941:0:0:0:0:
192,192,199484,1,0,0:0:0:0:
320,192,199575,1,0,0:0:0:0:
64,192,199667,1,0,0:0:0:0:
192,192,199758,1,0,0:0:0:0:
320,192,199758,1,2,0:0:0:0:
64,192,199849,1,0,0:0:0:0:
192,192,199941,1,0,0:0:0:0:
448,192,200032,1,0,0:0:0:0:
320,192,200124,1,0,0:0:0:0:
64,192,200124,128,2,200398:0:0:0:0:
192,192,200215,1,0,0:0:0:0:
448,192,200307,1,0,0:0:0:0:
320,192,200398,1,0,0:0:0:0:
64,192,200490,1,0,0:0:0:0:
448,192,200490,128,2,200581:0:0:0:0:
192,192,200581,1,0,0:0:0:0:
320,192,200673,128,0,201039:0:0:0:0:
64,192,200764,1,0,0:0:0:0:
448,192,200856,1,0,0:0:0:0:
192,192,200856,1,2,0:0:0:0:
64,192,200947,1,0,0:0:0:0:
192,192,201039,128,0,201313:0:0:0:0:
320,192,201130,1,0,0:0:0:0:
448,192,201221,1,0,0:0:0:0:
64,192,201221,1,2,0:0:0:0:
320,192,201313,1,0,0:0:0:0:
64,192,201404,128,0,202136:0:0:0:0:
192,192,201496,1,0,0:0:0:0:
320,192,201587,1,0,0:0:0:0:
448,192,201587,1,2,0:0:0:0:
192,192,201679,1,0,0:0:0:0:
320,192,201770,1,0,0:0:0:0:
448,192,201862,1,0,0:0:0:0:
320,192,201953,1,0,0:0:0:0:
192,192,201953,1,2,0:0:0:0:
448,192,202045,1,0,0:0:0:0:
192,192,202136,1,0,0:0:0:0:
320,192,202228,1,0,0:0:0:0:
64,192,202319,1,0,0:0:0:0:
448,192,202319,1,2,0:0:0:0:
320,192,202410,1,0,0:0:0:0:
192,192,202502,128,0,202593:0:0:0:0:
448,192,202593,1,0,0:0:0:0:
64,192,202685,1,0,0:0:0:0:
320,192,202685,128,2,202776:0:0:0:0:
192,192,202776,1,0,0:0:0:0:
64,192,202868,128,0,203417:0:0:0:0:
320,192,202959,1,0,0:0:0:0:
192,192,203051,1,0,0:0:0:0:
448,192,203051,1,2,0:0:0:0:
320,192,203142,1,0,0:0:0:0:
448,192,203234,1,0,0:0:0:0:
192,192,203325,1,0,0:0:0:0:
448,192,203417,1,0,0:0:0:0:
320,192,203417,1,2,0:0:0:0:
192,192,203508,1,0,0:0:0:0:
64,192,203599,1,0,0:0:0:0:
448,192,203691,1,0,0:0:0:0:
320,192,203782,128,0,204148:0:0:0:0:
64,192,203782,1,2,0:0:0:0:
192,192,203874,1,0,0:0:0:0:
448,192,203965,1,0,0:0:0:0:
64,192,204057,1,0,0:0:0:0:
192,192,204148,128,0,204514:0:0:0:0:
448,192,204148,1,2,0:0:0:0:
320,192,204240,1,0,0:0:0:0:
64,192,204331,1,0,0:0:0:0:
448,192,204423,1,0,0:0:0:0:
320,192,204514,128,0,205063:0:0:0:0:
64,192,204514,1,2,0:0:0:0:
192,192,204606,1,0,0:0:0:0:
448,192,204697,1,0,0:0:0:0:
64,192,204789,1,0,0:0:0:0:
192,192,204880,1,0,0:0:0:0:
448,192,204880,1,2,0:0:0:0:
64,192,204971,1,0,0:0:0:0:
192,192,205063,1,0,0:0:0:0:
320,192,205154,1,0,0:0:0:0:
64,192,205246,1,0,0:0:0:0:
448,192,205246,1,2,0:0:0:0:
192,192,205337,1,0,0:0:0:0:
64,192,205429,128,0,205520:0:0:0:0:
320,192,205520,1,0,0:0:0:0:
448,192,205612,1,0,0:0:0:0:
192,192,205612,128,2,205703:0:0:0:0:
64,192,205703,1,0,0:0:0:0:
320,192,205795,128,0,205886:0:0:0:0:
448,192,205886,1,0,0:0:0:0:
192,192,205978,128,0,206343:0:0:0:0:
64,192,205978,1,2,0:0:0:0:
320,192,206069,1,0,0:0:0:0:
448,192,206160,1,0,0:0:0:0:
64,192,206252,1,0,0:0:0:0:
320,192,206343,1,0,0:0:0:0:
448,192,206343,128,2,206526:0:0:0:0:
64,192,206435,1,0,0:0:0:0:
192,192,206526,1,0,0:0:0:0:
320,192,206618,1,0,0:0:0:0:
448,192,206709,1,0,0:0:0:0:
64,192,206709,128,2,206892:0:0:0:0:
320,192,206801,1,0,0:0:0:0:
192,192,206892,1,0,0:0:0:0:
448,192,206984,1,0,0:0:0:0:
320,192,207075,128,0,207441:0:0:0:0:
64,192,207075,1,2,0:0:0:0:
192,192,207167,1,0,0:0:0:0:
448,192,207258,1,0,0:0:0:0:
64,192,207349,1,0,0:0:0:0:
448,192,207441,1,0,0:0:0:0:
192,192,207441,128,2,207807:0:0:0:0:
320,192,207532,1,0,0:0:0:0:
64,192,207624,1,0,0:0:0:0:
448,192,207715,1,0,0:0:0:0:
320,192,207807,1,0,0:0:0:0:
64,192,207807,1,2,0:0:0:0:
192,192,207898,1,0,0:0:0:0:
64,192,207990,128,0,208356:0:0:0:0:
320,192,208081,1,0,0:0:0:0:
448,192,208173,1,0,0:0:0:0:
192,192,208173,1,2,0:0:0:0:
320,192,208264,1,0,0:0:0:0:
448,192,208356,1,0,0:0:0:0:
192,192,208447,1,0,0:0:0:0:
64,192,208539,128,0,208630:0:0:0:0:
448,192,208539,1,2,0:0:0:0:
320,192,208630,1,0,0:0:0:0:
192,192,208721,128,0,208904:0:0:0:0:
448,192,208813,1,0,0:0:0:0:
64,192,208904,1,0,0:0:0:0:
320,192,208904,1,2,0:0:0:0:
192,192,208996,1,0,0:0:0:0:
320,192,209087,1,0,0:0:0:0:
64,192,209179,1,0,0:0:0:0:
192,192,209270,128,0,209453:0:0:0:0:
448,192,209270,1,2,0:0:0:0:
320,192,209362,1,0,0:0:0:0:
448,192,209453,1,0,0:0:0:0:
192,192,209545,1,0,0:0:0:0:
320,192,209636,128,0,209819:0:0:0:0:
64,192,209636,1,2,0:0:0:0:
448,192,209728,1,0,0:0:0:0:
192,192,209819,1,0,0:0:0:0:
64,192,209819,1,2,0:0:0:0:
320,192,209910,1,0,0:0:0:0:
448,192,210002,1,0,0:0:0:0:
192,192,210002,128,2,210185:0:0:0:0:
64,192,210093,1,0,0:0:0:0:
320,192,210185,1,0,0:0:0:0:
448,192,210185,1,2,0:0:0:0:
192,192,210276,1,0,0:0:0:0:
320,192,210368,1,0,0:0:0:0:
448,192,210368,128,4,210551:0:0:0:0:
64,192,210368,1,2,0:0:0:0:
192,192,210459,1,0,0:0:0:0:
320,192,210551,128,0,210734:0:0:0:0:
64,192,210642,1,0,0:0:0:0:
192,192,210734,128,0,210825:0:0:0:0:
448,192,210734,1,2,0:0:0:0:
320,192,210825,1,0,0:0:0:0:
64,192,210917,128,0,211191:0:0:0:0:
448,192,211008,1,0,0:0:0:0:
192,192,211099,1,0,0:0:0:0:
448,192,211099,1,2,0:0:0:0:
320,192,211191,1,0,0:0:0:0:
192,192,211282,128,0,211374:0:0:0:0:
64,192,211374,1,0,0:0:0:0:
448,192,211465,128,0,211557:0:0:0:0:
192,192,211465,1,2,0:0:0:0:
64,192,211557,1,0,0:0:0:0:
320,192,211648,128,0,212563:0:0:0:0:
192,192,211740,1,0,0:0:0:0:
64,192,211831,1,0,0:0:0:0:
448,192,211831,1,2,0:0:0:0:
192,192,211923,1,0,0:0:0:0:
64,192,212014,1,0,0:0:0:0:
448,192,212106,1,0,0:0:0:0:
192,192,212197,1,0,0:0:0:0:
64,192,212197,1,2,0:0:0:0:
448,192,212289,1,0,0:0:0:0:
192,192,212380,1,0,0:0:0:0:
64,192,212471,1,0,0:0:0:0:
448,192,212563,1,0,0:0:0:0:
64,192,212563,1,2,0:0:0:0:
192,192,212654,1,0,0:0:0:0:
320,192,212746,1,0,0:0:0:0:
448,192,212837,1,0,0:0:0:0:
64,192,212929,1,0,0:0:0:0:
192,192,212929,1,2,0:0:0:0:
320,192,213020,1,0,0:0:0:0:
448,192,213112,1,0,0:0:0:0:
192,192,213203,1,0,0:0:0:0:
64,192,213295,128,0,213478:0:0:0:0:
320,192,213295,1,2,0:0:0:0:
448,192,213386,1,0,0:0:0:0:
192,192,213478,128,0,213660:0:0:0:0:
64,192,213569,1,0,0:0:0:0:
320,192,213660,128,0,213752:0:0:0:0:
448,192,213660,1,2,0:0:0:0:
192,192,213752,1,0,0:0:0:0:
448,192,213843,128,0,214026:0:0:0:0:
64,192,213935,1,0,0:0:0:0:
192,192,214026,1,0,0:0:0:0:
320,192,214026,1,2,0:0:0:0:
448,192,214118,1,0,0:0:0:0:
64,192,214209,128,0,214392:0:0:0:0:
192,192,214301,1,0,0:0:0:0:
320,192,214392,1,0,0:0:0:0:
448,192,214392,1,2,0:0:0:0:
64,192,214484,1,0,0:0:0:0:
320,192,214575,128,0,214941:0:0:0:0:
192,192,214667,1,0,0:0:0:0:
64,192,214758,1,0,0:0:0:0:
448,192,214758,1,2,0:0:0:0:
192,192,214849,1,0,0:0:0:0:
448,192,214941,1,0,0:0:0:0:
64,192,215032,1,0,0:0:0:0:
320,192,215124,1,0,0:0:0:0:
192,192,215124,128,2,215307:0:0:0:0:
448,192,215215,1,0,0:0:0:0:
64,192,215307,1,0,0:0:0:0:
320,192,215398,1,0,0:0:0:0:
64,192,215490,128,0,215673:0:0:0:0:
192,192,215490,1,2,0:0:0:0:
448,192,215581,1,0,0:0:0:0:
320,192,215673,1,0,0:0:0:0:
192,192,215764,1,0,0:0:0:0:
64,192,215856,1,0,0:0:0:0:
448,192,215856,128,2,216039:0:0:0:0:
320,192,215947,1,0,0:0:0:0:
64,192,216039,1,0,0:0:0:0:
192,192,216130,1,0,0:0:0:0:
320,192,216221,128,0,216313:0:0:0:0:
448,192,216221,1,2,0:0:0:0:
64,192,216313,1,0,0:0:0:0:
192,192,216404,128,0,216587:0:0:0:0:
448,192,216496,1,0,0:0:0:0:
320,192,216587,1,0,0:0:0:0:
64,192,216587,128,2,216770:0:0:0:0:
192,192,216679,1,0,0:0:0:0:
448,192,216770,128,0,217136:0:0:0:0:
320,192,216862,1,0,0:0:0:0:
192,192,216953,1,0,0:0:0:0:
64,192,216953,1,2,0:0:0:0:
320,192,217045,1,0,0:0:0:0:
64,192,217136,128,0,217228:0:0:0:0:
192,192,217228,1,0,0:0:0:0:
448,192,217319,1,0,0:0:0:0:
320,192,217319,128,2,217410:0:0:0:0:
64,192,217410,1,0,0:0:0:0:
192,192,217502,128,0,218051:0:0:0:0:
320,192,217593,1,0,0:0:0:0:
64,192,217685,1,0,0:0:0:0:
448,192,217685,1,2,0:0:0:0:
320,192,217776,1,0,0:0:0:0:
64,192,217868,1,0,0:0:0:0:
448,192,217959,1,0,0:0:0:0:
64,192,218051,1,0,0:0:0:0:
320,192,218051,1,2,0:0:0:0:
448,192,218142,1,0,0:0:0:0:
192,192,218234,1,0,0:0:0:0:
320,192,218325,1,0,0:0:0:0:
64,192,218417,1,0,0:0:0:0:
448,192,218417,128,2,218691:0:0:0:0:
192,192,218508,1,0,0:0:0:0:
320,192,218599,1,0,0:0:0:0:
64,192,218691,1,0,0:0:0:0:
320,192,218782,128,0,218874:0:0:0:0:
192,192,218782,1,2,0:0:0:0:
448,192,218874,1,0,0:0:0:0:
320,192,218965,128,0,220429:0:0:0:0:
64,192,219057,1,0,0:0:0:0:
192,192,219148,1,0,0:0:0:0:
448,192,219148,1,2,0:0:0:0:
64,192,219240,1,0,0:0:0:0:
192,192,219331,1,0,0:0:0:0:
448,192,219423,1,0,0:0:0:0:
192,192,219514,1,0,0:0:0:0:
64,192,219514,1,2,0:0:0:0:
448,192,219606,1,0,0:0:0:0:
64,192,219697,1,0,0:0:0:0:
192,192,219789,1,0,0:0:0:0:
448,192,219880,1,0,0:0:0:0:
64,192,219880,1,2,0:0:0:0:
192,192,219971,1,0,0:0:0:0:
448,192,220063,1,0,0:0:0:0:
64,192,220154,1,0,0:0:0:0:
192,192,220246,1,0,0:0:0:0:
448,192,220246,1,2,0:0:0:0:
64,192,220337,1,0,0:0:0:0:
448,192,220429,1,0,0:0:0:0:
192,192,220429,1,2,0:0:0:0:
320,192,220520,1,0,0:0:0:0:
64,192,220612,1,0,0:0:0:0:
192,192,220703,1,0,0:0:0:0:
448,192,220795,1,0,0:0:0:0:
64,192,220886,1,0,0:0:0:0:
320,192,220978,128,0,221343:0:0:0:0:
192,192,221069,1,0,0:0:0:0:
64,192,221160,1,0,0:0:0:0:
448,192,221252,1,0,0:0:0:0:
64,192,221343,128,0,221526:0:0:0:0:
192,192,221343,1,2,0:0:0:0:
320,192,221435,1,0,0:0:0:0:
192,192,221526,1,0,0:0:0:0:
448,192,221526,1,2,0:0:0:0:
64,192,221618,1,0,0:0:0:0:
320,192,221709,1,0,0:0:0:0:
448,192,221709,128,2,221892:0:0:0:0:
192,192,221801,1,0,0:0:0:0:
320,192,221892,1,0,0:0:0:0:
64,192,221892,1,2,0:0:0:0:
448,192,221984,1,0,0:0:0:0:
64,192,222075,1,0,0:0:0:0:
320,192,222075,1,4,0:0:0:0:
192,192,222075,128,2,222441:0:0:0:0:
448,192,222167,1,0,0:0:0:0:
64,192,222258,1,0,0:0:0:0:
320,192,222349,1,0,0:0:0:0:
64,192,222441,1,8,0:0:0:0:
448,192,222441,1,2,0:0:0:0:
320,192,222532,1,0,0:0:0:0:
192,192,222624,1,0,0:0:0:0:
448,192,222715,1,0,0:0:0:0:
64,192,222807,128,0,223356:0:0:0:0:
320,192,222807,1,2,0:0:0:0:
192,192,222898,1,0,0:0:0:0:
320,192,222990,1,0,0:0:0:0:
448,192,223081,1,0,0:0:0:0:
192,192,223173,1,2,0:0:0:0:
320,192,223173,1,8,0:0:0:0:
448,192,223264,1,0,0:0:0:0:
192,192,223356,1,0,0:0:0:0:
320,192,223447,1,0,0:0:0:0:
192,192,223539,128,0,223904:0:0:0:0:
448,192,223539,1,2,0:0:0:0:
64,192,223630,1,0,0:0:0:0:
320,192,223721,1,0,0:0:0:0:
448,192,223813,1,0,0:0:0:0:
320,192,223904,128,8,223996:0:0:0:0:
64,192,223904,1,2,0:0:0:0:
192,192,223996,1,0,0:0:0:0:
448,192,224087,128,0,224270:0:0:0:0:
320,192,224179,1,0,0:0:0:0:
64,192,224270,1,0,0:0:0:0:
192,192,224270,1,2,0:0:0:0:
448,192,224362,1,0,0:0:0:0:
192,192,224453,128,0,224636:0:0:0:0:
320,192,224545,1,0,0:0:0:0:
448,192,224636,1,8,0:0:0:0:
64,192,224636,1,2,0:0:0:0:
320,192,224728,1,0,0:0:0:0:
64,192,224819,128,0,225551:0:0:0:0:
192,192,224910,1,0,0:0:0:0:
320,192,225002,1,0,0:0:0:0:
448,192,225002,1,2,0:0:0:0:
192,192,225093,1,0,0:0:0:0:
448,192,225185,1,0,0:0:0:0:
320,192,225276,1,0,0:0:0:0:
448,192,225368,1,2,0:0:0:0:
192,192,225368,1,8,0:0:0:0:
320,192,225459,1,0,0:0:0:0:
192,192,225551,1,0,0:0:0:0:
448,192,225642,1,0,0:0:0:0:
320,192,225734,1,0,0:0:0:0:
64,192,225734,1,2,0:0:0:0:
192,192,225825,1,0,0:0:0:0:
320,192,225917,128,0,226008:0:0:0:0:
64,192,226008,1,0,0:0:0:0:
448,192,226099,1,0,0:0:0:0:
320,192,226099,1,8,0:0:0:0:
192,192,226099,128,2,226191:0:0:0:0:
64,192,226191,1,0,0:0:0:0:
448,192,226282,128,0,226831:0:0:0:0:
192,192,226374,1,0,0:0:0:0:
64,192,226465,1,0,0:0:0:0:
320,192,226465,1,2,0:0:0:0:
192,192,226557,1,0,0:0:0:0:
320,192,226648,1,0,0:0:0:0:
64,192,226740,1,0,0:0:0:0:
320,192,226831,1,8,0:0:0:0:
192,192,226831,1,2,0:0:0:0:
64,192,226923,1,0,0:0:0:0:
448,192,227014,1,0,0:0:0:0:
320,192,227106,1,0,0:0:0:0:
192,192,227197,128,0,227471:0:0:0:0:
64,192,227197,1,2,0:0:0:0:
320,192,227289,1,0,0:0:0:0:
448,192,227380,1,0,0:0:0:0:
64,192,227471,1,0,0:0:0:0:
448,192,227563,1,0,0:0:0:0:
192,192,227563,1,8,0:0:0:0:
320,192,227563,128,2,227746:0:0:0:0:
64,192,227654,1,0,0:0:0:0:
192,192,227746,1,0,0:0:0:0:
320,192,227837,1,0,0:0:0:0:
64,192,227929,128,0,228660:0:0:0:0:
448,192,227929,1,2,0:0:0:0:
320,192,228020,1,0,0:0:0:0:
192,192,228112,1,0,0:0:0:0:
448,192,228203,1,0,0:0:0:0:
320,192,228295,1,8,0:0:0:0:
192,192,228295,1,2,0:0:0:0:
448,192,228386,1,0,0:0:0:0:
320,192,228478,1,0,0:0:0:0:
192,192,228569,1,0,0:0:0:0:
320,192,228660,1,0,0:0:0:0:
448,192,228660,1,2,0:0:0:0:
64,192,228752,1,0,0:0:0:0:
192,192,228843,128,0,228935:0:0:0:0:
448,192,228935,1,0,0:0:0:0:
64,192,229026,1,2,0:0:0:0:
320,192,229026,128,8,229118:0:0:0:0:
192,192,229118,1,0,0:0:0:0:
448,192,229209,128,0,229392:0:0:0:0:
64,192,229301,1,0,0:0:0:0:
192,192,229392,1,0,0:0:0:0:
320,192,229392,128,2,229667:0:0:0:0:
64,192,229484,1,0,0:0:0:0:
448,192,229575,1,0,0:0:0:0:
192,192,229667,1,0,0:0:0:0:
448,192,229758,1,0,0:0:0:0:
320,192,229758,1,2,0:0:0:0:
64,192,229758,128,8,229941:0:0:0:0:
192,192,229849,1,0,0:0:0:0:
320,192,229941,1,0,0:0:0:0:
64,192,230032,1,0,0:0:0:0:
320,192,230124,1,0,0:0:0:0:
448,192,230124,128,2,230307:0:0:0:0:
192,192,230215,1,0,0:0:0:0:
64,192,230307,1,0,0:0:0:0:
320,192,230398,1,0,0:0:0:0:
64,192,230490,1,0,0:0:0:0:
448,192,230490,1,8,0:0:0:0:
192,192,230490,128,2,230673:0:0:0:0:
320,192,230581,1,0,0:0:0:0:
448,192,230673,1,0,0:0:0:0:
64,192,230764,1,0,0:0:0:0:
192,192,230856,128,0,231221:0:0:0:0:
320,192,230856,1,2,0:0:0:0:
448,192,230947,1,0,0:0:0:0:
64,192,231039,1,0,0:0:0:0:
320,192,231130,1,0,0:0:0:0:
448,192,231221,1,8,0:0:0:0:
64,192,231221,1,2,0:0:0:0:
320,192,231313,1,0,0:0:0:0:
64,192,231404,128,0,231862:0:0:0:0:
448,192,231496,1,0,0:0:0:0:
192,192,231587,1,0,0:0:0:0:
320,192,231587,1,2,0:0:0:0:
448,192,231679,1,0,0:0:0:0:
320,192,231770,1,0,0:0:0:0:
192,192,231862,1,0,0:0:0:0:
320,192,231953,1,0,0:0:0:0:
64,192,231953,1,2,0:0:0:0:
448,192,231953,1,8,0:0:0:0:
192,192,232045,1,0,0:0:0:0:
320,192,232136,128,0,232502:0:0:0:0:
64,192,232228,1,0,0:0:0:0:
192,192,232319,1,0,0:0:0:0:
448,192,232319,1,2,0:0:0:0:
64,192,232410,1,0,0:0:0:0:
192,192,232502,1,0,0:0:0:0:
320,192,232593,1,0,0:0:0:0:
64,192,232685,128,0,232959:0:0:0:0:
448,192,232685,1,8,0:0:0:0:
192,192,232685,1,2,0:0:0:0:
320,192,232776,1,0,0:0:0:0:
448,192,232868,1,0,0:0:0:0:
192,192,232959,1,0,0:0:0:0:
448,192,233051,1,0,0:0:0:0:
320,192,233051,128,2,233234:0:0:0:0:
64,192,233142,1,0,0:0:0:0:
448,192,233234,1,0,0:0:0:0:
192,192,233234,1,2,0:0:0:0:
320,192,233325,1,0,0:0:0:0:
64,192,233417,1,8,0:0:0:0:
192,192,233417,128,2,233599:0:0:0:0:
448,192,233508,1,0,0:0:0:0:
64,192,233599,1,0,0:0:0:0:
320,192,233599,1,2,0:0:0:0:
192,192,233691,1,0,0:0:0:0:
320,192,233782,1,0,0:0:0:0:
64,192,233782,1,4,0:0:0:0:
448,192,233782,128,2,233965:0:0:0:0:
192,192,233874,1,0,0:0:0:0:
320,192,233965,128,0,234057:0:0:0:0:
64,192,234057,1,0,0:0:0:0:
448,192,234148,1,8,0:0:0:0:
192,192,234148,128,2,234240:0:0:0:0:
320,192,234240,1,0,0:0:0:0:
64,192,234331,128,0,234697:0:0:0:0:
448,192,234423,1,0,0:0:0:0:
192,192,234514,1,0,0:0:0:0:
448,192,234514,1,2,0:0:0:0:
320,192,234606,1,0,0:0:0:0:
192,192,234697,1,0,0:0:0:0:
64,192,234789,1,0,0:0:0:0:
448,192,234880,1,0,0:0:0:0:
320,192,234880,1,2,0:0:0:0:
192,192,234880,128,8,234971:0:0:0:0:
64,192,234971,1,0,0:0:0:0:
320,192,235063,128,0,236160:0:0:0:0:
192,192,235154,1,0,0:0:0:0:
64,192,235246,1,0,0:0:0:0:
448,192,235246,1,2,0:0:0:0:
192,192,235337,1,0,0:0:0:0:
64,192,235429,1,0,0:0:0:0:
448,192,235520,1,0,0:0:0:0:
64,192,235612,1,2,0:0:0:0:
192,192,235612,1,8,0:0:0:0:
448,192,235703,1,0,0:0:0:0:
192,192,235795,1,0,0:0:0:0:
64,192,235886,1,0,0:0:0:0:
64,192,235978,1,0,0:0:0:0:
448,192,235978,1,2,0:0:0:0:
192,192,236069,1,0,0:0:0:0:
448,192,236160,1,0,0:0:0:0:
320,192,236252,1,0,0:0:0:0:
192,192,236343,1,0,0:0:0:0:
64,192,236343,1,8,0:0:0:0:
448,192,236343,1,2,0:0:0:0:
320,192,236435,1,0,0:0:0:0:
64,192,236526,128,0,236801:0:0:0:0:
448,192,236618,1,0,0:0:0:0:
320,192,236709,1,0,0:0:0:0:
192,192,236709,1,2,0:0:0:0:
448,192,236801,1,0,0:0:0:0:
192,192,236892,128,0,236984:0:0:0:0:
64,192,236984,1,0,0:0:0:0:
448,192,237075,1,0,0:0:0:0:
320,192,237075,128,8,237167:0:0:0:0:
192,192,237075,1,2,0:0:0:0:
64,192,237167,1,0,0:0:0:0:
448,192,237258,128,0,237441:0:0:0:0:
192,192,237349,1,0,0:0:0:0:
64,192,237441,1,0,0:0:0:0:
320,192,237441,1,2,0:0:0:0:
448,192,237532,1,0,0:0:0:0:
192,192,237624,128,0,237807:0:0:0:0:
320,192,237715,1,0,0:0:0:0:
448,192,237807,1,2,0:0:0:0:
64,192,237807,1,8,0:0:0:0:
192,192,237898,1,0,0:0:0:0:
320,192,237990,128,0,238356:0:0:0:0:
64,192,238081,1,0,0:0:0:0:
192,192,238173,1,0,0:0:0:0:
448,192,238173,1,2,0:0:0:0:
64,192,238264,1,0,0:0:0:0:
192,192,238356,1,0,0:0:0:0:
320,192,238447,1,0,0:0:0:0:
448,192,238539,1,0,0:0:0:0:
192,192,238539,1,8,0:0:0:0:
64,192,238539,128,2,238721:0:0:0:0:
320,192,238630,1,0,0:0:0:0:
448,192,238721,1,0,0:0:0:0:
192,192,238813,1,0,0:0:0:0:
448,192,238904,128,0,239087:0:0:0:0:
320,192,238904,1,2,0:0:0:0:
64,192,238996,1,0,0:0:0:0:
192,192,239087,1,0,0:0:0:0:
448,192,239179,1,0,0:0:0:0:
64,192,239270,1,0,0:0:0:0:
192,192,239270,128,8,239453:0:0:0:0:
320,192,239270,1,2,0:0:0:0:
448,192,239362,1,0,0:0:0:0:
64,192,239453,1,0,0:0:0:0:
320,192,239545,1,0,0:0:0:0:
448,192,239636,128,0,239728:0:0:0:0:
64,192,239636,1,2,0:0:0:0:
192,192,239728,1,0,0:0:0:0:
320,192,239819,128,0,239910:0:0:0:0:
448,192,239910,1,0,0:0:0:0:
192,192,240002,128,0,240185:0:0:0:0:
64,192,240002,1,8,0:0:0:0:
320,192,240002,1,2,0:0:0:0:
448,192,240093,1,0,0:0:0:0:
64,192,240185,128,0,240551:0:0:0:0:
192,192,240276,1,0,0:0:0:0:
320,192,240368,1,0,0:0:0:0:
448,192,240368,1,2,0:0:0:0:
192,192,240459,1,0,0:0:0:0:
320,192,240551,128,0,240642:0:0:0:0:
64,192,240642,1,0,0:0:0:0:
448,192,240734,128,8,240825:0:0:0:0:
192,192,240734,1,2,0:0:0:0:
320,192,240825,1,0,0:0:0:0:
192,192,240917,128,0,241465:0:0:0:0:
448,192,241008,1,0,0:0:0:0:
64,192,241099,1,0,0:0:0:0:
320,192,241099,1,2,0:0:0:0:
448,192,241191,1,0,0:0:0:0:
64,192,241282,1,0,0:0:0:0:
320,192,241374,1,0,0:0:0:0:
64,192,241465,1,2,0:0:0:0:
448,192,241465,1,8,0:0:0:0:
320,192,241557,1,0,0:0:0:0:
448,192,241648,1,0,0:0:0:0:
64,192,241740,1,0,0:0:0:0:
320,192,241831,128,0,242014:0:0:0:0:
192,192,241831,1,2,0:0:0:0:
448,192,241923,1,0,0:0:0:0:
64,192,242014,1,0,0:0:0:0:
192,192,242106,1,0,0:0:0:0:
64,192,242197,128,0,242289:0:0:0:0:
320,192,242197,1,8,0:0:0:0:
448,192,242197,1,2,0:0:0:0:
192,192,242289,1,0,0:0:0:0:
64,192,242380,128,0,244026:0:0:0:0:
320,192,242471,1,0,0:0:0:0:
192,192,242563,1,0,0:0:0:0:
448,192,242563,1,2,0:0:0:0:
320,192,242654,1,0,0:0:0:0:
448,192,242746,1,0,0:0:0:0:
192,192,242837,1,0,0:0:0:0:
320,192,242929,1,8,0:0:0:0:
448,192,242929,1,2,0:0:0:0:
192,192,243020,1,0,0:0:0:0:
320,192,243112,1,0,0:0:0:0:
448,192,243203,1,0,0:0:0:0:
320,192,243295,1,0,0:0:0:0:
192,192,243295,1,2,0:0:0:0:
448,192,243386,1,0,0:0:0:0:
192,192,243478,1,0,0:0:0:0:
320,192,243569,1,0,0:0:0:0:
192,192,243660,1,8,0:0:0:0:
448,192,243660,1,2,0:0:0:0:
320,192,243752,1,0,0:0:0:0:
448,192,243843,1,0,0:0:0:0:
192,192,243935,1,0,0:0:0:0:
320,192,244026,1,0,0:0:0:0:
448,192,244026,1,2,0:0:0:0:
64,192,244118,1,0,0:0:0:0:
192,192,244209,1,0,0:0:0:0:
320,192,244301,1,0,0:0:0:0:
448,192,244392,128,0,244758:0:0:0:0:
64,192,244392,1,8,0:0:0:0:
192,192,244392,1,2,0:0:0:0:
320,192,244484,1,0,0:0:0:0:
64,192,244575,5,0,0:0:0:0:
192,192,244667,1,0,0:0:0:0:
64,192,244758,1,0,0:0:0:0:
320,192,244758,128,2,244941:0:0:0:0:
448,192,244849,1,0,0:0:0:0:
192,192,244941,1,0,0:0:0:0:
64,192,244941,1,2,0:0:0:0:
320,192,245032,1,2,0:0:0:0:
448,192,245124,1,2,0:0:0:0:
192,192,245124,128,8,245307:0:0:0:0:
64,192,245215,1,0,0:0:0:0:
448,192,245307,1,0,0:0:0:0:
320,192,245307,1,2,0:0:0:0:
192,192,245398,1,0,0:0:0:0:
64,192,245490,5,2,0:0:0:0:
448,192,245490,128,0,246953:0:0:0:70:LR_CymbalRDW.wav
320,192,245490,1,0,0:0:0:70:twinkling.wav
192,192,246221,128,0,246770:0:0:0:0:
320,192,246953,128,0,247319:0:0:0:0:
64,192,246953,128,0,248417:0:0:0:0:
448,192,247319,128,0,247502:0:0:0:0:
192,192,247502,128,0,247776:0:0:0:0:
448,192,247868,128,0,248234:0:0:0:0:
320,192,248234,128,0,250246:0:0:0:0:
192,192,248417,128,0,249880:0:0:0:0:
64,192,249880,128,0,250246:0:0:0:0:
192,192,250246,128,0,250612:0:0:0:0:
320,192,250612,128,0,250978:0:0:0:0:
448,192,250978,128,0,251343:0:0:0:0:
320,192,251343,1,0,0:0:0:0:
192,192,251343,128,0,251709:0:0:0:0:
448,192,251526,1,0,0:0:0:0:
64,192,251709,128,0,252075:0:0:0:0:
320,192,251709,1,0,0:0:0:0:
192,192,251892,1,0,0:0:0:0:
448,192,252075,128,0,252441:0:0:0:0:
192,192,252258,1,0,0:0:0:0:
64,192,252441,1,0,0:0:0:0:
320,192,252441,128,0,252807:0:0:0:0:
64,192,252807,1,0,0:0:0:0:
448,192,252807,128,0,253539:0:0:0:0:
192,192,252990,1,0,0:0:0:0:
320,192,253173,1,0,0:0:0:0:
64,192,253356,1,0,0:0:0:0:
192,192,253356,1,0,0:0:0:0:
320,192,253539,128,0,254270:0:0:0:0:
192,192,253721,1,0,0:0:0:0:
64,192,253904,1,0,0:0:0:0:
64,192,254270,1,0,0:0:0:0:
448,192,254270,128,0,254636:0:0:0:0:
192,192,254392,1,0,0:0:0:0:
320,192,254514,1,0,0:0:0:0:
64,192,254636,128,0,255002:0:0:0:0:
192,192,254636,1,0,0:0:0:0:
320,192,254758,1,0,0:0:0:0:
448,192,254880,1,0,0:0:0:0:
320,192,255002,128,0,255368:0:0:0:0:
192,192,255002,1,0,0:0:0:0:
448,192,255124,1,0,0:0:0:0:
64,192,255246,1,0,0:0:0:0:
448,192,255368,1,0,0:0:0:0:
192,192,255368,128,0,255734:0:0:0:0:
320,192,255490,1,0,0:0:0:0:
64,192,255612,1,0,0:0:0:0:
320,192,255734,1,0,0:0:0:0:
448,192,255734,128,0,256465:0:0:0:0:
64,192,255856,1,0,0:0:0:0:
192,192,255978,1,0,0:0:0:0:
320,192,256099,1,0,0:0:0:0:
64,192,256221,1,0,0:0:0:0:
192,192,256343,1,0,0:0:0:0:
320,192,256465,1,0,0:0:0:0:
64,192,256465,128,0,257197:0:0:0:0:
192,192,256587,1,0,0:0:0:0:
448,192,256709,1,0,0:0:0:0:
320,192,256831,1,0,0:0:0:0:
192,192,256953,1,0,0:0:0:0:
448,192,257075,1,0,0:0:0:0:
320,192,257197,128,0,258660:0:0:0:0:
448,192,257837,128,0,258478:0:0:0:0:
64,192,258660,128,0,259026:0:0:0:0:
192,192,258660,128,0,260124:0:0:0:0:
320,192,259026,128,0,259209:0:0:0:0:
448,192,259209,128,0,259484:0:0:0:0:
64,192,259575,128,0,259758:0:0:0:0:
320,192,259941,128,0,260673:0:0:0:0:
448,192,260124,128,0,261587:0:0:0:0:
192,192,261039,128,0,261221:0:0:0:0:
64,192,261221,128,0,261404:0:0:0:0:
192,192,261404,128,0,262319:0:0:0:0:
320,192,261587,128,0,262319:0:0:0:0:
64,192,262319,128,0,262685:0:0:0:0:
320,192,262502,128,0,262685:0:0:0:0:
448,192,262685,128,0,262868:0:0:0:0:
192,192,262685,128,0,263051:0:0:0:0:
320,192,262868,128,0,263051:0:0:0:0:
64,192,263051,128,0,263417:0:0:0:0:
448,192,263051,128,0,264514:0:0:0:0:
192,192,263417,128,0,263599:0:0:0:0:
320,192,263599,128,0,265154:0:0:0:0:
192,192,264514,128,0,265978:0:0:0:0:
448,192,265520,128,0,265703:0:0:0:0:
320,192,265795,128,0,265978:0:0:0:0:
448,192,265978,128,0,267441:0:0:0:0:
64,192,265978,128,0,267441:0:0:0:0:
320,192,267441,128,0,268904:0:0:0:0:
192,192,267624,128,0,269636:0:0:0:0:
64,192,268904,128,0,270276:0:0:0:0:
448,192,268904,128,0,270368:0:0:0:0:
320,192,270368,128,0,271831:0:0:0:0:
64,192,270368,128,0,271831:0:0:0:0:
192,192,271831,128,0,273295:0:0:0:0:
448,192,271831,128,0,273295:0:0:0:0:
320,192,273295,128,0,274026:0:0:0:0:
64,192,273295,128,0,273660:0:0:0:0:
192,192,273660,128,0,274026:0:0:0:0:
448,192,274026,128,0,274392:0:0:0:0:
64,192,274026,128,0,274758:0:0:0:0:
320,192,274392,128,0,274758:0:0:0:0:
192,192,274758,128,0,275124:0:0:0:0:
448,192,274758,128,0,276221:0:0:0:0:
64,192,275124,128,0,275490:0:0:0:0:
320,192,275490,128,0,275856:0:0:0:0:
192,192,275856,128,0,276221:0:0:0:0:
64,192,276221,128,0,277685:0:0:0:0:
320,192,276221,128,0,276953:0:0:0:0:
448,192,276953,128,0,277685:0:0:0:0:
192,192,277685,128,0,279148:0:0:0:0:
320,192,277685,128,0,278051:0:0:0:0:
64,192,278051,128,0,278417:0:0:0:0:
448,192,278417,128,0,278782:0:0:0:0:
64,192,278782,128,0,279148:0:0:0:0:
448,192,279148,128,0,279880:0:0:0:0:
320,192,279148,128,0,279789:0:0:0:0:
192,192,279880,128,0,280612:0:0:0:0:
320,192,279880,128,0,280612:0:0:0:0:
448,192,280612,128,0,282075:0:0:0:0:
64,192,280612,128,0,281984:0:0:0:0:
320,192,282075,128,0,283539:0:0:0:0:
64,192,282075,128,0,283539:0:0:0:0:
448,192,283539,128,0,285002:0:0:0:0:
192,192,283539,128,0,285002:0:0:0:0:
320,192,285002,128,0,285734:0:0:0:0:
64,192,285002,128,0,285368:0:0:0:0:
192,192,285368,128,0,285734:0:0:0:0:
448,192,285734,128,0,286099:0:0:0:0:
64,192,285734,128,0,286465:0:0:0:0:
320,192,286099,128,0,286465:0:0:0:0:
448,192,286465,128,0,287929:0:0:0:0:
192,192,286465,128,0,286831:0:0:0:0:
64,192,286831,128,0,287197:0:0:0:0:
320,192,287197,128,0,287563:0:0:0:0:
192,192,287563,128,0,287929:0:0:0:0:
64,192,287929,128,0,289392:0:0:0:0:
320,192,287929,128,0,288660:0:0:0:0:
448,192,288660,128,0,289392:0:0:0:0:
192,192,289392,128,0,290856:0:0:0:0:
320,192,289392,128,0,289758:0:0:0:0:
64,192,289758,128,0,290124:0:0:0:0:
448,192,290124,128,0,290490:0:0:0:0:
64,192,290490,128,0,290856:0:0:0:0:
320,192,290856,128,0,291496:0:0:0:0:
448,192,290856,128,0,291587:0:0:0:0:
320,192,291587,128,0,292319:0:0:0:0:
192,192,291587,128,0,292319:0:0:0:0:
