osu file format v14

[General]
AudioFilename: blue.mp3
AudioLeadIn: 0
PreviewTime: 80861
Countdown: 0
SampleSet: Soft
StackLeniency: 0.7
Mode: 2
LetterboxInBreaks: 0
WidescreenStoryboard: 1

[Editor]
Bookmarks: 81622,93330,105037,116744,128452,151928,163636,175343,187050,198757,210465,222172,233879,245587
DistanceSpacing: 0.2
BeatDivisor: 4
GridSize: 4
TimelineZoom: 3

[Metadata]
Title:True Blue
TitleUnicode:True Blue
Artist:dj TAKA feat. AiMEE
ArtistUnicode:dj TAKA feat. AiMEE
Creator:Benita
Version:Bittersweet Lovestory
Source:jubeat saucer
Tags:plus -Spring- RUNRUNマラソン! PACK 2 NOSTALGIA ノスタルジア Op.2 SDVX featuring DanceDanceRevolution DDR Blackschleger Takayuki Ishikawa 石川貴之 jukebeat ESSENTIALLY エッセンシャリ― Beatmania IIDX 20 ミライダガッキ FutureTomTom Ver.2 ポップンリズミン jubeatパック2 tricoro KONAMI BEMANI REFLEC BEAT colette pop'n music Sunny Park SOUND VOLTEX II -infinite infection- POLICY BREAK Dance Dance Revolution english trance instrumental female vocals bennybananas benny- hareimu reimu video game videogame vgm
BeatmapID:3979228
BeatmapSetID:1927045

[Difficulty]
HPDrainRate:5
CircleSize:4
OverallDifficulty:9.3
ApproachRate:9.3
SliderMultiplier:2
SliderTickRate:2

[Events]
//Background and Video events
0,0,"benita likes girls.jpg",0,0
//Break Periods
//Storyboard Layer 0 (Background)
//Storyboard Layer 1 (Fail)
//Storyboard Layer 2 (Pass)
//Storyboard Layer 3 (Foreground)
//Storyboard Layer 4 (Overlay)
//Storyboard Sound Samples

[TimingPoints]
1135,365.853658536585,4,2,1,40,1,0
1135,-100,4,2,1,40,0,0
24549,-100,4,2,1,60,0,0
34793,-66.6666666666667,4,2,1,60,0,0
35113,-100,4,2,1,5,0,0
35159,-66.6666666666667,4,2,1,60,0,0
35479,-100,4,2,1,5,0,0
35525,-66.6666666666667,4,2,1,60,0,0
35845,-100,4,2,1,5,0,0
35891,-66.6666666666667,4,2,1,60,0,0
36211,-100,4,2,1,5,0,0
36257,-100,4,2,1,60,0,0
46500,-66.6666666666667,4,2,1,60,0,0
46820,-100,4,2,1,5,0,0
46866,-66.6666666666667,4,2,1,60,0,0
47186,-100,4,2,1,5,0,0
47232,-66.6666666666667,4,2,1,60,0,0
47552,-100,4,2,1,5,0,0
47598,-66.6666666666667,4,2,1,60,0,0
47918,-100,4,2,1,5,0,0
47964,-100,4,2,1,60,0,0
58208,-66.6666666666667,4,2,1,60,0,0
58528,-100,4,2,1,5,0,0
58574,-66.6666666666667,4,2,1,60,0,0
58894,-100,4,2,1,5,0,0
58939,-66.6666666666667,4,2,1,60,0,0
59260,-100,4,2,1,5,0,0
59305,-66.6666666666667,4,2,1,60,0,0
59626,-100,4,2,1,5,0,0
59671,-100,4,2,99,60,0,0
59763,-100,4,2,1,80,0,0
68452,-100,4,2,99,70,0,0
68543,-100,4,2,1,70,0,0
81256,-66.6666666666667,4,2,1,70,0,0
81622,-71.4285714285714,4,2,1,100,0,1
84549,-71.4285714285714,4,2,1,100,0,1
88391,-40,4,2,1,100,0,1
88574,-71.4285714285714,4,2,1,100,0,1
88939,-83.3333333333333,4,2,1,100,0,1
89305,-76.9230769230769,4,2,1,100,0,1
89671,-71.4285714285714,4,2,1,100,0,1
90037,-100,4,2,1,100,0,1
90403,-142.857142857143,4,2,1,100,0,1
90769,-125,4,2,1,100,0,1
91134,-111.111111111111,4,2,1,100,0,1
91500,-100,4,2,1,100,0,1
91866,-71.4285714285714,4,2,1,100,0,1
97720,-71.4285714285714,4,2,1,100,0,1
100098,-40,4,2,1,100,0,1
100281,-71.4285714285714,4,2,1,100,0,1
102110,-71.4285714285714,4,2,1,100,0,1
105037,-100,4,2,1,100,0,0
128452,-100,4,2,99,100,0,0
128543,-100,4,2,1,80,0,0
139427,-100,4,2,1,80,0,0
140159,-100,4,2,99,80,0,0
140525,-100,4,2,1,80,0,0
140891,-100,4,2,1,80,0,0
141256,-100,4,2,1,80,0,0
141622,-100,4,2,1,80,0,0
141988,-100,4,2,1,80,0,0
142354,-100,4,2,1,80,0,0
142720,-100,4,2,1,80,0,0
143086,-100,4,2,1,80,0,0
146013,-100,4,2,99,70,0,0
146104,-100,4,2,1,70,0,0
146378,-100,4,2,2,70,0,0
150403,-100,4,2,2,40,0,0
150769,-100,4,2,2,50,0,0
151134,-100,4,2,2,60,0,0
151500,-100,4,2,2,70,0,0
151866,-71.4285714285714,4,2,1,100,0,1
155159,-40,4,2,1,100,0,1
155525,-71.4285714285714,4,2,1,100,0,1
159549,-40,4,2,1,100,0,1
159915,-71.4285714285714,4,2,1,100,0,1
166866,-40,4,2,1,100,0,1
167232,-71.4285714285714,4,2,1,100,0,1
171256,-40,4,2,1,100,0,1
171622,-71.4285714285714,4,2,1,100,0,1
175189,-71.4285714285714,4,2,1,100,0,0
175281,-71.4285714285714,4,2,1,100,0,1
178574,-40,4,2,1,100,0,1
178940,-71.4285714285714,4,2,1,100,0,1
190281,-40,4,2,1,100,0,1
190647,-71.4285714285714,4,2,1,100,0,1
198695,-71.4285714285714,4,2,1,100,0,0
220647,-100,4,2,1,100,0,0
221378,-71.4285714285714,4,2,1,100,0,0
222110,-71.4285714285714,4,2,1,100,0,0
245525,-100,4,2,99,80,0,0
245616,-100,4,2,1,40,0,0
254305,-66.6666666666667,4,2,1,40,0,0
257232,-100,4,2,1,20,0,0
257872,-100,4,2,1,40,0,0
292354,-100,4,2,1,20,0,0
293086,-100,4,2,1,16,0,0
293817,-100,4,2,1,11,0,0
294549,-100,4,2,1,9,0,0
295281,-100,4,2,1,5,0,0

[Colours]
Combo1 : 13,216,238
Combo2 : 62,105,255
Combo3 : 104,198,253

[HitObjects]
210,338,1135,6,0,P|241:72|253:343,1,800,2|2,0:2|0:2,0:2:0:0:
212,336,4061,6,0,P|181:70|169:341,1,800,2|2,0:2|0:2,0:2:0:0:
342,321,5891,2,0,L|131:298,1,200,0|2,0:2|0:2,0:2:0:0:
391,205,6622,1,2,0:2:0:0:
131,76,6988,6,0,L|129:285,1,200,2|0,0:2|0:2,0:2:0:0:
343,275,7720,1,2,0:2:0:0:
138,286,8086,1,2,0:2:0:0:
398,283,8452,2,0,P|360:140|346:287,1,400,2|2,0:2|0:2,0:2:0:0:
114,301,9915,6,0,L|331:286,2,200,2|0|0,0:2|0:2|0:2,0:2:0:0:
399,314,11013,1,0,0:2:0:0:
144,315,11378,2,0,P|70:300|167:88,1,400,2|2,0:2|0:2,0:2:0:0:
376,337,12842,6,0,P|345:71|333:342,1,800,2|2,0:2|0:2,0:2:0:0:
149,332,15768,6,0,P|180:66|192:337,1,800,2|2,0:2|0:2,0:2:0:0:
436,334,17598,2,0,L|225:311,1,200,0|2,0:2|0:2,0:2:0:0:
19,273,18329,1,2,0:2:0:0:
318,76,18695,6,0,P|361:174|308:256,1,200,2|0,0:2|0:2,0:2:0:0:
120,274,19427,1,2,0:2:0:0:
354,287,19793,1,0,0:2:0:0:
114,283,20159,2,0,P|152:140|166:287,1,400,2|2,0:2|0:2,0:2:0:0:
398,301,21622,6,0,L|181:286,2,200,2|0|0,0:2|0:2|0:2,0:2:0:0:
113,314,22720,1,0,0:2:0:0:
368,315,23085,2,0,P|442:300|345:88,1,400,2|0,0:2|0:2,0:2:0:0:
140,312,24549,6,0,P|96:280|164:168,1,200,2|0,0:2|0:2,0:2:0:0:
304,168,25098,2,0,L|84:160,1,200,2|0,0:2|0:2,0:2:0:0:
222,99,25647,1,2,0:2:0:0:
92,88,25830,1,0,0:2:0:0:
264,176,26013,6,0,L|480:172,1,200,2|0,0:2|0:2,0:2:0:0:
300,264,26561,2,0,P|248:232|328:136,1,200,2|2,0:2|0:2,0:2:0:0:
476,116,27110,1,2,0:2:0:0:
328,112,27293,1,0,0:2:0:0:
476,116,27476,6,0,L|492:240,1,100,2|0,0:2|0:2,0:2:0:0:
328,120,27842,2,0,L|316:256,1,100,2|0,0:2|0:2,0:2:0:0:
172,116,28208,2,0,L|176:220,1,100,2|0,0:2|0:2,0:2:0:0:
332,220,28574,1,2,0:2:0:0:
196,228,28756,1,2,0:2:0:0:
360,248,28939,6,0,L|476:240,2,100,2|0|0,0:2|0:2|0:2,0:2:0:0:
196,268,29488,2,0,P|152:228|240:124,1,200,2|0,0:2|0:2,0:2:0:0:
348,124,30037,1,2,0:2:0:0:
152,160,30403,6,0,L|44:152,2,100,2|0|0,0:2|0:2|0:2,0:2:0:0:
323,213,30952,2,0,L|105:208,1,200,2|0,0:2|0:2,0:2:0:0:
22,205,31500,1,2,0:2:0:0:
352,292,31866,5,2,0:2:0:0:
34,207,32232,1,2,0:2:0:0:
194,209,32415,2,0,L|195:95,1,100,2|0,0:0|0:0,0:0:0:0:
34,108,32781,2,0,L|271:103,1,200,2|0,0:0|0:0,0:0:0:0:
108,267,33330,6,0,L|118:167,1,100,2|0,0:2|0:2,0:2:0:0:
224,182,33695,2,0,L|216:74,1,100,0|0,0:2|0:2,0:2:0:0:
321,80,34061,2,0,L|429:76,2,100,0|0|0,0:2|0:2|0:2,0:2:0:0:
43,231,34793,6,0,L|335:223,1,262.500010013581,2|0,0:2|0:2,0:2:0:0:
306,224,35159,2,0,L|116:24,1,262.500010013581,2|0,0:2|0:2,0:2:0:0:
125,33,35525,2,0,L|366:140,1,262.500010013581,2|0,0:2|0:2,0:2:0:0:
364,139,35891,2,0,L|76:142,1,262.500010013581,2|0,0:2|0:2,0:2:0:0:
77,143,36256,6,0,P|31:186|101:287,1,200,2|0,0:2|0:2,0:2:0:0:
247,289,36805,2,0,L|467:281,1,200,2|0,0:2|0:2,0:2:0:0:
311,265,37354,1,2,0:2:0:0:
179,257,37537,1,0,0:2:0:0:
368,305,37720,6,0,L|494:305,2,100,2|0|0,0:0|0:0|0:0,0:0:0:0:
218,146,38269,2,0,L|465:139,1,200,2|2,0:2|0:2,0:2:0:0:
259,102,38817,1,2,0:2:0:0:
417,140,39000,1,0,0:2:0:0:
253,168,39183,6,0,L|269:292,1,100,2|0,0:2|0:2,0:2:0:0:
411,162,39549,2,0,L|399:298,1,100,2|0,0:2|0:2,0:2:0:0:
258,158,39915,2,0,L|262:262,1,100,2|0,0:2|0:2,0:2:0:0:
424,306,40281,1,2,0:2:0:0:
261,307,40463,1,2,0:2:0:0:
424,306,40647,5,0,0:2:0:0:
324,301,40829,1,0,0:2:0:0:
224,296,41012,1,0,0:2:0:0:
379,272,41195,2,0,L|137:259,1,200,2|0,0:2|0:2,0:2:0:0:
76,251,41744,1,2,0:2:0:0:
379,185,42110,6,0,L|271:177,2,100,2|0|0,0:2|0:2|0:2,0:2:0:0:
211,261,42659,2,0,P|196:219|309:133,1,200,2|0,0:2|0:2,0:2:0:0:
455,131,43207,1,2,0:2:0:0:
172,167,43573,5,2,0:2:0:0:
493,208,43939,1,2,0:2:0:0:
331,234,44122,2,0,L|333:118,1,100
212,231,44488,2,0,L|421:227,1,200
313,227,45037,6,0,L|325:111,1,100,2|0,0:2|0:2,0:2:0:0:
423,196,45402,2,0,L|415:88,1,100,2|0,0:2|0:2,0:2:0:0:
313,96,45769,2,0,L|187:97,1,100,2|0,0:2|0:2,0:2:0:0:
313,96,46134,2,0,L|314:227,1,100,2|0,0:2|0:2,0:2:0:0:
162,272,46500,6,0,L|452:207,1,262.500010013581,2|0,0:2|0:2,0:2:0:0:
418,214,46866,2,0,L|176:57,1,262.500010013581,2|0,0:2|0:2,0:2:0:0:
197,71,47232,2,0,L|364:287,1,262.500010013581,2|0,0:2|0:2,0:2:0:0:
357,278,47598,2,0,L|67:275,1,262.500010013581,2|0,0:2|0:2,0:2:0:0:
68,272,47964,6,0,L|64:156,1,100,2|0,0:2|0:2,0:2:0:0:
180,152,48330,1,0,0:2:0:0:
64,112,48513,1,2,0:2:0:0:
192,128,48695,2,0,L|412:120,1,200,2|0,0:2|0:2,0:2:0:0:
391,120,49244,1,0,0:2:0:0:
224,152,49427,6,0,L|216:272,1,100,2|0,0:2|0:2,0:2:0:0:
332,280,49793,1,2,0:2:0:0:
144,292,49976,2,0,P|108:244|200:136,1,200,2|2,0:2|0:2,0:2:0:0:
292,136,50525,1,0,0:2:0:0:
408,128,50708,1,2,0:2:0:0:
248,112,50891,6,0,L|248:224,1,100,0|0,0:2|0:2,0:2:0:0:
376,216,51256,2,0,L|492:212,2,100,0|0|0,0:2|0:2|0:2,0:2:0:0:
200,232,51805,1,2,0:2:0:0:
372,232,51988,2,0,L|376:124,1,100,2|0,0:2|0:2,0:2:0:0:
224,132,52354,6,0,L|120:132,2,100,2|0|0,0:2|0:2|0:2,0:2:0:0:
384,136,52903,1,2,0:2:0:0:
228,144,53086,2,0,L|-8:136,1,200,2|0,0:2|0:2,0:2:0:0:
276,320,53817,6,0,P|352:276|280:176,1,200,2|0,0:2|0:2,0:2:0:0:
168,192,54366,2,0,P|100:160|156:68,1,200,2|0,0:2|0:2,0:2:0:0:
306,63,54915,1,2,0:2:0:0:
144,56,55098,1,0,0:2:0:0:
310,71,55281,6,0,L|522:63,1,200,2|2,0:2|0:2,0:2:0:0:
343,118,55830,1,2,0:2:0:0:
506,174,56013,2,0,L|494:62,1,100,0|0,0:2|0:2,0:2:0:0:
394,178,56378,2,0,L|398:78,1,100,2|0,0:2|0:2,0:2:0:0:
235,187,56744,6,0,L|447:171,1,200,2|0,0:2|0:2,0:2:0:0:
275,291,57293,2,0,P|236:250|288:123,1,200,2|0,0:2|0:2,0:2:0:0:
436,160,57842,2,0,L|440:48,1,100,2|0,0:2|0:2,0:2:0:0:
280,260,58208,6,0,P|184:180|276:132,1,262.500010013581,2|0,0:2|0:2,0:2:0:0:
304,132,58574,2,0,P|392:192|300:268,1,262.500010013581,2|0,0:2|0:2,0:2:0:0:
264,272,58939,2,0,L|516:176,1,262.500010013581,2|0,0:2|0:2,0:2:0:0:
472,180,59305,2,0,L|182:177,1,262.500010013581,2|0,0:2|0:2,0:2:0:0:
346,164,59671,6,0,L|357:287,1,100,14|0,0:2|0:2,0:2:0:0:
306,282,59945,2,0,L|243:283,1,50,0|0,0:2|0:2,0:2:0:0:
401,267,60220,2,0,L|459:261,2,50,2|0|0,0:2|0:2|0:2,0:2:0:0:
227,212,60586,1,0,0:2:0:0:
276,210,60677,1,0,0:2:0:0:
326,208,60768,1,0,0:2:0:0:
175,163,60952,2,0,L|114:156,1,50,0|0,0:2|0:2,0:2:0:0:
175,163,61134,5,0,0:2:0:0:
358,127,61317,1,0,0:2:0:0:
358,127,61409,2,0,L|295:126,1,50,0|0,0:2|0:2,0:2:0:0:
147,132,61683,1,0,0:2:0:0:
220,130,61775,2,0,L|218:75,1,50,2|0,0:2|0:2,0:2:0:0:
52,137,62049,1,0,0:2:0:0:
101,134,62140,1,0,0:2:0:0:
151,131,62231,1,0,0:2:0:0:
332,131,62415,2,0,L|331:201,1,50,0|0,0:2|0:2,0:2:0:0:
231,222,62598,6,0,L|154:221,1,50,2|0,0:2|0:2,0:2:0:0:
242,183,62781,2,0,L|303:182,1,50,2|0,0:2|0:2,0:2:0:0:
223,147,62964,2,0,L|168:143,1,50,2|0,0:2|0:2,0:2:0:0:
375,98,63147,2,0,L|431:96,1,50,2|0,0:2|0:2,0:2:0:0:
431,164,63330,2,0,L|366:167,1,50,0|0,0:2|0:2,0:2:0:0:
179,171,63513,2,0,L|180:229,1,50,2|0,0:2|0:2,0:2:0:0:
229,247,63695,2,0,L|301:246,1,50,0|0,0:2|0:2,0:2:0:0:
70,287,63878,1,2,0:2:0:0:
26,264,63969,1,0,0:2:0:0:
11,217,64060,5,0,0:2:0:0:
31,173,64152,1,0,0:2:0:0:
76,155,64243,1,0,0:2:0:0:
131,152,64336,1,0,0:2:0:0:
301,155,64427,2,0,L|307:216,1,50,2|0,0:2|0:2,0:2:0:0:
236,217,64610,2,0,L|227:287,1,50,0|0,0:2|0:2,0:2:0:0:
413,294,64793,2,0,L|466:297,1,50,2|0,0:2|0:2,0:2:0:0:
465,230,64976,2,0,L|400:228,1,50,0|0,0:2|0:2,0:2:0:0:
316,232,65159,2,0,L|315:177,1,50,2|0,0:2|0:2,0:2:0:0:
372,174,65342,2,0,L|442:170,1,50,0|0,0:2|0:2,0:2:0:0:
221,190,65525,6,0,L|214:134,1,50,2|0,0:2|0:2,0:2:0:0:
297,141,65708,2,0,L|307:78,1,50,2|0,0:2|0:2,0:2:0:0:
225,88,65891,2,0,L|160:88,1,50,2|0,0:2|0:2,0:2:0:0:
285,55,66074,2,0,L|359:53,1,50,2|0,0:2|0:2,0:2:0:0:
345,118,66256,2,0,L|280:120,1,50,0|0,0:2|0:2,0:2:0:0:
47,167,66439,2,0,L|110:172,1,50,2|0,0:2|0:2,0:2:0:0:
341,186,66622,2,0,L|268:188,1,50,2|0,0:2|0:2,0:2:0:0:
76,265,66805,2,0,L|74:212,1,50,2|0,0:2|0:2,0:2:0:0:
295,218,66988,6,0,L|382:217,1,50,0|0,0:2|0:2,0:2:0:0:
355,167,67171,2,0,L|285:166,1,50,0|0,0:2|0:2,0:2:0:0:
394,136,67354,2,0,L|458:135,1,50,0|0,0:2|0:2,0:2:0:0:
394,136,67537,2,0,L|331:134,1,50,0|0,0:2|0:2,0:2:0:0:
147,138,67720,2,0,L|82:134,2,50,2|0|0,0:2|0:2|0:2,0:2:0:0:
307,140,67994,1,0,0:2:0:0:
307,140,68086,2,0,L|233:145,1,50,2|0,0:2|0:2,0:2:0:0:
430,108,68269,2,0,L|480:110,1,50,2|0,0:2|0:2,0:2:0:0:
154,272,68452,6,0,L|88:271,2,50,14|0|0,0:2|0:2|0:2,0:2:0:0:
251,272,68726,2,0,L|256:214,1,50,0|0,0:2|0:2,0:2:0:0:
192,204,68909,2,0,L|189:135,1,50,0|0,0:2|0:2,0:2:0:0:
253,135,69092,1,0,0:2:0:0:
429,139,69183,2,0,L|429:80,1,50,0|0,0:2|0:2,0:2:0:0:
367,86,69366,1,0,0:2:0:0:
270,117,69458,2,0,L|261:200,1,50,0|0,0:2|0:2,0:2:0:0:
329,180,69641,2,0,L|335:263,1,50,0|0,0:2|0:2,0:2:0:0:
270,259,69824,1,0,0:2:0:0:
45,262,69915,6,0,L|41:205,1,50,0|0,0:2|0:2,0:2:0:0:
104,200,70098,1,0,0:2:0:0:
201,199,70189,2,0,L|276:197,1,50,0|0,0:2|0:2,0:2:0:0:
151,139,70372,2,0,L|93:137,1,50,0|0,0:2|0:2,0:2:0:0:
199,123,70555,1,0,0:0:0:0:
248,142,70647,2,0,L|256:224,1,50,0|0,0:2|0:2,0:2:0:0:
70,241,70830,2,0,L|71:314,1,50,0|0,0:2|0:2,0:2:0:0:
167,298,71013,2,0,L|243:300,1,50,0|0,0:2|0:2,0:2:0:0:
18,292,71195,2,0,L|19:231,1,50,8|0,0:2|0:2,0:2:0:0:
303,334,71378,6,0,L|303:265,1,50,8|0,0:2|0:2,0:2:0:0:
241,278,71561,1,0,0:2:0:0:
335,259,71652,2,0,L|333:199,1,50,0|0,0:2|0:2,0:2:0:0:
271,205,71835,2,0,L|274:141,1,50,0|0,0:2|0:2,0:2:0:0:
336,135,72018,1,0,0:2:0:0:
145,133,72109,2,0,L|81:134,2,50,0|0|0,0:2|0:2|0:2,0:2:0:0:
243,132,72384,2,0,L|251:212,1,50,0|0,0:2|0:2,0:2:0:0:
185,185,72567,2,0,L|178:266,1,50,0|0,0:2|0:2,0:2:0:0:
244,260,72750,1,0,0:2:0:0:
436,261,72842,5,0,0:2:0:0:
436,261,72933,2,0,L|376:258,1,50,0|0,0:2|0:2,0:2:0:0:
292,203,73115,2,0,L|293:138,1,50,0|0,0:2|0:2,0:2:0:0:
389,142,73299,1,0,0:2:0:0:
389,142,73391,2,0,L|308:140,1,50,0|0,0:2|0:2,0:2:0:0:
245,146,73573,2,0,L|236:229,1,50,0|0,0:2|0:2,0:2:0:0:
425,267,73756,1,0,0:2:0:0:
425,217,73847,1,0,0:2:0:0:
328,220,73939,2,0,L|257:220,1,50,0|0,0:2|0:2,0:2:0:0:
474,305,74121,2,0,L|482:230,1,50,8|0,0:2|0:2,0:2:0:0:
245,229,74305,6,0,L|184:226,2,50,8|0|0,0:2|0:2|0:2,0:2:0:0:
346,234,74580,2,0,L|348:159,1,50,0|0,0:2|0:2,0:2:0:0:
251,167,74763,2,0,L|250:105,1,50,0|0,0:2|0:2,0:2:0:0:
313,102,74945,1,0,0:2:0:0:
414,124,75037,2,0,L|414:181,1,50,0|0,0:2|0:2,0:2:0:0:
237,243,75220,2,0,L|170:243,1,50,0|0,0:2|0:2,0:2:0:0:
286,196,75403,2,0,L|381:196,1,50,0|0,0:2|0:2,0:2:0:0:
123,175,75586,2,0,L|53:172,1,50,8|0,0:2|0:2,0:2:0:0:
267,229,75769,6,0,L|331:226,2,50,8|0|0,0:2|0:2|0:2,0:2:0:0:
166,234,76044,2,0,L|162:162,1,50,0|0,0:2|0:2,0:2:0:0:
261,163,76227,2,0,L|263:100,1,50,0|0,0:2|0:2,0:2:0:0:
199,102,76409,1,0,0:2:0:0:
98,124,76501,2,0,L|100:180,1,50,0|0,0:2|0:2,0:2:0:0:
275,243,76684,2,0,L|342:243,1,50,0|0,0:2|0:2,0:2:0:0:
226,196,76867,2,0,L|135:196,1,50,0|0,0:2|0:2,0:2:0:0:
389,175,77050,2,0,L|457:172,1,50,8|0,0:2|0:2,0:2:0:0:
216,171,77232,6,0,L|218:248,1,50,8|0,0:2|0:2,0:2:0:0:
313,259,77415,2,0,L|382:261,1,50,0|0,0:2|0:2,0:2:0:0:
264,214,77598,2,0,L|181:210,1,50,0|0,0:2|0:2,0:2:0:0:
313,155,77781,2,0,L|374:154,1,50,0|0,0:2|0:2,0:2:0:0:
132,102,77964,2,0,L|134:180,1,50,8|0,0:2|0:2,0:2:0:0:
229,190,78147,2,0,L|305:190,1,50,0|0,0:2|0:2,0:2:0:0:
180,145,78330,2,0,L|94:140,1,50,0|0,0:2|0:2,0:2:0:0:
229,86,78513,2,0,L|288:84,1,50,0|0,0:2|0:2,0:2:0:0:
51,162,78695,6,0,L|51:237,1,50,8|0,0:2|0:2,0:2:0:0:
116,237,78878,1,0,0:2:0:0:
293,255,78970,1,8,0:2:0:0:
468,261,79061,2,0,L|474:208,2,50,8|0|0,0:2|0:2|0:2,0:2:0:0:
297,147,79336,1,8,0:2:0:0:
130,138,79427,2,0,L|117:199,1,50,8|0,0:2|0:2,0:2:0:0:
321,290,79610,2,0,L|392:286,1,50,8|0,0:2|0:2,0:2:0:0:
185,232,79793,1,8,0:0:0:0:
36,232,79884,1,8,0:0:0:0:
185,232,79976,1,8,0:0:0:0:
36,232,80067,1,8,0:0:0:0:
135,243,80891,6,0,L|132:113,1,100,0|0,0:2|0:2,0:2:0:0:
208,149,81165,1,0,0:2:0:0:
134,144,81256,2,0,L|44:137,1,75.0000028610231,0|0,0:2|0:2,0:2:0:0:
134,144,81439,2,0,L|49:139,1,75.0000028610231,0|0,0:2|0:2,0:2:0:0:
320,260,81622,6,0,L|320:190,1,69.9999978637696,12|0,0:2|0:2,0:2:0:0:
249,185,81805,2,0,L|166:182,1,69.9999978637696,0|0,0:2|0:2,0:2:0:0:
411,114,81988,1,8,0:2:0:0:
251,125,82171,2,0,L|251:203,1,69.9999978637696,0|0,0:2|0:2,0:2:0:0:
326,194,82354,2,0,L|334:274,1,69.9999978637696,8|0,0:2|0:2,0:2:0:0:
161,300,82537,1,0,0:2:0:0:
320,300,82720,2,0,L|393:298,1,69.9999978637696,8|0,0:2|0:2,0:2:0:0:
320,300,82903,2,0,L|240:297,1,69.9999978637696,0|0,0:2|0:2,0:2:0:0:
461,243,83086,6,0,L|458:171,1,69.9999978637696,8|0,0:2|0:2,0:2:0:0:
388,177,83269,2,0,L|305:173,1,69.9999978637696,0|0,0:2|0:2,0:2:0:0:
490,100,83452,1,8,0:2:0:0:
330,122,83634,2,0,L|326:212,1,69.9999978637696,0|0,0:2|0:2,0:2:0:0:
398,198,83817,2,0,L|481:199,1,69.9999978637696,8|0,0:2|0:2,0:2:0:0:
239,286,84000,1,0,0:2:0:0:
397,315,84183,2,0,L|322:315,1,69.9999978637696,8|0,0:2|0:2,0:2:0:0:
95,215,84366,2,0,L|168:215,1,69.9999978637696,0|0,0:2|0:2,0:2:0:0:
356,222,84549,6,0,L|356:303,1,69.9999978637696,8|0,0:2|0:2,0:2:0:0:
285,297,84732,2,0,L|204:295,1,69.9999978637696,0|0,0:2|0:2,0:2:0:0:
443,265,84915,2,0,L|513:263,3,69.9999978637696,8|0|0|0,0:2|0:2|0:2|0:2,0:2:0:0:
285,262,85281,2,0,L|194:263,1,69.9999978637696,8|0,0:2|0:2,0:2:0:0:
216,201,85464,2,0,L|290:201,1,69.9999978637696,0|0,0:2|0:2,0:2:0:0:
471,169,85647,1,8,0:2:0:0:
319,152,85738,1,0,0:2:0:0:
164,133,85830,1,0,0:2:0:0:
319,152,85921,1,0,0:2:0:0:
471,169,86013,6,0,L|470:79,1,69.9999978637696,8|0,0:2|0:2,0:2:0:0:
401,102,86195,2,0,L|323:102,1,69.9999978637696,0|0,0:2|0:2,0:2:0:0:
161,109,86378,1,8,0:2:0:0:
161,109,86470,2,0,L|244:108,1,69.9999978637696,0|0,0:2|0:2,0:2:0:0:
454,153,86653,1,0,0:2:0:0:
454,153,86744,2,0,L|369:152,1,69.9999978637696,8|0,0:2|0:2,0:2:0:0:
228,249,86927,2,0,L|225:176,1,69.9999978637696,0|0,0:2|0:2,0:2:0:0:
449,191,87110,2,0,L|447:114,1,69.9999978637696,8|0,0:2|0:2,0:2:0:0:
375,129,87293,2,0,L|296:127,1,69.9999978637696,0|0,0:2|0:2,0:2:0:0:
149,124,87476,6,0,L|56:129,1,69.9999978637696,8|0,0:2|0:2,0:2:0:0:
149,124,87659,2,0,L|245:125,1,69.9999978637696,0|0,0:2|0:2,0:2:0:0:
36,174,87842,2,0,P|14:124|73:60,1,139.999995727539,8|0,0:2|0:2,0:2:0:0:
217,140,88116,1,0,0:2:0:0:
372,165,88208,2,0,L|368:235,1,69.9999978637696,8|0,0:2|0:2,0:2:0:0:
15,228,88391,2,0,L|281:226,1,250,0|8,0:2|0:2,0:2:0:0:
207,216,88665,1,0,0:2:0:0:
48,112,88756,2,0,L|45:39,1,69.9999978637696,0|0,0:2|0:2,0:2:0:0:
275,145,88939,6,0,L|373:144,1,59.9999981689454,8|0,0:2|0:2,0:2:0:0:
275,145,89122,2,0,L|167:145,1,59.9999981689454,0|0,0:2|0:2,0:2:0:0:
423,248,89305,2,0,L|498:243,1,64.9999970245363,8|0,0:2|0:2,0:2:0:0:
423,248,89488,2,0,L|353:245,1,64.9999970245363,0|0,0:2|0:2,0:2:0:0:
181,146,89671,1,8,0:2:0:0:
334,134,89762,1,0,0:2:0:0:
488,125,89853,1,0,0:2:0:0:
488,125,89945,1,0,0:2:0:0:
185,121,90037,2,0,L|132:114,1,50,8|0,0:2|0:2,0:2:0:0:
185,121,90220,2,0,L|254:133,1,50,0|0,0:2|0:2,0:2:0:0:
51,156,90403,5,8,0:2:0:0:
39,188,90494,1,0,0:2:0:0:
48,221,90585,1,0,0:2:0:0:
73,244,90677,1,0,0:2:0:0:
260,261,90769,1,8,0:2:0:0:
262,221,90860,1,0,0:2:0:0:
246,185,90951,1,0,0:2:0:0:
216,159,91043,1,0,0:2:0:0:
60,158,91134,2,0,L|52:94,1,44.999998626709,8|0,0:2|0:2,0:2:0:0:
267,102,91317,2,0,L|349:100,1,44.999998626709,0|0,0:2|0:2,0:2:0:0:
158,56,91500,1,8,0:2:0:0:
312,68,91592,1,0,0:2:0:0:
463,82,91683,2,0,L|467:147,1,50,0|0,0:2|0:2,0:2:0:0:
272,268,91866,6,0,L|273:191,1,69.9999978637696,8|0,0:2|0:2,0:2:0:0:
344,203,92049,2,0,L|416:203,1,69.9999978637696,0|0,0:2|0:2,0:2:0:0:
204,191,92232,2,0,L|126:190,2,69.9999978637696,8|0|0,0:2|0:2|0:2,0:2:0:0:
370,175,92506,1,0,0:2:0:0:
159,116,92598,2,0,L|154:197,1,69.9999978637696,8|0,0:2|0:2,0:2:0:0:
310,235,92781,2,0,L|235:232,1,69.9999978637696,8|0,0:2|0:2,0:2:0:0:
395,321,92964,2,0,L|306:314,1,69.9999978637696,8|0,0:2|0:2,0:2:0:0:
75,324,93147,2,0,L|172:315,1,69.9999978637696,8|0,0:2|0:2,0:2:0:0:
384,255,93330,6,0,L|382:177,1,69.9999978637696,12|0,0:2|0:2,0:2:0:0:
310,186,93513,2,0,L|215:188,1,69.9999978637696,0|0,0:2|0:2,0:2:0:0:
46,112,93696,1,8,0:2:0:0:
207,155,93879,2,0,L|210:228,1,69.9999978637696,0|0,0:2|0:2,0:2:0:0:
135,237,94062,2,0,L|115:312,1,69.9999978637696,8|0,0:2|0:2,0:2:0:0:
297,305,94245,1,0,0:2:0:0:
137,330,94428,2,0,L|140:256,1,69.9999978637696,8|0,0:2|0:2,0:2:0:0:
210,260,94611,2,0,L|298:257,1,69.9999978637696,0|0,0:2|0:2,0:2:0:0:
51,243,94794,6,0,L|52:167,1,69.9999978637696,8|0,0:2|0:2,0:2:0:0:
124,173,94977,2,0,L|220:173,1,69.9999978637696,0|0,0:2|0:2,0:2:0:0:
22,100,95160,1,8,0:2:0:0:
181,102,95342,2,0,L|181:193,1,69.9999978637696,0|0,0:2|0:2,0:2:0:0:
113,174,95525,2,0,L|26:177,1,69.9999978637696,8|0,0:2|0:2,0:2:0:0:
273,286,95708,1,0,0:2:0:0:
113,338,95891,2,0,L|191:336,1,69.9999978637696,8|0,0:2|0:2,0:2:0:0:
384,215,96074,2,0,L|308:212,1,69.9999978637696,0|0,0:2|0:2,0:2:0:0:
156,222,96257,6,0,L|157:302,1,69.9999978637696,8|0,0:2|0:2,0:2:0:0:
223,298,96440,2,0,L|311:297,1,69.9999978637696,0|0,0:2|0:2,0:2:0:0:
468,296,96622,1,8,0:2:0:0:
308,267,96805,2,0,L|311:176,1,69.9999978637696,0|0,0:2|0:2,0:2:0:0:
378,199,96988,2,0,L|459:200,1,69.9999978637696,8|0,0:2|0:2,0:2:0:0:
266,143,97171,1,0,0:2:0:0:
425,108,97354,2,0,L|425:189,1,69.9999978637696,8|0,0:2|0:2,0:2:0:0:
355,194,97537,2,0,L|286:194,1,69.9999978637696,0|0,0:2|0:2,0:2:0:0:
87,194,97720,5,8,0:2:0:0:
241,265,97811,1,0,0:2:0:0:
398,294,97903,1,0,0:2:0:0:
241,265,97994,1,0,0:2:0:0:
87,194,98086,1,8,0:2:0:0:
87,194,98178,2,0,L|167:192,1,69.9999978637696,0|0,0:2|0:2,0:2:0:0:
359,195,98361,2,0,L|443:193,2,69.9999978637696,0|8|0,0:2|0:2|0:2,0:2:0:0:
142,265,98635,2,0,L|239:270,1,69.9999978637696,0|0,0:2|0:2,0:2:0:0:
281,262,98818,2,0,L|281:181,1,69.9999978637696,8|0,0:2|0:2,0:2:0:0:
122,158,99001,2,0,L|16:156,1,69.9999978637696,0|0,0:2|0:2,0:2:0:0:
267,117,99184,6,0,L|358:120,1,69.9999978637696,8|0,0:2|0:2,0:2:0:0:
335,178,99367,2,0,L|251:176,1,69.9999978637696,0|0,0:2|0:2,0:2:0:0:
476,174,99550,2,0,P|493:127|455:39,1,139.999995727539,8|0,0:2|0:2,0:2:0:0:
308,60,99824,1,0,0:2:0:0:
154,121,99916,2,0,L|154:207,1,69.9999978637696,8|0,0:2|0:2,0:2:0:0:
374,304,100098,2,0,L|95:302,1,250,0|8,0:2|0:2,0:2:0:0:
124,302,100373,1,0,0:2:0:0:
304,282,100464,2,0,L|301:206,1,69.9999978637696,0|0,0:2|0:2,0:2:0:0:
93,213,100647,6,0,L|-9:214,1,69.9999978637696,8|0,0:2|0:2,0:2:0:0:
22,159,100830,2,0,L|107:154,1,69.9999978637696,0|0,0:2|0:2,0:2:0:0:
250,246,101013,1,8,0:2:0:0:
404,250,101104,1,0,0:2:0:0:
250,246,101195,1,0,0:2:0:0:
94,246,101287,1,0,0:2:0:0:
332,160,101379,1,8,0:2:0:0:
179,220,101470,1,0,0:2:0:0:
25,188,101561,1,0,0:2:0:0:
179,220,101653,1,0,0:2:0:0:
332,160,101745,2,0,L|407:157,1,69.9999978637696,8|0,0:2|0:2,0:2:0:0:
332,160,101928,2,0,L|237:164,1,69.9999978637696,0|0,0:2|0:2,0:2:0:0:
461,156,102111,5,8,0:2:0:0:
473,188,102202,1,0,0:2:0:0:
464,221,102293,1,0,0:2:0:0:
439,244,102385,1,0,0:2:0:0:
252,261,102477,1,8,0:2:0:0:
250,221,102568,1,0,0:2:0:0:
266,185,102659,1,0,0:2:0:0:
296,159,102751,1,0,0:2:0:0:
460,141,102842,1,8,0:2:0:0:
453,92,102933,1,0,0:2:0:0:
420,55,103024,1,0,0:2:0:0:
373,41,103116,1,0,0:2:0:0:
204,113,103208,2,0,L|202:186,1,69.9999978637696,8|0,0:2|0:2,0:2:0:0:
273,181,103391,2,0,L|352:182,1,69.9999978637696,0|0,0:2|0:2,0:2:0:0:
80,301,103574,6,0,L|81:224,1,69.9999978637696,8|0,0:2|0:2,0:2:0:0:
146,229,103757,2,0,L|220:230,1,69.9999978637696,0|0,0:2|0:2,0:2:0:0:
380,225,103939,2,0,L|461:219,1,69.9999978637696,8|0,0:2|0:2,0:2:0:0:
380,225,104122,2,0,L|291:233,1,69.9999978637696,0|0,0:2|0:2,0:2:0:0:
115,281,104305,2,0,L|114:194,1,69.9999978637696,8|0,0:2|0:2,0:2:0:0:
274,164,104489,2,0,L|200:160,1,69.9999978637696,8|0,0:2|0:2,0:2:0:0:
362,254,104672,2,0,L|246:258,1,69.9999978637696,8|0,0:2|0:2,0:2:0:0:
448,176,104855,2,0,L|351:170,1,69.9999978637696,8|0,0:2|0:2,0:2:0:0:
107,59,105037,6,0,L|56:119,1,50,12|0,0:2|0:2,0:2:0:0:
63,120,105220,2,0,L|106:174,1,50,0|0,0:2|0:2,0:2:0:0:
153,167,105403,2,0,L|149:222,1,50,8|0,0:2|0:2,0:2:0:0:
63,278,105586,2,0,L|56:346,1,50,0|0,0:2|0:2,0:2:0:0:
232,341,105769,2,0,L|291:334,1,50,8|0,0:2|0:2,0:2:0:0:
268,276,105952,2,0,L|212:271,1,50,0|0,0:2|0:2,0:2:0:0:
138,230,106134,2,0,L|144:169,1,50,8|0,0:2|0:2,0:2:0:0:
227,165,106317,2,0,L|289:162,1,50,0|0,0:2|0:2,0:2:0:0:
76,118,106500,6,0,L|68:205,1,50,8|0,0:2|0:2,0:2:0:0:
119,197,106683,2,0,L|181:201,1,50,0|0,0:2|0:2,0:2:0:0:
394,208,106866,2,0,L|399:275,1,50,8|0,0:2|0:2,0:2:0:0:
197,301,107049,2,0,L|198:239,1,50,0|0,0:2|0:2,0:2:0:0:
264,249,107232,2,0,L|318:251,1,50,8|0,0:2|0:2,0:2:0:0:
94,226,107415,2,0,L|31:220,1,50,0|0,0:2|0:2,0:2:0:0:
55,163,107598,2,0,L|110:163,1,50,8|0,0:2|0:2,0:2:0:0:
51,123,107781,2,0,L|-2:123,1,50,0|0,0:2|0:2,0:2:0:0:
225,120,107964,6,0,L|296:121,1,50,8|0,0:2|0:2,0:2:0:0:
225,120,108147,2,0,L|167:119,1,50,0|0,0:2|0:2,0:2:0:0:
391,103,108330,2,0,L|447:105,1,50,8|0,0:2|0:2,0:2:0:0:
257,103,108513,2,0,L|255:157,1,50,0|0,0:2|0:2,0:2:0:0:
304,197,108695,2,0,L|383:200,1,50,8|0,0:2|0:2,0:2:0:0:
155,280,108878,2,0,L|99:286,1,50,0|0,0:2|0:2,0:2:0:0:
90,231,109061,2,0,L|154:230,1,50,8|0,0:2|0:2,0:2:0:0:
319,228,109244,2,0,L|319:170,1,50,0|0,0:2|0:2,0:2:0:0:
142,168,109427,6,0,L|86:167,1,50,8|0,0:2|0:2,0:2:0:0:
85,107,109610,2,0,L|147:104,1,50,0|0,0:2|0:2,0:2:0:0:
317,102,109793,2,0,L|320:154,1,50,8|0,0:2|0:2,0:2:0:0:
265,189,109976,2,0,L|213:191,1,50,0|0,0:2|0:2,0:2:0:0:
447,295,110159,2,0,L|502:293,1,50,8|0,0:2|0:2,0:2:0:0:
505,228,110342,2,0,L|434:220,1,50,0|0,0:2|0:2,0:2:0:0:
232,170,110525,1,8,0:2:0:0:
281,166,110616,1,0,0:2:0:0:
331,163,110707,1,0,0:2:0:0:
381,160,110799,1,0,0:2:0:0:
163,145,110891,6,0,L|160:202,1,50,8|0,0:2|0:2,0:2:0:0:
215,237,111074,2,0,L|279:244,1,50,0|0,0:2|0:2,0:2:0:0:
51,288,111256,2,0,L|48:205,1,50,8|0,0:2|0:2,0:2:0:0:
105,222,111439,2,0,L|182:221,1,50,0|0,0:2|0:2,0:2:0:0:
355,189,111622,2,0,L|297:185,1,50,8|0,0:2|0:2,0:2:0:0:
254,181,111805,2,0,L|254:112,1,50,0|0,0:2|0:2,0:2:0:0:
438,102,111988,2,0,L|487:101,1,50,8|0,0:2|0:2,0:2:0:0:
488,170,112171,2,0,L|430:169,1,50,0|0,0:2|0:2,0:2:0:0:
205,292,112354,5,8,0:2:0:0:
142,282,112445,1,0,0:2:0:0:
97,246,112536,1,0,0:2:0:0:
97,246,112628,1,0,0:2:0:0:
142,282,112719,1,8,0:2:0:0:
205,292,112811,1,0,0:2:0:0:
366,292,112903,2,0,L|366:237,1,50,0|0,0:2|0:2,0:2:0:0:
297,241,113086,2,0,L|240:238,1,50,8|0,0:2|0:2,0:2:0:0:
245,167,113269,2,0,L|295:167,1,50,0|0,0:2|0:2,0:2:0:0:
101,137,113452,2,0,L|35:139,1,50,8|0,0:2|0:2,0:2:0:0:
44,205,113634,2,0,L|109:207,1,50,0|0,0:2|0:2,0:2:0:0:
350,323,113817,6,0,L|353:262,1,50,8|0,0:2|0:2,0:2:0:0:
280,273,114000,2,0,L|269:217,1,50,0|0,0:2|0:2,0:2:0:0:
348,215,114183,2,0,L|407:213,1,50,8|0,0:2|0:2,0:2:0:0:
200,178,114366,2,0,L|137:173,1,50,0|0,0:2|0:2,0:2:0:0:
149,111,114549,2,0,L|216:107,1,50,8|0,0:2|0:2,0:2:0:0:
283,104,114732,2,0,L|280:165,1,50,0|0,0:2|0:2,0:2:0:0:
205,160,114915,2,0,L|199:226,1,50,8|0,0:2|0:2,0:2:0:0:
278,241,115098,2,0,L|346:241,1,50,0|0,0:2|0:2,0:2:0:0:
111,298,115281,6,0,L|111:192,1,100,12|0,0:2|0:2,0:2:0:0:
172,197,115555,1,0,0:2:0:0:
353,193,115647,2,0,L|246:188,1,100,8|0,0:2|0:2,0:2:0:0:
193,182,115921,1,0,0:2:0:0:
376,110,116013,1,12,0:2:0:0:
214,113,116195,2,0,L|211:179,1,50,8|0,0:2|0:2,0:2:0:0:
421,225,116378,2,0,L|481:225,1,50,8|0,0:2|0:2,0:2:0:0:
285,318,116561,2,0,L|348:316,1,50,8|0,0:2|0:2,0:2:0:0:
107,59,116744,6,0,L|35:62,1,50,12|0,0:2|0:2,0:2:0:0:
59,129,116927,2,0,L|111:132,1,50,0|0,0:2|0:2,0:2:0:0:
296,153,117110,2,0,L|292:208,1,50,8|0,1:2|0:2,0:2:0:0:
223,221,117293,2,0,L|216:289,1,50,0|0,0:2|0:2,0:2:0:0:
390,325,117476,2,0,L|449:318,1,50,8|0,0:2|0:2,0:2:0:0:
434,257,117659,2,0,L|378:252,1,50,0|0,0:2|0:2,0:2:0:0:
227,165,117841,2,0,L|162:163,1,50,8|0,1:2|0:2,0:2:0:0:
227,165,118024,2,0,L|289:162,1,50,0|0,0:2|0:2,0:2:0:0:
76,118,118207,6,0,L|68:205,1,50,8|0,0:2|0:2,0:2:0:0:
119,197,118390,2,0,L|181:201,1,50,0|0,0:2|0:2,0:2:0:0:
394,208,118573,2,0,L|399:275,1,50,8|0,1:2|0:2,0:2:0:0:
197,301,118756,2,0,L|198:239,1,50,0|0,0:2|0:2,0:2:0:0:
264,249,118939,2,0,L|318:251,1,50,8|0,0:2|0:2,0:2:0:0:
94,226,119122,2,0,L|31:220,1,50,0|0,0:2|0:2,0:2:0:0:
257,189,119305,2,0,L|257:137,1,50,8|0,1:2|0:2,0:2:0:0:
198,134,119488,2,0,L|145:134,1,50,0|0,0:2|0:2,0:2:0:0:
362,174,119671,6,0,L|296:174,1,50,8|0,0:2|0:2,0:2:0:0:
262,173,119854,2,0,L|259:108,1,50,0|0,0:2|0:2,0:2:0:0:
434,99,120037,2,0,L|490:101,1,50,8|0,1:2|0:2,0:2:0:0:
257,103,120220,2,0,L|196:100,1,50,0|0,0:2|0:2,0:2:0:0:
257,103,120402,2,0,L|336:106,1,50,8|0,0:2|0:2,0:2:0:0:
110,149,120585,2,0,L|51:145,1,50,0|0,0:2|0:2,0:2:0:0:
247,166,120768,2,0,L|317:161,1,50,8|0,1:2|0:2,0:2:0:0:
131,132,120951,2,0,L|63:129,1,50,0|0,0:2|0:2,0:2:0:0:
370,168,121134,6,0,L|426:167,1,50,8|0,0:2|0:2,0:2:0:0:
427,107,121317,2,0,L|365:104,1,50,0|0,0:2|0:2,0:2:0:0:
195,102,121500,2,0,L|192:154,1,50,8|0,1:2|0:2,0:2:0:0:
247,189,121683,2,0,L|299:191,1,50,0|0,0:2|0:2,0:2:0:0:
65,295,121866,2,0,L|10:293,1,50,8|0,0:2|0:2,0:2:0:0:
7,228,122049,2,0,L|78:220,1,50,0|0,0:2|0:2,0:2:0:0:
280,170,122232,1,8,1:2:0:0:
231,166,122323,1,0,0:2:0:0:
181,163,122414,1,0,0:2:0:0:
131,160,122506,1,0,0:2:0:0:
349,145,122598,6,0,L|352:202,1,50,8|0,0:2|0:2,0:2:0:0:
297,237,122781,2,0,L|233:244,1,50,0|0,0:2|0:2,0:2:0:0:
461,288,122963,2,0,L|464:205,1,50,8|0,1:2|0:2,0:2:0:0:
407,222,123146,2,0,L|330:221,1,50,0|0,0:2|0:2,0:2:0:0:
157,189,123330,2,0,L|215:185,1,50,8|0,0:2|0:2,0:2:0:0:
258,181,123512,2,0,L|258:112,1,50,0|0,0:2|0:2,0:2:0:0:
74,102,123695,2,0,L|25:101,1,50,8|0,1:2|0:2,0:2:0:0:
24,170,123878,2,0,L|82:169,1,50,0|0,0:2|0:2,0:2:0:0:
296,110,124061,6,0,L|300:167,1,50,8|0,0:2|0:2,0:2:0:0:
231,181,124244,2,0,L|226:249,1,50,0|0,0:2|0:2,0:2:0:0:
429,298,124427,2,0,L|478:293,1,50,8|0,1:2|1:2,1:2:0:0:
146,292,124610,2,0,L|146:237,1,50,0|0,0:2|0:2,0:2:0:0:
215,241,124793,2,0,L|272:238,1,50,8|0,0:2|0:2,0:2:0:0:
267,167,124976,2,0,L|217:167,1,50,0|0,0:2|0:2,0:2:0:0:
411,137,125159,2,0,L|477:139,1,50,8|0,1:2|0:2,0:2:0:0:
468,205,125341,2,0,L|403:207,1,50,0|0,0:2|0:2,0:2:0:0:
162,323,125524,6,0,L|159:262,1,50,8|0,0:2|0:2,0:2:0:0:
232,273,125707,2,0,L|243:217,1,50,0|0,0:2|0:2,0:2:0:0:
70,202,125890,2,0,L|11:200,1,50,8|0,1:2|0:2,0:2:0:0:
234,172,126073,2,0,L|297:167,1,50,0|0,0:2|0:2,0:2:0:0:
285,105,126256,2,0,L|218:101,1,50,8|0,0:2|0:2,0:2:0:0:
151,98,126439,2,0,L|154:159,1,50,0|0,0:2|0:2,0:2:0:0:
334,222,126622,2,0,L|340:288,1,50,8|0,1:2|0:2,0:2:0:0:
261,303,126805,2,0,L|193:303,1,50,0|0,0:2|0:2,0:2:0:0:
404,289,126988,6,0,L|471:291,1,50,8|0,0:2|0:2,0:2:0:0:
465,228,127171,2,0,L|401:225,1,50,0|0,0:2|0:2,0:2:0:0:
202,216,127354,2,0,L|266:217,1,50,8|0,1:2|0:2,0:2:0:0:
301,218,127537,2,0,L|299:150,1,50,0|0,0:2|0:2,0:2:0:0:
115,153,127720,2,0,L|58:147,1,50,8|0,0:2|0:2,0:2:0:0:
271,144,127903,2,0,L|333:142,1,50,8|0,0:2|0:2,0:2:0:0:
128,105,128086,2,0,L|68:101,1,50,8|0,1:2|0:2,0:2:0:0:
292,82,128269,2,0,L|228:77,1,50,8|0,0:2|0:2,0:2:0:0:
452,78,128452,6,0,P|514:155|470:245,1,200,14|0,0:2|0:2,0:2:0:0:
327,247,129000,2,0,L|123:236,2,200,2|0|0,0:2|0:2|0:2,0:2:0:0:
175,326,129915,2,0,L|491:291,2,300,2|2|0,0:2|0:2|0:2,0:2:0:0:
397,340,131378,6,0,P|399:285|265:208,1,200,2|0,0:0|0:0,0:0:0:0:
128,292,131927,2,0,P|187:46|215:289,1,700,2|0,0:2|0:2,0:2:0:0:
410,314,134122,6,0,L|98:301,1,300,2|0,0:2|0:2,0:2:0:0:
261,308,134854,2,0,P|311:263|250:156,1,200,2|0,0:2|0:2,0:2:0:0:
111,220,135403,2,0,L|111:112,1,100,2|0,0:2|0:2,0:2:0:0:
260,115,135769,2,0,P|210:232|36:294,2,300,2|2|0,0:2|0:2|0:2,0:2:0:0:
447,133,137232,6,0,L|236:124,1,200,2|0,0:2|0:2,0:2:0:0:
95,250,137781,2,0,P|34:192|105:113,1,200,2|0,0:2|0:2,0:2:0:0:
394,217,138513,2,0,L|190:211,1,200,2|0,0:2|0:2,0:2:0:0:
44,206,139061,2,0,L|255:183,2,200,2|0|2,0:2|0:2|0:2,0:2:0:0:
473,193,140159,6,0,P|476:143|352:62,1,200,14|0,0:2|0:2,0:2:0:0:
219,171,140708,1,2,0:2:0:0:
268,175,140799,1,0,0:2:0:0:
318,180,140890,1,0,0:2:0:0:
167,241,141074,1,2,0:0:0:0:
164,290,141165,1,0,0:0:0:0:
162,340,141256,1,0,0:0:0:0:
312,330,141439,1,2,0:2:0:0:
245,321,141531,2,0,L|242:269,1,50,0|0,0:2|0:2,0:2:0:0:
389,236,141805,5,0,0:2:0:0:
395,186,141896,1,0,0:2:0:0:
400,136,141987,1,0,0:2:0:0:
250,153,142171,1,0,0:2:0:0:
200,147,142262,1,0,0:2:0:0:
150,141,142353,1,0,0:2:0:0:
302,174,142537,1,0,0:2:0:0:
299,223,142628,1,0,0:2:0:0:
296,273,142719,1,0,0:2:0:0:
146,277,142903,2,0,L|82:275,1,50,0|0,0:2|0:2,0:2:0:0:
310,31,143086,6,0,L|305:97,1,50,2|0,0:2|0:2,0:2:0:0:
373,98,143269,2,0,L|377:162,1,50,0|0,0:2|0:2,0:2:0:0:
299,153,143452,2,0,L|229:152,1,50,0|0,0:2|0:2,0:2:0:0:
474,172,143634,2,0,L|477:239,1,50,2|0,0:2|0:2,0:2:0:0:
419,260,143817,2,0,L|352:259,1,50,0|0,0:2|0:2,0:2:0:0:
176,260,144000,2,0,L|115:260,1,50,2|0,0:2|0:2,0:2:0:0:
176,260,144183,2,0,L|226:258,1,50,0|0,0:2|0:2,0:2:0:0:
30,218,144366,2,0,L|35:159,1,50,2|0,0:2|0:2,0:2:0:0:
88,163,144549,6,0,L|151:163,1,50,0|0,0:2|0:2,0:2:0:0:
88,163,144732,2,0,L|34:163,1,50,0|0,0:2|0:2,0:2:0:0:
258,135,144915,2,0,L|196:137,1,50,2|0,0:2|0:2,0:2:0:0:
156,143,145098,2,0,L|160:80,1,50,0|0,0:2|0:2,0:2:0:0:
338,91,145281,2,0,L|403:90,1,50,2|0,0:2|0:2,0:2:0:0:
396,157,145464,2,0,L|332:157,1,50,0|0,0:2|0:2,0:2:0:0:
135,172,145647,2,0,L|131:233,1,50,2|0,0:2|0:2,0:2:0:0:
191,248,145830,2,0,L|259:252,1,50,0|0,0:2|0:2,0:2:0:0:
28,291,146013,6,0,L|29:225,1,50,14|0,0:2|0:2,0:2:0:0:
96,234,146195,2,0,L|149:230,1,50,0|0,0:2|0:2,0:2:0:0:
367,200,146378,2,0,L|299:195,1,50,2|0,1:2|0:2,0:2:0:0:
121,175,146561,2,0,L|55:172,1,50,2|0,0:2|0:2,0:2:0:0:
267,152,146744,2,0,L|332:151,1,50,2|0,1:2|0:2,0:2:0:0:
315,95,146927,2,0,L|255:94,1,50,0|0,0:2|0:2,0:2:0:0:
89,150,147110,2,0,L|156:151,1,50,0|0,1:2|0:2,0:2:0:0:
201,169,147293,2,0,L|202:233,1,50,0|0,0:2|0:2,0:2:0:0:
29,245,147476,6,0,L|25:309,1,50,0|0,1:2|0:2,0:2:0:0:
83,324,147659,2,0,L|145:328,1,50,0|0,0:2|0:2,0:2:0:0:
337,332,147842,2,0,L|408:334,2,50,0|0|2,1:2|0:2|0:2,0:2:0:0:
143,323,148116,1,0,1:2:0:0:
337,332,148208,2,0,L|388:333,1,50,0|0,1:2|0:2,0:2:0:0:
208,303,148391,2,0,L|144:300,1,50,2|0,1:2|0:2,0:2:0:0:
370,282,148574,1,2,1:2:0:0:
158,300,148665,2,0,L|97:300,1,50,0|0,1:2|0:2,0:2:0:0:
321,213,148848,1,0,1:2:0:0:
108,300,148939,6,0,L|104:235,1,50,2|0,1:2|0:2,0:2:0:0:
297,239,149122,2,0,L|363:238,1,50,0|0,1:2|0:2,0:2:0:0:
124,209,149305,2,0,L|115:147,1,50,0|0,1:2|0:2,0:2:0:0:
319,163,149488,2,0,L|392:160,1,50,0|0,1:2|0:2,0:2:0:0:
150,136,149671,2,0,L|146:76,1,50,2|0,1:2|0:2,0:2:0:0:
356,128,149854,2,0,L|419:126,1,50,0|0,1:2|0:2,0:2:0:0:
181,116,150037,2,0,L|172:55,1,50,0|0,1:2|0:2,0:2:0:0:
382,96,150220,2,0,L|441:92,1,50,0|0,1:2|0:2,0:2:0:0:
160,277,150403,6,0,L|154:215,1,50,2|0,1:2|1:2,1:2:0:0:
306,197,150586,1,0,1:2:0:0:
455,177,150677,1,0,1:2:0:0:
198,237,150769,2,0,L|197:166,1,50,0|0,1:2|1:2,1:2:0:0:
348,122,150952,1,0,1:2:0:0:
497,102,151043,1,0,1:2:0:0:
204,81,151134,2,0,L|200:135,1,50,2|0,1:2|1:2,1:2:0:0:
351,175,151317,1,0,1:2:0:0:
502,189,151409,1,0,1:2:0:0:
351,175,151500,1,0,1:2:0:0:
502,189,151592,1,0,1:2:0:0:
351,175,151683,1,0,1:2:0:0:
199,172,151775,1,0,1:2:0:0:
46,253,151866,5,14,0:2:0:0:
46,253,151958,2,0,L|122:251,1,69.9999978637696,0|0,0:2|0:2,0:2:0:0:
271,249,152141,1,0,0:2:0:0:
118,183,152232,2,0,L|32:181,1,69.9999978637696,8|0,0:2|0:2,0:2:0:0:
54,132,152415,2,0,L|126:131,1,69.9999978637696,0|0,0:2|0:2,0:2:0:0:
334,128,152598,2,0,L|417:128,1,69.9999978637696,8|0,0:2|0:2,0:2:0:0:
334,128,152781,2,0,L|242:128,1,69.9999978637696,0|0,0:2|0:2,0:2:0:0:
429,109,152964,2,0,L|499:111,3,69.9999978637696,8|0|0|0,0:2|0:2|0:2|0:2,0:2:0:0:
244,214,153330,5,8,0:2:0:0:
244,214,153421,2,0,L|318:216,1,69.9999978637696,0|0,0:2|0:2,0:2:0:0:
492,173,153604,1,0,0:2:0:0:
423,173,153695,1,8,0:2:0:0:
353,173,153786,1,0,0:2:0:0:
174,160,153878,1,0,0:2:0:0:
244,156,153969,1,0,0:2:0:0:
314,153,154060,1,8,0:2:0:0:
121,128,154153,2,0,L|43:131,2,69.9999978637696,0|0|0,0:2|0:2|0:2,0:2:0:0:
320,128,154427,2,0,L|401:130,3,69.9999978637696,8|0|0|0,0:2|0:2|0:2|0:2,0:2:0:0:
156,128,154793,6,0,L|151:207,1,69.9999978637696,8|0,0:2|0:2,0:2:0:0:
368,220,154976,2,0,L|370:299,1,69.9999978637696,0|0,0:2|0:2,0:2:0:0:
153,271,155159,2,0,L|402:271,1,250,8|0,0:2|0:2,0:2:0:0:
252,329,155433,1,0,0:2:0:0:
97,328,155525,2,0,L|97:244,1,69.9999978637696,8|0,0:2|0:2,0:2:0:0:
154,259,155708,2,0,L|238:256,1,69.9999978637696,0|0,0:2|0:2,0:2:0:0:
22,239,155891,2,0,L|23:146,1,69.9999978637696,8|0,0:2|0:2,0:2:0:0:
217,176,156074,2,0,L|304:166,1,69.9999978637696,0|0,0:2|0:2,0:2:0:0:
70,182,156256,6,0,L|72:94,1,69.9999978637696,8|0,0:2|0:2,0:2:0:0:
144,111,156439,2,0,L|33:109,1,69.9999978637696,0|0,0:2|0:2,0:2:0:0:
289,264,156622,2,0,L|286:189,1,69.9999978637696,8|0,0:2|0:2,0:2:0:0:
216,194,156805,2,0,L|296:194,1,69.9999978637696,0|0,0:2|0:2,0:2:0:0:
111,81,156988,2,0,L|193:81,1,69.9999978637696,8|0,0:2|0:2,0:2:0:0:
253,81,157171,2,0,L|337:81,1,69.9999978637696,0|0,0:2|0:2,0:2:0:0:
109,132,157354,2,0,P|70:192|115:234,1,139.999995727539,8|0,0:2|0:2,0:2:0:0:
182,238,157628,1,0,0:2:0:0:
418,234,157720,6,0,L|416:147,1,69.9999978637696,8|0,0:2|0:2,0:2:0:0:
206,169,157903,2,0,L|127:171,1,69.9999978637696,0|0,0:2|0:2,0:2:0:0:
365,103,158086,1,8,0:2:0:0:
212,106,158177,1,0,0:2:0:0:
57,108,158269,1,0,0:2:0:0:
212,106,158360,1,0,0:2:0:0:
365,103,158452,2,0,L|366:190,1,69.9999978637696,8|0,0:2|0:2,0:2:0:0:
297,202,158634,2,0,L|206:205,1,69.9999978637696,0|0,0:2|0:2,0:2:0:0:
414,259,158817,2,0,L|492:259,1,69.9999978637696,8|0,0:2|0:2,0:2:0:0:
482,196,159000,2,0,L|409:197,1,69.9999978637696,0|0,0:2|0:2,0:2:0:0:
165,166,159183,6,0,L|239:164,1,69.9999978637696,8|0,0:2|0:2,0:2:0:0:
301,165,159366,2,0,L|296:263,1,69.9999978637696,0|0,0:2|0:2,0:2:0:0:
114,300,159549,2,0,B|389:299,1,250,8|0,0:2|0:2,0:2:0:0:
364,299,159824,1,0,0:2:0:0:
108,185,159915,2,0,L|214:183,1,69.9999978637696,8|0,0:2|0:2,0:2:0:0:
249,184,160098,1,0,0:2:0:0:
178,183,160189,1,0,0:2:0:0:
108,185,160281,2,0,L|105:276,1,69.9999978637696,8|0,0:2|0:2,0:2:0:0:
174,297,160464,2,0,L|264:300,1,69.9999978637696,0|0,0:2|0:2,0:2:0:0:
88,326,160647,5,8,0:2:0:0:
242,346,160738,1,0,0:2:0:0:
397,341,160830,1,0,0:2:0:0:
242,346,160921,1,0,0:2:0:0:
88,326,161013,2,0,P|53:263|102:217,1,139.999995727539,8|0,0:2|0:2,0:2:0:0:
167,216,161287,1,0,0:2:0:0:
339,217,161378,2,0,L|417:218,1,69.9999978637696,8|0,0:2|0:2,0:2:0:0:
339,217,161561,2,0,L|255:216,1,69.9999978637696,0|0,0:2|0:2,0:2:0:0:
476,221,161744,2,0,L|476:135,1,69.9999978637696,8|0,0:2|0:2,0:2:0:0:
206,239,161927,2,0,L|202:152,1,69.9999978637696,0|0,0:2|0:2,0:2:0:0:
411,107,162110,5,8,0:2:0:0:
342,106,162201,1,0,0:2:0:0:
272,105,162292,1,0,0:2:0:0:
202,104,162384,1,0,0:2:0:0:
356,201,162476,1,8,0:2:0:0:
508,228,162567,1,0,0:2:0:0:
356,201,162659,1,0,0:2:0:0:
202,104,162750,1,0,0:2:0:0:
356,201,162842,2,0,L|438:201,1,69.9999978637696,8|0,0:2|0:2,0:2:0:0:
271,293,163025,2,0,L|353:293,1,69.9999978637696,8|0,0:2|0:2,0:2:0:0:
185,226,163208,2,0,L|261:226,1,69.9999978637696,8|0,0:2|0:2,0:2:0:0:
475,164,163391,2,0,L|386:162,1,69.9999978637696,8|0,0:2|0:2,0:2:0:0:
138,183,163574,6,0,L|41:183,2,69.9999978637696,12|0|0,0:2|0:2|0:2,0:2:0:0:
293,184,163848,1,0,0:2:0:0:
138,183,163939,2,0,L|139:98,1,69.9999978637696,8|0,0:2|0:2,0:2:0:0:
209,110,164122,2,0,L|309:111,1,69.9999978637696,0|0,0:2|0:2,0:2:0:0:
20,213,164305,2,0,L|21:113,1,69.9999978637696,8|0,0:2|0:2,0:2:0:0:
89,301,164488,2,0,L|182:301,1,69.9999978637696,0|0,0:2|0:2,0:2:0:0:
362,338,164671,2,0,L|438:339,1,69.9999978637696,8|0,0:2|0:2,0:2:0:0:
236,343,164854,2,0,L|166:343,1,69.9999978637696,0|0,0:2|0:2,0:2:0:0:
419,267,165037,6,0,L|500:266,2,69.9999978637696,8|0|0,0:2|0:2|0:2,0:2:0:0:
207,266,165311,1,0,0:2:0:0:
207,266,165403,2,0,L|321:267,1,69.9999978637696,8|0,0:2|0:2,0:2:0:0:
85,184,165586,1,0,0:2:0:0:
155,180,165677,1,0,0:2:0:0:
225,177,165768,1,8,0:2:0:0:
380,175,165860,1,0,0:2:0:0:
225,48,165952,1,0,0:2:0:0:
71,59,166043,1,0,0:2:0:0:
225,48,166134,2,0,L|305:52,1,69.9999978637696,8|0,0:2|0:2,0:2:0:0:
225,48,166317,2,0,L|153:45,1,69.9999978637696,0|0,0:2|0:2,0:2:0:0:
356,128,166501,6,0,L|436:126,1,69.9999978637696,8|0,0:2|0:2,0:2:0:0:
213,220,166684,2,0,L|211:299,1,69.9999978637696,0|0,0:2|0:2,0:2:0:0:
406,332,166867,2,0,L|108:330,1,250,8|0,0:2|0:2,0:2:0:0:
94,330,167141,1,0,0:2:0:0:
252,184,167233,2,0,L|336:185,1,69.9999978637696,8|0,0:2|0:2,0:2:0:0:
391,187,167416,2,0,L|386:76,1,69.9999978637696,0|0,0:2|0:2,0:2:0:0:
176,117,167598,2,0,L|99:119,1,69.9999978637696,8|0,0:2|0:2,0:2:0:0:
352,361,167782,2,0,L|424:273,1,69.9999978637696,0|0,0:2|0:2,0:2:0:0:
195,195,167964,6,0,L|192:104,1,69.9999978637696,8|0,0:2|0:2,0:2:0:0:
262,124,168147,2,0,L|183:125,1,69.9999978637696,0|0,0:2|0:2,0:2:0:0:
418,186,168330,2,0,L|415:108,1,69.9999978637696,8|0,0:2|0:2,0:2:0:0:
345,118,168513,2,0,L|416:116,1,69.9999978637696,0|0,0:2|0:2,0:2:0:0:
257,114,168696,2,0,L|187:114,2,69.9999978637696,8|0|0,0:2|0:2|0:2,0:2:0:0:
414,116,168970,1,0,0:2:0:0:
257,114,169062,2,0,L|114:112,1,139.999995727539,8|0,0:2|0:2,0:2:0:0:
117,112,169336,1,0,0:2:0:0:
381,288,169428,6,0,L|480:285,1,69.9999978637696,8|0,0:2|0:2,0:2:0:0:
267,289,169611,2,0,L|188:291,1,69.9999978637696,0|0,0:2|0:2,0:2:0:0:
453,103,169794,1,8,0:2:0:0:
300,106,169885,1,0,0:2:0:0:
145,108,169977,1,0,0:2:0:0:
300,106,170068,1,0,0:2:0:0:
453,103,170160,2,0,L|454:190,1,69.9999978637696,8|0,0:2|0:2,0:2:0:0:
234,264,170342,2,0,L|143:267,1,69.9999978637696,0|0,0:2|0:2,0:2:0:0:
414,259,170525,2,0,L|492:259,1,69.9999978637696,8|0,0:2|0:2,0:2:0:0:
482,196,170708,2,0,L|409:197,1,69.9999978637696,0|0,0:2|0:2,0:2:0:0:
165,166,170891,6,0,L|239:164,1,69.9999978637696,8|0,0:2|0:2,0:2:0:0:
301,165,171074,2,0,L|296:263,1,69.9999978637696,0|0,0:2|0:2,0:2:0:0:
114,300,171257,2,0,L|397:296,1,250,8|0,0:2|0:2,0:2:0:0:
364,296,171531,1,0,0:2:0:0:
108,185,171623,2,0,L|214:183,1,69.9999978637696,8|0,0:2|0:2,0:2:0:0:
360,183,171806,1,0,0:2:0:0:
178,183,171897,1,0,0:2:0:0:
108,185,171989,2,0,L|105:276,1,69.9999978637696,8|0,0:2|0:2,0:2:0:0:
174,297,172172,2,0,L|264:300,1,69.9999978637696,0|0,0:2|0:2,0:2:0:0:
88,326,172355,5,8,0:2:0:0:
242,346,172446,1,0,0:2:0:0:
397,341,172538,1,0,0:2:0:0:
242,346,172629,1,0,0:2:0:0:
88,326,172721,2,0,P|53:263|102:217,1,139.999995727539,8|0,0:2|0:2,0:2:0:0:
167,216,172995,1,0,0:2:0:0:
339,217,173086,2,0,L|417:218,1,69.9999978637696,8|0,0:2|0:2,0:2:0:0:
339,217,173269,2,0,L|255:216,1,69.9999978637696,0|0,0:2|0:2,0:2:0:0:
476,221,173452,2,0,L|476:135,1,69.9999978637696,8|0,0:2|0:2,0:2:0:0:
206,239,173634,2,0,L|202:152,1,69.9999978637696,8|0,0:2|0:2,0:2:0:0:
411,107,173818,5,0,0:2:0:0:
342,106,173909,1,0,0:2:0:0:
272,105,174000,1,0,0:2:0:0:
202,104,174092,1,0,0:2:0:0:
356,201,174184,1,0,0:2:0:0:
508,228,174275,1,0,0:2:0:0:
356,201,174367,1,0,0:2:0:0:
202,104,174458,1,0,0:2:0:0:
356,201,174550,2,0,L|438:201,1,69.9999978637696,8|0,0:2|0:2,0:2:0:0:
271,293,174733,2,0,L|353:293,1,69.9999978637696,8|0,0:2|0:2,0:2:0:0:
185,226,174916,2,0,L|261:226,1,69.9999978637696,8|0,0:2|0:2,0:2:0:0:
469,138,175099,2,0,L|380:136,1,69.9999978637696,8|0,0:2|0:2,0:2:0:0:
194,102,175281,5,12,0:2:0:0:
124,100,175372,2,0,L|33:98,1,69.9999978637696,0|0,0:2|0:2,0:2:0:0:
277,170,175555,1,0,0:2:0:0:
121,173,175647,2,0,L|41:174,1,69.9999978637696,8|0,1:2|0:2,0:2:0:0:
52,173,175830,1,0,0:2:0:0:
212,116,175921,1,0,0:2:0:0:
9,54,176013,2,0,L|10:134,1,69.9999978637696,8|0,0:2|0:2,0:2:0:0:
79,132,176195,2,0,L|155:131,1,69.9999978637696,0|0,0:2|0:2,0:2:0:0:
331,132,176378,2,0,L|331:208,1,69.9999978637696,8|0,1:2|0:2,0:2:0:0:
263,225,176561,2,0,L|184:224,1,69.9999978637696,0|0,0:2|0:2,0:2:0:0:
407,228,176744,6,0,L|493:227,2,69.9999978637696,8|0|0,0:2|0:2|0:2,0:2:0:0:
226,284,177019,1,0,0:2:0:0:
296,283,177110,1,8,1:2:0:0:
366,283,177201,1,0,0:2:0:0:
164,257,177293,2,0,L|78:256,2,69.9999978637696,0|0|8,0:2|0:2|0:2,0:2:0:0:
362,186,177567,1,0,0:2:0:0:
206,183,177659,1,0,0:2:0:0:
52,180,177750,1,0,0:2:0:0:
206,183,177842,2,0,L|209:109,1,69.9999978637696,8|0,1:2|0:2,0:2:0:0:
134,118,178025,2,0,L|131:37,1,69.9999978637696,0|0,0:2|0:2,0:2:0:0:
361,198,178208,6,0,L|447:205,1,69.9999978637696,8|0,0:2|0:2,0:2:0:0:
442,131,178391,2,0,L|338:137,1,69.9999978637696,0|0,0:2|0:2,0:2:0:0:
146,304,178574,2,0,L|406:302,1,250,8|0,1:2|0:2,0:2:0:0:
333,302,178848,1,0,0:2:0:0:
71,327,178939,1,8,0:2:0:0:
20,283,179030,1,0,0:2:0:0:
23,216,179121,1,0,0:2:0:0:
79,178,179213,1,0,0:2:0:0:
258,190,179305,2,0,L|331:138,1,69.9999978637696,8|0,1:2|0:2,0:2:0:0:
258,190,179488,2,0,L|189:239,1,69.9999978637696,0|0,0:2|0:2,0:2:0:0:
402,253,179671,6,0,L|402:329,1,69.9999978637696,8|0,0:2|0:2,0:2:0:0:
331,344,179854,2,0,L|238:342,1,69.9999978637696,0|0,0:2|0:2,0:2:0:0:
436,322,180037,2,0,L|507:319,1,69.9999978637696,8|0,1:2|0:2,0:2:0:0:
251,301,180220,2,0,L|181:301,1,69.9999978637696,0|0,0:2|0:2,0:2:0:0:
112,308,180403,2,0,L|111:224,1,69.9999978637696,8|0,0:2|0:2,0:2:0:0:
295,234,180586,2,0,L|386:234,1,69.9999978637696,0|0,0:2|0:2,0:2:0:0:
157,211,180769,2,0,L|74:214,2,69.9999978637696,8|0|0,1:2|0:2|0:2,0:2:0:0:
334,195,181043,1,0,0:2:0:0:
167,156,181134,6,0,L|163:241,1,69.9999978637696,8|0,0:2|0:2,0:2:0:0:
225,265,181317,2,0,L|294:269,1,69.9999978637696,0|0,0:2|0:2,0:2:0:0:
134,347,181500,1,8,1:2:0:0:
289,358,181592,1,0,0:2:0:0:
442,357,181683,1,0,0:2:0:0:
289,358,181775,1,0,0:2:0:0:
134,347,181866,2,0,L|130:266,1,69.9999978637696,8|0,0:2|0:2,0:2:0:0:
216,282,182049,2,0,L|222:201,1,69.9999978637696,0|0,0:2|0:2,0:2:0:0:
27,215,182232,2,0,L|31:134,1,69.9999978637696,8|0,1:2|0:2,0:2:0:0:
103,134,182415,2,0,L|192:133,1,69.9999978637696,0|0,0:2|0:2,0:2:0:0:
417,129,182598,6,0,L|487:129,1,69.9999978637696,8|0,0:2|0:2,0:2:0:0:
417,129,182781,2,0,L|347:129,1,69.9999978637696,0|0,0:2|0:2,0:2:0:0:
189,154,182964,2,0,L|189:232,1,69.9999978637696,8|0,1:2|0:2,0:2:0:0:
261,275,183147,2,0,L|351:275,1,69.9999978637696,0|0,0:2|0:2,0:2:0:0:
146,330,183330,2,0,L|62:329,1,69.9999978637696,8|0,0:2|0:2,0:2:0:0:
146,330,183513,2,0,L|261:330,1,69.9999978637696,0|0,0:2|0:2,0:2:0:0:
42,299,183695,2,0,L|44:207,1,69.9999978637696,8|0,1:2|0:2,0:2:0:0:
113,221,183878,2,0,L|186:220,1,69.9999978637696,0|0,0:2|0:2,0:2:0:0:
383,188,184061,5,8,0:2:0:0:
228,181,184153,1,0,0:2:0:0:
75,173,184244,1,0,0:2:0:0:
228,181,184336,1,0,0:2:0:0:
383,188,184427,2,0,L|381:113,1,69.9999978637696,8|0,1:2|0:2,0:2:0:0:
311,118,184610,2,0,L|381:118,1,69.9999978637696,0|0,0:2|0:2,0:2:0:0:
162,231,184793,2,0,L|88:230,1,69.9999978637696,8|0,0:2|0:2,0:2:0:0:
89,299,184976,2,0,L|186:299,1,69.9999978637696,0|0,0:2|0:2,0:2:0:0:
337,303,185159,2,0,L|412:304,1,69.9999978637696,8|0,1:2|0:2,0:2:0:0:
477,304,185342,2,0,L|475:217,1,69.9999978637696,0|0,0:2|0:2,0:2:0:0:
240,135,185525,5,8,0:2:0:0:
310,133,185616,1,0,0:2:0:0:
380,132,185707,1,0,0:2:0:0:
310,133,185799,1,0,0:2:0:0:
154,201,185891,1,8,1:2:0:0:
315,201,185982,1,0,0:2:0:0:
478,198,186074,1,0,0:2:0:0:
315,201,186165,1,0,0:2:0:0:
154,201,186256,2,0,L|73:201,1,69.9999978637696,8|0,0:2|0:2,0:2:0:0:
239,323,186439,2,0,L|151:323,1,69.9999978637696,8|0,0:2|0:2,0:2:0:0:
324,261,186622,2,0,L|246:260,1,69.9999978637696,8|0,1:2|0:2,0:2:0:0:
98,210,186805,2,0,L|187:207,1,69.9999978637696,8|0,0:2|0:2,0:2:0:0:
394,115,186988,5,12,0:2:0:0:
394,115,187079,2,0,L|303:113,1,69.9999978637696,0|0,0:2|0:2,0:2:0:0:
133,182,187262,1,0,0:2:0:0:
289,185,187354,2,0,L|369:186,1,69.9999978637696,8|0,1:2|0:2,0:2:0:0:
358,185,187537,1,0,0:2:0:0:
203,116,187628,1,0,0:2:0:0:
358,185,187720,2,0,L|359:265,1,69.9999978637696,8|0,0:2|0:2,0:2:0:0:
287,265,187902,2,0,L|363:264,1,69.9999978637696,0|0,0:2|0:2,0:2:0:0:
106,254,188085,2,0,L|184:256,1,69.9999978637696,8|0,1:2|0:2,0:2:0:0:
246,257,188268,2,0,L|246:174,1,69.9999978637696,0|0,0:2|0:2,0:2:0:0:
427,222,188451,6,0,L|513:221,2,69.9999978637696,8|0|0,0:2|0:2|0:2,0:2:0:0:
226,284,188726,1,0,0:2:0:0:
296,283,188817,1,8,1:2:0:0:
366,283,188908,1,0,0:2:0:0:
164,257,189000,2,0,L|78:256,2,69.9999978637696,0|0|8,0:2|0:2|0:2,0:2:0:0:
362,186,189274,1,0,0:2:0:0:
206,183,189366,1,0,0:2:0:0:
52,180,189457,1,0,0:2:0:0:
206,183,189549,2,0,L|209:109,1,69.9999978637696,8|0,1:2|0:2,0:2:0:0:
134,118,189732,2,0,L|131:37,1,69.9999978637696,0|0,0:2|0:2,0:2:0:0:
361,198,189915,6,0,L|447:205,1,69.9999978637696,8|0,0:2|0:2,0:2:0:0:
442,131,190098,2,0,L|338:137,1,69.9999978637696,0|0,0:2|0:2,0:2:0:0:
146,304,190281,2,0,L|413:304,1,250,8|0,1:2|0:2,0:2:0:0:
332,302,190555,1,0,0:2:0:0:
141,348,190646,1,8,0:2:0:0:
90,304,190737,1,0,0:2:0:0:
93,237,190830,1,0,0:2:0:0:
149,199,190920,1,0,0:2:0:0:
316,192,191012,2,0,L|332:109,1,69.9999978637696,8|0,1:2|0:2,0:2:0:0:
252,121,191195,2,0,L|236:205,1,69.9999978637696,0|0,0:2|0:2,0:2:0:0:
402,253,191378,6,0,L|402:329,1,69.9999978637696,8|0,0:2|0:2,0:2:0:0:
331,344,191561,2,0,L|238:342,1,69.9999978637696,0|0,0:2|0:2,0:2:0:0:
436,322,191744,2,0,L|507:319,1,69.9999978637696,8|0,1:2|0:2,0:2:0:0:
497,273,191927,2,0,L|427:273,1,69.9999978637696,0|0,0:2|0:2,0:2:0:0:
228,285,192110,2,0,L|227:201,1,69.9999978637696,8|0,0:2|0:2,0:2:0:0:
298,216,192293,2,0,L|389:216,1,69.9999978637696,0|0,0:2|0:2,0:2:0:0:
157,211,192476,2,0,L|74:214,2,69.9999978637696,8|0|8,1:2|0:2|0:2,0:2:0:0:
334,195,192750,1,0,0:2:0:0:
167,156,192841,6,0,L|163:241,1,69.9999978637696,12|0,0:2|0:2,0:2:0:0:
225,265,193024,2,0,L|294:269,1,69.9999978637696,0|0,0:2|0:2,0:2:0:0:
134,347,193207,1,0,0:2:0:0:
289,358,193299,1,0,0:2:0:0:
442,357,193390,1,0,0:2:0:0:
289,358,193482,1,0,0:2:0:0:
134,347,193573,2,0,L|130:266,1,69.9999978637696,0|0,0:2|0:2,0:2:0:0:
216,282,193756,2,0,L|222:201,1,69.9999978637696,0|0,0:2|0:2,0:2:0:0:
27,213,193939,2,0,L|31:132,1,69.9999978637696,0|0,0:2|0:2,0:2:0:0:
234,216,194122,2,0,L|323:215,1,69.9999978637696,8|0,0:2|0:2,0:2:0:0:
125,199,194305,6,0,L|55:199,3,69.9999978637696,12|0|0|0,0:2|0:2|0:2|0:2,0:2:0:0:
323,154,194671,2,0,P|360:203|316:265,1,139.999995727539,0|0,0:2|0:2,0:2:0:0:
251,266,194945,1,0,0:2:0:0:
180,267,195037,2,0,L|184:340,1,69.9999978637696,0|0,0:2|0:2,0:2:0:0:
345,335,195220,2,0,L|346:258,1,69.9999978637696,8|0,0:2|0:2,0:2:0:0:
141,268,195402,2,0,L|58:270,1,69.9999978637696,8|0,0:2|0:2,0:2:0:0:
399,221,195585,2,0,L|326:220,1,69.9999978637696,8|0,0:2|0:2,0:2:0:0:
129,188,195769,5,12,0:2:0:0:
199,187,195860,1,0,0:2:0:0:
269,187,195951,1,0,0:2:0:0:
199,187,196043,1,0,0:2:0:0:
129,188,196134,2,0,L|131:113,1,69.9999978637696,0|0,0:2|0:2,0:2:0:0:
340,112,196317,2,0,L|415:109,1,69.9999978637696,8|0,0:2|0:2,0:2:0:0:
220,83,196500,2,0,L|139:79,1,69.9999978637696,12|0,0:2|0:2,0:2:0:0:
154,27,196683,2,0,L|241:23,1,69.9999978637696,0|0,0:2|0:2,0:2:0:0:
154,27,196866,2,0,L|152:102,1,69.9999978637696,0|0,0:2|0:2,0:2:0:0:
415,279,197049,2,0,L|417:192,1,69.9999978637696,8|0,0:2|0:2,0:2:0:0:
192,137,197232,5,12,0:2:0:0:
262,135,197323,1,0,0:2:0:0:
332,134,197414,1,0,0:2:0:0:
262,135,197506,1,0,0:2:0:0:
106,203,197598,1,12,0:2:0:0:
269,202,197689,1,0,0:2:0:0:
433,203,197781,1,0,0:2:0:0:
269,202,197872,1,0,0:2:0:0:
106,203,197964,2,0,L|178:208,1,69.9999978637696,12|0,0:2|0:2,0:2:0:0:
26,268,198146,2,0,L|121:271,1,69.9999978637696,8|0,0:2|0:2,0:2:0:0:
359,278,198330,1,12,0:2:0:0:
206,277,198421,1,8,0:2:0:0:
53,278,198513,1,8,0:2:0:0:
206,277,198604,1,8,0:2:0:0:
53,278,198695,5,12,0:2:0:0:
183,260,198878,2,0,L|186:180,1,69.9999978637696,0|0,0:2|0:2,0:2:0:0:
116,192,199061,2,0,L|41:195,1,69.9999978637696,8|0,0:2|0:2,0:2:0:0:
46,137,199244,2,0,L|129:133,1,69.9999978637696,0|0,0:2|0:2,0:2:0:0:
314,137,199427,2,0,L|317:215,1,69.9999978637696,8|0,0:2|0:2,0:2:0:0:
246,221,199610,2,0,L|174:222,1,69.9999978637696,0|0,0:2|0:2,0:2:0:0:
106,218,199793,2,0,L|101:132,1,69.9999978637696,8|0,0:2|0:2,0:2:0:0:
172,150,199976,2,0,L|255:149,1,69.9999978637696,0|0,0:2|0:2,0:2:0:0:
44,188,200159,6,0,L|44:276,1,69.9999978637696,8|0,0:2|0:2,0:2:0:0:
113,293,200342,2,0,L|198:290,1,69.9999978637696,0|0,0:2|0:2,0:2:0:0:
369,296,200525,2,0,L|290:296,1,69.9999978637696,8|0,0:2|0:2,0:2:0:0:
119,241,200708,2,0,L|197:242,1,69.9999978637696,0|0,0:2|0:2,0:2:0:0:
260,240,200891,2,0,L|259:159,1,69.9999978637696,8|0,0:2|0:2,0:2:0:0:
93,192,201074,2,0,L|16:191,1,69.9999978637696,0|0,0:2|0:2,0:2:0:0:
22,135,201256,2,0,L|95:134,1,69.9999978637696,8|0,0:2|0:2,0:2:0:0:
267,137,201439,2,0,L|349:139,1,69.9999978637696,0|0,0:2|0:2,0:2:0:0:
154,192,201622,6,0,L|153:266,1,69.9999978637696,8|0,0:2|0:2,0:2:0:0:
218,245,201805,2,0,L|225:316,1,69.9999978637696,0|0,0:2|0:2,0:2:0:0:
148,318,201988,2,0,L|71:318,1,69.9999978637696,8|0,0:2|0:2,0:2:0:0:
79,252,202171,2,0,L|152:252,1,69.9999978637696,0|0,0:2|0:2,0:2:0:0:
79,252,202354,2,0,L|0:252,1,69.9999978637696,8|0,0:2|0:2,0:2:0:0:
277,231,202537,2,0,L|282:143,1,69.9999978637696,0|0,0:2|0:2,0:2:0:0:
99,196,202720,2,0,L|25:193,1,69.9999978637696,8|0,0:2|0:2,0:2:0:0:
281,161,202903,2,0,L|285:84,1,69.9999978637696,0|0,0:2|0:2,0:2:0:0:
111,94,203086,6,0,L|21:91,1,69.9999978637696,8|0,0:2|0:2,0:2:0:0:
111,94,203269,2,0,L|210:94,1,69.9999978637696,0|0,0:2|0:2,0:2:0:0:
111,94,203452,2,0,L|111:171,1,69.9999978637696,8|0,0:2|0:2,0:2:0:0:
180,97,203634,2,0,L|251:98,1,69.9999978637696,0|0,0:2|0:2,0:2:0:0:
406,275,203817,2,0,L|324:277,1,69.9999978637696,8|0,0:2|0:2,0:2:0:0:
267,279,204000,2,0,L|269:204,1,69.9999978637696,0|0,0:2|0:2,0:2:0:0:
424,193,204183,1,8,0:2:0:0:
419,124,204274,1,0,0:2:0:0:
376,70,204365,1,0,0:2:0:0:
310,49,204457,1,0,0:2:0:0:
153,170,204549,6,0,L|240:170,1,69.9999978637696,8|0,0:2|0:2,0:2:0:0:
293,173,204732,2,0,L|295:255,1,69.9999978637696,0|0,0:2|0:2,0:2:0:0:
224,289,204915,2,0,L|147:290,1,69.9999978637696,8|0,0:2|0:2,0:2:0:0:
224,289,205098,2,0,L|301:289,1,69.9999978637696,0|0,0:2|0:2,0:2:0:0:
365,288,205281,2,0,L|275:288,1,69.9999978637696,8|0,0:2|0:2,0:2:0:0:
460,250,205464,2,0,L|464:164,1,69.9999978637696,0|0,0:2|0:2,0:2:0:0:
260,179,205647,2,0,L|182:175,1,69.9999978637696,8|0,0:2|0:2,0:2:0:0:
415,157,205830,2,0,L|397:83,1,69.9999978637696,0|0,0:2|0:2,0:2:0:0:
200,96,206013,6,0,L|113:92,1,69.9999978637696,8|0,0:2|0:2,0:2:0:0:
200,96,206195,2,0,L|306:102,1,69.9999978637696,0|0,0:2|0:2,0:2:0:0:
60,196,206378,2,0,L|56:300,1,69.9999978637696,8|0,0:2|0:2,0:2:0:0:
132,312,206561,2,0,L|224:312,1,69.9999978637696,0|0,0:2|0:2,0:2:0:0:
361,265,206744,2,0,L|253:265,1,69.9999978637696,8|0,0:2|0:2,0:2:0:0:
289,209,206927,2,0,L|361:209,1,69.9999978637696,0|0,0:2|0:2,0:2:0:0:
197,147,207110,2,0,L|103:149,1,69.9999978637696,8|0,0:2|0:2,0:2:0:0:
197,147,207293,2,0,L|283:144,1,69.9999978637696,0|0,0:2|0:2,0:2:0:0:
93,156,207476,6,0,L|88:247,1,69.9999978637696,8|0,0:2|0:2,0:2:0:0:
159,268,207659,2,0,L|255:270,1,69.9999978637696,0|0,0:2|0:2,0:2:0:0:
159,268,207842,2,0,L|75:267,1,69.9999978637696,8|0,0:2|0:2,0:2:0:0:
264,270,208025,2,0,L|180:269,1,69.9999978637696,0|0,0:2|0:2,0:2:0:0:
124,268,208208,2,0,L|128:170,1,69.9999978637696,8|0,0:2|0:2,0:2:0:0:
198,202,208391,2,0,L|99:198,1,69.9999978637696,0|0,0:2|0:2,0:2:0:0:
320,207,208574,2,0,L|398:206,1,69.9999978637696,8|0,0:2|0:2,0:2:0:0:
162,106,208756,2,0,L|157:181,1,69.9999978637696,0|0,0:2|0:2,0:2:0:0:
227,206,208939,6,0,L|299:206,1,69.9999978637696,8|0,0:2|0:2,0:2:0:0:
301,280,209122,2,0,L|226:274,1,69.9999978637696,0|0,0:2|0:2,0:2:0:0:
35,345,209305,2,0,L|131:344,1,69.9999978637696,8|0,0:2|0:2,0:2:0:0:
175,346,209488,2,0,L|176:258,1,69.9999978637696,0|0,0:2|0:2,0:2:0:0:
23,258,209671,2,0,L|104:257,1,69.9999978637696,8|0,0:2|0:2,0:2:0:0:
286,283,209854,2,0,L|371:283,1,69.9999978637696,8|0,0:2|0:2,0:2:0:0:
204,204,210037,2,0,L|305:206,1,69.9999978637696,8|0,0:2|0:2,0:2:0:0:
122,129,210220,2,0,L|195:123,1,69.9999978637696,8|0,0:2|0:2,0:2:0:0:
412,140,210403,6,0,L|410:224,1,69.9999978637696,12|0,0:2|0:2,0:2:0:0:
224,308,210586,2,0,L|147:306,1,69.9999978637696,0|0,0:2|0:2,0:2:0:0:
409,302,210769,2,0,L|496:306,1,69.9999978637696,8|0,0:2|0:2,0:2:0:0:
244,289,210952,2,0,L|328:290,1,69.9999978637696,0|0,0:2|0:2,0:2:0:0:
384,286,211134,2,0,L|384:198,1,69.9999978637696,8|0,0:2|0:2,0:2:0:0:
131,191,211317,2,0,L|62:193,1,69.9999978637696,0|0,0:2|0:2,0:2:0:0:
287,169,211500,2,0,L|288:274,1,69.9999978637696,8|0,0:2|0:2,0:2:0:0:
120,161,211683,2,0,L|38:159,1,69.9999978637696,0|0,0:2|0:2,0:2:0:0:
292,124,211866,6,0,L|362:123,1,69.9999978637696,8|0,0:2|0:2,0:2:0:0:
431,130,212049,2,0,L|433:223,1,69.9999978637696,0|0,0:2|0:2,0:2:0:0:
361,233,212232,2,0,L|272:234,1,69.9999978637696,8|0,0:2|0:2,0:2:0:0:
290,306,212415,2,0,L|363:304,1,69.9999978637696,0|0,0:2|0:2,0:2:0:0:
146,308,212598,2,0,L|146:233,1,69.9999978637696,8|0,0:2|0:2,0:2:0:0:
218,236,212781,2,0,L|297:236,1,69.9999978637696,0|0,0:2|0:2,0:2:0:0:
292,161,212964,2,0,L|206:161,1,69.9999978637696,8|0,0:2|0:2,0:2:0:0:
150,162,213147,2,0,L|151:83,1,69.9999978637696,0|0,0:2|0:2,0:2:0:0:
313,90,213330,6,0,L|434:91,1,69.9999978637696,8|0,0:2|0:2,0:2:0:0:
207,268,213513,2,0,L|114:267,1,69.9999978637696,0|0,0:2|0:2,0:2:0:0:
351,334,213695,2,0,L|443:332,1,69.9999978637696,8|0,0:2|0:2,0:2:0:0:
249,247,213878,2,0,L|156:248,1,69.9999978637696,0|0,0:2|0:2,0:2:0:0:
249,247,214061,2,0,L|339:248,1,69.9999978637696,8|0,0:2|0:2,0:2:0:0:
145,138,214244,2,0,L|271:142,1,69.9999978637696,0|0,0:2|0:2,0:2:0:0:
291,144,214427,2,0,L|291:219,1,69.9999978637696,8|0,0:2|0:2,0:2:0:0:
66,306,214610,2,0,L|70:213,1,69.9999978637696,0|0,0:2|0:2,0:2:0:0:
143,239,214793,6,0,L|221:238,1,69.9999978637696,8|0,0:2|0:2,0:2:0:0:
216,164,214976,2,0,L|139:163,1,69.9999978637696,0|0,0:2|0:2,0:2:0:0:
346,156,215159,2,0,L|345:235,1,69.9999978637696,8|0,0:2|0:2,0:2:0:0:
275,253,215342,2,0,L|359:255,1,69.9999978637696,0|0,0:2|0:2,0:2:0:0:
151,329,215525,2,0,L|155:237,1,69.9999978637696,8|0,0:2|0:2,0:2:0:0:
226,258,215708,2,0,L|318:255,1,69.9999978637696,0|0,0:2|0:2,0:2:0:0:
87,193,215891,2,0,L|9:192,1,69.9999978637696,8|0,0:2|0:2,0:2:0:0:
16,121,216074,2,0,L|116:121,1,69.9999978637696,0|0,0:2|0:2,0:2:0:0:
293,129,216256,6,0,L|295:207,1,69.9999978637696,8|0,0:2|0:2,0:2:0:0:
96,269,216439,2,0,L|16:271,1,69.9999978637696,0|0,0:2|0:2,0:2:0:0:
268,316,216622,2,0,L|358:312,1,69.9999978637696,8|0,0:2|0:2,0:2:0:0:
151,229,216805,2,0,L|247:230,1,69.9999978637696,0|0,0:2|0:2,0:2:0:0:
291,229,216988,2,0,L|291:150,1,69.9999978637696,8|0,0:2|0:2,0:2:0:0:
66,163,217171,2,0,L|166:165,1,69.9999978637696,0|0,0:2|0:2,0:2:0:0:
336,171,217354,2,0,L|424:167,1,69.9999978637696,8|0,0:2|0:2,0:2:0:0:
174,103,217537,2,0,L|177:190,1,69.9999978637696,0|0,0:2|0:2,0:2:0:0:
241,218,217720,6,0,L|311:217,1,69.9999978637696,8|0,0:2|0:2,0:2:0:0:
381,215,217903,2,0,L|295:217,1,69.9999978637696,0|0,0:2|0:2,0:2:0:0:
312,148,218086,2,0,L|387:145,1,69.9999978637696,8|0,0:2|0:2,0:2:0:0:
452,147,218269,2,0,L|462:238,1,69.9999978637696,0|0,0:2|0:2,0:2:0:0:
261,229,218452,2,0,L|261:308,1,69.9999978637696,8|0,0:2|0:2,0:2:0:0:
331,315,218634,2,0,L|410:318,1,69.9999978637696,0|0,0:2|0:2,0:2:0:0:
207,322,218817,2,0,L|122:327,1,69.9999978637696,8|0,0:2|0:2,0:2:0:0:
336,324,219000,2,0,L|419:325,1,69.9999978637696,0|0,0:2|0:2,0:2:0:0:
416,265,219183,6,0,L|334:264,1,69.9999978637696,8|0,0:2|0:2,0:2:0:0:
275,264,219366,2,0,L|276:181,1,69.9999978637696,0|0,0:2|0:2,0:2:0:0:
346,189,219549,2,0,L|264:189,1,69.9999978637696,8|0,0:2|0:2,0:2:0:0:
278,120,219732,2,0,L|364:120,1,69.9999978637696,0|0,0:2|0:2,0:2:0:0:
113,174,219915,2,0,L|21:176,1,69.9999978637696,8|0,0:2|0:2,0:2:0:0:
113,174,220098,2,0,L|204:174,1,69.9999978637696,0|0,0:2|0:2,0:2:0:0:
413,224,220281,2,0,L|408:308,1,69.9999978637696,8|0,0:2|0:2,0:2:0:0:
179,301,220464,2,0,L|84:293,1,69.9999978637696,8|0,0:2|0:2,0:2:0:0:
118,255,220647,1,0,0:2:0:0:
289,274,220830,5,0,0:2:0:0:
291,225,220921,1,0,0:2:0:0:
292,175,221012,1,0,0:2:0:0:
149,169,221195,2,0,L|217:166,1,50,0|0,0:2|0:2,0:2:0:0:
8,289,221378,2,0,L|101:292,1,69.9999978637696,8|0,0:2|0:2,0:2:0:0:
246,291,221561,2,0,L|329:287,1,69.9999978637696,8|0,0:2|0:2,0:2:0:0:
164,220,221744,2,0,L|251:215,1,69.9999978637696,8|0,0:2|0:2,0:2:0:0:
82,140,221927,2,0,L|180:138,1,69.9999978637696,8|0,0:2|0:2,0:2:0:0:
320,270,222110,5,12,0:2:0:0:
179,271,222293,2,0,L|182:191,1,69.9999978637696,0|0,0:2|0:2,0:2:0:0:
252,199,222476,2,0,L|177:202,1,69.9999978637696,8|0,1:2|0:2,0:2:0:0:
113,205,222659,2,0,L|196:201,1,69.9999978637696,0|0,0:2|0:2,0:2:0:0:
341,101,222842,2,0,L|344:179,1,69.9999978637696,8|0,0:2|0:2,0:2:0:0:
273,185,223025,2,0,L|201:186,1,69.9999978637696,0|0,0:2|0:2,0:2:0:0:
133,182,223208,2,0,L|128:96,1,69.9999978637696,8|0,1:2|0:2,0:2:0:0:
199,114,223391,2,0,L|282:113,1,69.9999978637696,0|0,0:2|0:2,0:2:0:0:
45,187,223574,6,0,L|45:275,1,69.9999978637696,8|0,0:2|0:2,0:2:0:0:
114,292,223757,2,0,L|199:289,1,69.9999978637696,0|0,0:2|0:2,0:2:0:0:
370,295,223940,2,0,L|291:295,1,69.9999978637696,8|0,1:2|0:2,0:2:0:0:
120,240,224122,2,0,L|198:241,1,69.9999978637696,0|0,0:2|0:2,0:2:0:0:
261,239,224306,2,0,L|260:158,1,69.9999978637696,8|0,0:2|0:2,0:2:0:0:
94,191,224489,2,0,L|17:190,1,69.9999978637696,0|0,0:2|0:2,0:2:0:0:
23,134,224671,2,0,L|96:133,1,69.9999978637696,8|0,1:2|0:2,0:2:0:0:
268,136,224854,2,0,L|350:138,1,69.9999978637696,0|0,0:2|0:2,0:2:0:0:
155,191,225037,6,0,L|154:265,1,69.9999978637696,8|0,0:2|0:2,0:2:0:0:
219,244,225220,2,0,L|226:315,1,69.9999978637696,0|0,0:2|0:2,0:2:0:0:
149,317,225403,2,0,L|72:317,1,69.9999978637696,8|0,1:2|0:2,0:2:0:0:
80,251,225586,2,0,L|153:251,1,69.9999978637696,0|0,0:2|0:2,0:2:0:0:
221,251,225769,2,0,L|300:251,1,69.9999978637696,8|0,0:2|0:2,0:2:0:0:
117,227,225952,2,0,L|112:139,1,69.9999978637696,0|0,0:2|0:2,0:2:0:0:
322,213,226135,2,0,L|396:210,1,69.9999978637696,8|0,1:2|0:2,0:2:0:0:
174,153,226318,2,0,L|170:76,1,69.9999978637696,0|0,0:2|0:2,0:2:0:0:
402,93,226501,6,0,L|492:90,1,69.9999978637696,8|0,0:2|0:2,0:2:0:0:
402,93,226684,2,0,L|303:93,1,69.9999978637696,0|0,0:2|0:2,0:2:0:0:
402,93,226867,2,0,L|402:170,1,69.9999978637696,8|0,1:2|0:2,0:2:0:0:
333,96,227049,2,0,L|262:97,1,69.9999978637696,0|0,0:2|0:2,0:2:0:0:
107,274,227232,2,0,L|189:276,1,69.9999978637696,8|0,0:2|0:2,0:2:0:0:
246,278,227415,2,0,L|244:203,1,69.9999978637696,0|0,0:2|0:2,0:2:0:0:
89,192,227598,1,8,1:2:0:0:
94,123,227689,1,0,0:2:0:0:
137,69,227780,1,0,0:2:0:0:
203,48,227872,1,0,0:2:0:0:
360,169,227964,6,0,L|273:169,1,69.9999978637696,8|0,0:2|0:2,0:2:0:0:
220,172,228147,2,0,L|218:254,1,69.9999978637696,0|0,0:2|0:2,0:2:0:0:
289,288,228330,2,0,L|366:289,1,69.9999978637696,8|0,1:2|0:2,0:2:0:0:
289,288,228513,2,0,L|212:288,1,69.9999978637696,0|0,0:2|0:2,0:2:0:0:
148,287,228696,2,0,L|238:287,1,69.9999978637696,8|0,0:2|0:2,0:2:0:0:
53,249,228879,2,0,L|49:163,1,69.9999978637696,0|0,0:2|0:2,0:2:0:0:
253,178,229062,2,0,L|331:174,1,69.9999978637696,8|0,1:2|0:2,0:2:0:0:
98,156,229245,2,0,L|116:82,1,69.9999978637696,0|0,0:2|0:2,0:2:0:0:
313,95,229428,6,0,L|400:91,1,69.9999978637696,8|0,0:2|0:2,0:2:0:0:
313,95,229610,2,0,L|207:101,1,69.9999978637696,0|0,0:2|0:2,0:2:0:0:
453,195,229793,2,0,L|457:299,1,69.9999978637696,8|0,1:2|0:2,0:2:0:0:
381,311,229976,2,0,L|289:311,1,69.9999978637696,0|0,0:2|0:2,0:2:0:0:
152,264,230159,2,0,L|260:264,1,69.9999978637696,8|0,0:2|0:2,0:2:0:0:
224,208,230342,2,0,L|152:208,1,69.9999978637696,0|0,0:2|0:2,0:2:0:0:
316,146,230525,2,0,L|410:148,1,69.9999978637696,8|0,1:2|0:2,0:2:0:0:
316,146,230708,2,0,L|230:143,1,69.9999978637696,0|0,0:2|0:2,0:2:0:0:
420,155,230891,6,0,L|425:246,1,69.9999978637696,8|0,0:2|0:2,0:2:0:0:
354,267,231074,2,0,L|258:269,1,69.9999978637696,0|0,0:2|0:2,0:2:0:0:
354,267,231257,2,0,L|438:266,1,69.9999978637696,8|0,1:2|0:2,0:2:0:0:
249,269,231440,2,0,L|333:268,1,69.9999978637696,0|0,0:2|0:2,0:2:0:0:
389,267,231623,2,0,L|385:169,1,69.9999978637696,8|0,0:2|0:2,0:2:0:0:
315,201,231806,2,0,L|414:197,1,69.9999978637696,0|0,0:2|0:2,0:2:0:0:
193,206,231989,2,0,L|115:205,1,69.9999978637696,8|0,1:2|0:2,0:2:0:0:
351,105,232171,2,0,L|356:180,1,69.9999978637696,0|0,0:2|0:2,0:2:0:0:
286,205,232354,6,0,L|214:205,1,69.9999978637696,8|0,0:2|0:2,0:2:0:0:
212,279,232537,2,0,L|287:273,1,69.9999978637696,0|0,0:2|0:2,0:2:0:0:
478,344,232720,2,0,L|478:260,1,69.9999978637696,8|0,1:2|0:2,0:2:0:0:
409,271,232903,2,0,L|330:271,1,69.9999978637696,0|0,0:2|0:2,0:2:0:0:
160,203,233086,2,0,L|72:206,1,69.9999978637696,8|0,0:2|0:2,0:2:0:0:
326,98,233269,2,0,L|411:94,1,69.9999978637696,8|0,0:2|0:2,0:2:0:0:
244,49,233452,2,0,L|320:50,1,69.9999978637696,8|0,1:2|0:2,0:2:0:0:
162,88,233635,2,0,L|242:86,1,69.9999978637696,8|0,0:2|0:2,0:2:0:0:
469,133,233817,6,0,L|467:217,1,69.9999978637696,12|0,0:2|0:2,0:2:0:0:
215,288,234000,2,0,L|138:286,1,69.9999978637696,0|0,0:2|0:2,0:2:0:0:
344,293,234183,2,0,L|431:297,1,69.9999978637696,8|0,1:2|0:2,0:2:0:0:
215,304,234366,2,0,L|146:306,1,69.9999978637696,0|0,0:2|0:2,0:2:0:0:
146,249,234548,2,0,L|244:247,1,69.9999978637696,8|0,0:2|0:2,0:2:0:0:
381,191,234731,2,0,L|450:193,1,69.9999978637696,0|0,0:2|0:2,0:2:0:0:
225,169,234914,2,0,L|224:274,1,69.9999978637696,8|0,1:2|0:2,0:2:0:0:
392,161,235097,2,0,L|474:159,1,69.9999978637696,0|0,0:2|0:2,0:2:0:0:
220,124,235280,6,0,L|150:123,1,69.9999978637696,8|0,0:2|0:2,0:2:0:0:
81,130,235463,2,0,L|79:223,1,69.9999978637696,0|0,0:2|0:2,0:2:0:0:
151,233,235646,2,0,L|240:234,1,69.9999978637696,8|0,1:2|0:2,0:2:0:0:
222,306,235829,2,0,L|149:304,1,69.9999978637696,0|0,0:2|0:2,0:2:0:0:
366,308,236012,2,0,L|366:233,1,69.9999978637696,8|0,0:2|0:2,0:2:0:0:
294,236,236195,2,0,L|215:236,1,69.9999978637696,0|0,0:2|0:2,0:2:0:0:
220,161,236378,2,0,L|306:161,1,69.9999978637696,8|0,1:2|0:2,0:2:0:0:
362,162,236561,2,0,L|361:83,1,69.9999978637696,0|0,0:2|0:2,0:2:0:0:
199,90,236744,6,0,L|78:91,1,69.9999978637696,8|0,0:2|0:2,0:2:0:0:
305,268,236927,2,0,L|398:267,1,69.9999978637696,0|0,0:2|0:2,0:2:0:0:
161,334,237109,2,0,L|69:332,1,69.9999978637696,8|0,1:2|0:2,0:2:0:0:
264,262,237292,2,0,L|357:263,1,69.9999978637696,0|0,0:2|0:2,0:2:0:0:
264,262,237475,2,0,L|191:263,1,69.9999978637696,8|0,0:2|0:2,0:2:0:0:
367,138,237658,2,0,L|241:142,1,69.9999978637696,0|0,0:2|0:2,0:2:0:0:
221,144,237841,2,0,L|221:219,1,69.9999978637696,8|0,1:2|0:2,0:2:0:0:
446,306,238024,2,0,L|442:213,1,69.9999978637696,0|0,0:2|0:2,0:2:0:0:
369,239,238207,6,0,L|291:238,1,69.9999978637696,8|0,0:2|0:2,0:2:0:0:
296,164,238390,2,0,L|373:163,1,69.9999978637696,0|0,0:2|0:2,0:2:0:0:
166,156,238573,2,0,L|167:235,1,69.9999978637696,8|0,1:2|0:2,0:2:0:0:
237,253,238756,2,0,L|153:255,1,69.9999978637696,0|0,0:2|0:2,0:2:0:0:
361,329,238939,2,0,L|357:237,1,69.9999978637696,8|0,0:2|0:2,0:2:0:0:
286,258,239122,2,0,L|194:255,1,69.9999978637696,0|0,0:2|0:2,0:2:0:0:
425,193,239305,2,0,L|503:192,1,69.9999978637696,8|0,1:2|0:2,0:2:0:0:
496,121,239488,2,0,L|396:121,1,69.9999978637696,0|0,0:2|0:2,0:2:0:0:
219,129,239670,6,0,L|217:207,1,69.9999978637696,8|0,0:2|0:2,0:2:0:0:
416,269,239853,2,0,L|496:271,1,69.9999978637696,0|0,0:2|0:2,0:2:0:0:
244,316,240036,2,0,L|154:312,1,69.9999978637696,8|0,1:2|0:2,0:2:0:0:
361,229,240219,2,0,L|265:230,1,69.9999978637696,0|0,0:2|0:2,0:2:0:0:
221,229,240402,2,0,L|221:150,1,69.9999978637696,8|0,0:2|0:2,0:2:0:0:
446,163,240585,2,0,L|346:165,1,69.9999978637696,0|0,0:2|0:2,0:2:0:0:
176,171,240768,2,0,L|88:167,1,69.9999978637696,8|0,1:2|0:2,0:2:0:0:
338,103,240951,2,0,L|335:190,1,69.9999978637696,0|0,0:2|0:2,0:2:0:0:
271,218,241134,6,0,L|201:217,1,69.9999978637696,8|0,0:2|0:2,0:2:0:0:
131,215,241317,2,0,L|217:217,1,69.9999978637696,0|0,0:2|0:2,0:2:0:0:
200,148,241500,2,0,L|125:145,1,69.9999978637696,8|0,1:2|0:2,0:2:0:0:
60,147,241683,2,0,L|50:238,1,69.9999978637696,0|0,0:2|0:2,0:2:0:0:
251,229,241866,2,0,L|251:308,1,69.9999978637696,8|0,0:2|0:2,0:2:0:0:
181,315,242048,2,0,L|102:318,1,69.9999978637696,0|0,0:2|0:2,0:2:0:0:
305,322,242231,2,0,L|390:327,1,69.9999978637696,8|0,1:2|0:2,0:2:0:0:
176,324,242414,2,0,L|93:325,1,69.9999978637696,0|0,0:2|0:2,0:2:0:0:
342,312,242598,6,0,L|343:227,1,69.9999978637696,8|0,0:2|0:2,0:2:0:0:
272,235,242781,2,0,L|192:235,1,69.9999978637696,0|0,0:2|0:2,0:2:0:0:
202,166,242964,2,0,L|289:166,1,69.9999978637696,8|0,1:2|0:2,0:2:0:0:
202,166,243147,2,0,L|108:165,1,69.9999978637696,0|0,0:2|0:2,0:2:0:0:
369,143,243330,2,0,L|368:222,1,69.9999978637696,8|0,0:2|0:2,0:2:0:0:
298,213,243513,2,0,L|296:290,1,69.9999978637696,0|0,0:2|0:2,0:2:0:0:
367,315,243695,2,0,L|459:314,1,69.9999978637696,8|0,1:2|0:2,0:2:0:0:
438,243,243878,2,0,L|361:246,1,69.9999978637696,0|0,0:2|0:2,0:2:0:0:
132,190,244061,6,0,L|41:191,1,69.9999978637696,8|0,0:2|0:2,0:2:0:0:
62,191,244244,2,0,L|61:112,1,69.9999978637696,0|0,0:2|0:2,0:2:0:0:
253,45,244427,2,0,L|355:47,1,69.9999978637696,8|0,1:2|0:2,0:2:0:0:
377,49,244610,2,0,L|378:127,1,69.9999978637696,0|0,0:2|0:2,0:2:0:0:
152,326,244793,2,0,L|83:323,1,69.9999978637696,8|0,0:2|0:2,0:2:0:0:
239,208,244976,2,0,L|319:203,1,69.9999978637696,8|0,0:2|0:2,0:2:0:0:
157,129,245159,2,8,L|227:129,1,69.9999978637696,8|0,1:2|0:2,0:2:0:0:
75,59,245342,2,0,L|159:58,1,69.9999978637696,8|0,0:2|0:2,0:2:0:0:
376,237,245525,6,0,P|442:213|362:49,1,300,14|0,0:2|0:2,0:2:0:0:
202,226,246256,2,0,L|506:223,1,300,2|0,0:2|0:2,0:2:0:0:
362,340,246988,6,0,L|122:336,1,200,2|0,0:2|0:2,0:2:0:0:
276,298,247537,2,0,L|494:282,1,200,2|0,0:2|0:2,0:2:0:0:
173,365,248269,6,0,P|262:-27|332:368,1,1100,2|0,0:2|0:2,0:2:0:0:
336,131,251378,6,0,L|336:260,1,100,2|0,0:2|0:2,0:2:0:0:
183,250,251744,1,2,0:2:0:0:
354,279,251927,2,0,L|138:278,1,200,2|0,0:2|0:2,0:2:0:0:
155,278,252476,1,2,0:2:0:0:
436,172,252842,6,0,L|318:171,2,100,2|0|0,0:2|0:2|0:2,0:2:0:0:
303,285,253391,2,0,L|57:278,1,200,2|0,0:2|0:2,0:2:0:0:
9,278,253939,1,2,0:2:0:0:
380,277,254305,5,2,0:2:0:0:
380,277,254427,2,0,L|270:278,1,100.000003814697,0|0,0:2|0:2,0:2:0:0:
159,218,254671,1,2,0:2:0:0:
159,218,254793,2,0,L|270:216,1,100.000003814697,0|0,0:2|0:2,0:2:0:0:
137,160,255037,2,0,L|24:161,2,100.000003814697,2|0|0,0:2|0:2|0:2,0:2:0:0:
258,176,255403,1,2,0:2:0:0:
192,180,255524,1,0,0:2:0:0:
125,185,255646,1,0,0:2:0:0:
246,252,255769,6,0,L|272:359,2,100.000003814697,2|0|0,0:2|0:2|0:2,0:2:0:0:
367,180,256134,2,0,L|316:79,2,100.000003814697,2|0|0,0:2|0:2|0:2,0:2:0:0:
488,275,256500,1,2,0:0:0:0:
388,273,256621,1,0,0:0:0:0:
288,272,256743,1,0,0:0:0:0:
409,177,256866,1,2,0:0:0:0:
309,173,256987,1,0,0:0:0:0:
209,169,257109,1,0,0:0:0:0:
290,102,257232,1,2,0:2:0:0:
416,273,257872,6,0,L|44:252,1,350,2|0,0:2|0:2,0:2:0:0:
232,332,258695,2,0,P|293:300|244:191,1,200,2|0,0:2|0:2,0:2:0:0:
100,170,259244,2,0,L|307:162,1,200,2|0,0:2|0:2,0:2:0:0:
95,325,259976,2,0,P|82:223|299:335,1,500,2|0,0:2|0:2,0:2:0:0:
165,320,261074,1,2,0:0:0:0:
325,316,261256,1,0,0:0:0:0:
165,320,261439,1,2,0:0:0:0:
326,354,261622,6,0,P|330:226|241:362,1,400,0|0,0:2|0:2,0:2:0:0:
381,358,262537,2,0,L|502:352,2,100,2|0|0,0:2|0:2|0:2,0:2:0:0:
217,259,263086,2,0,L|430:239,1,200,2|0,0:2|0:2,0:2:0:0:
296,175,263634,1,2,0:2:0:0:
410,111,263817,6,0,P|417:368|318:102,1,800,0|0,0:2|0:2,0:2:0:0:
142,124,265647,2,0,L|140:248,1,100,2|0,0:2|0:2,0:2:0:0:
275,142,266013,2,0,P|317:303|157:122,1,700,2|0,0:2|0:2,0:2:0:0:
385,177,267659,2,0,P|398:231|251:108,1,600,2|0,0:2|0:2,0:2:0:0:
302,338,268939,6,0,P|271:72|259:343,1,800,2|2,0:2|0:2,0:2:0:0:
212,336,271865,6,0,P|181:70|169:341,1,800,2|2,0:2|0:2,0:2:0:0:
342,321,273695,2,0,L|131:298,1,200,2|0,0:2|0:2,0:2:0:0:
391,205,274426,1,2,0:2:0:0:
131,76,274792,6,0,L|129:285,1,200,2|0,0:2|0:2,0:2:0:0:
343,275,275524,1,2,0:2:0:0:
138,286,275890,1,2,0:2:0:0:
398,283,276256,2,0,P|360:140|346:287,1,400,2|2,0:2|0:2,0:2:0:0:
114,301,277719,6,0,L|331:286,2,200,2|0|0,0:2|0:2|0:2,0:2:0:0:
399,314,278817,1,2,0:2:0:0:
144,315,279182,2,0,P|70:300|167:88,1,400,2|2,0:2|0:2,0:2:0:0:
376,337,280646,6,0,P|345:71|333:342,1,800,2|2,0:2|0:2,0:2:0:0:
149,332,283574,6,0,P|180:66|192:337,1,800,2|2,0:2|0:2,0:2:0:0:
436,334,285402,2,0,L|225:311,1,200,0|0,0:2|0:2,0:2:0:0:
19,273,286133,1,2,0:2:0:0:
318,76,286499,6,0,P|361:174|308:256,1,200,2|0,0:2|0:2,0:2:0:0:
120,274,287231,1,2,0:2:0:0:
354,287,287597,1,0,0:2:0:0:
114,283,287963,2,0,P|152:140|166:287,1,400,2|2,0:2|0:2,0:2:0:0:
398,301,289426,6,0,L|181:286,1,200,2|0,0:2|0:2,0:2:0:0:
423,246,290159,2,0,P|464:207|405:89,1,200
203,132,290891,6,0,L|418:123,1,200,2|0,0:0|0:0,0:0:0:0:
209,328,291622,2,0,P|142:321|237:102,1,400,2|0,0:0|0:0,0:0:0:0:
256,192,292537,12,0,295281,0:0:0:0:
