osu file format v14

[General]
AudioFilename: 1-25 Broken.mp3
AudioLeadIn: 1500
PreviewTime: 71302
Countdown: 0
SampleSet: Normal
StackLeniency: 0.7
Mode: 1
LetterboxInBreaks: 0
WidescreenStoryboard: 0

[Editor]
DistanceSpacing: 0.8
BeatDivisor: 4
GridSize: 8
TimelineZoom: 1.6

[Metadata]
Title:Broken
TitleUnicode:Broken
Artist:dj TAKA feat. AiMEE
ArtistUnicode:dj TAKA feat. AiMEE
Creator:lepidopodus
Version:Oni
Source:REFLEC BEAT
Tags:lepidon bbj0920 0920
BeatmapID:758028
BeatmapSetID:342994

[Difficulty]
HPDrainRate:5
CircleSize:5
OverallDifficulty:6
ApproachRate:5
SliderMultiplier:1.4
SliderTickRate:1

[Events]
//Background and Video events
0,0,"13 beautiful eye (www.cute-pictures.blogspot.com).jpg",0,0
//Break Periods
//Storyboard Layer 0 (Background)
//Storyboard Layer 1 (Fail)
//Storyboard Layer 2 (Pass)
//Storyboard Layer 3 (Foreground)
//Storyboard Sound Samples

[TimingPoints]
965,405.405405405405,4,1,0,80,1,0
26910,-100,4,1,0,65,0,0
27721,-100,4,1,0,60,0,0
28532,-100,4,1,0,55,0,0
29343,-100,4,1,0,50,0,0
30154,-100,4,1,0,45,0,0
30964,-100,4,1,0,40,0,0
31775,-100,4,1,0,35,0,0
33397,-133.333333333333,4,1,0,50,0,0
43937,-133.333333333333,4,1,0,55,0,0
44748,-133.333333333333,4,1,0,60,0,0
45559,-133.333333333333,4,1,0,65,0,0
46370,-100,4,1,0,80,0,0
72316,-100,4,1,0,80,0,1
78802,-100,4,1,0,80,0,0
85289,-100,4,1,0,80,0,1
98262,-100,4,1,0,80,0,0
111235,-100,4,1,0,65,0,0
112856,-100,4,1,0,60,0,0
114478,-100,4,1,0,55,0,0
116100,-100,4,1,0,50,0,0
117721,-100,4,1,0,45,0,0
119343,-100,4,1,0,40,0,0
120964,-100,4,1,0,35,0,0
122586,-100,4,1,0,30,0,0

[HitObjects]
240,144,965,5,0,0:0:0:0:
296,152,1167,1,0,0:0:0:0:
352,160,1370,1,8,0:0:0:0:
400,200,1573,1,0,0:0:0:0:
400,200,1775,1,0,0:0:0:0:
440,232,1978,1,0,0:0:0:0:
440,200,2181,1,8,0:0:0:0:
416,248,2383,1,0,0:0:0:0:
456,144,2586,1,8,0:0:0:0:
480,192,2789,1,0,0:0:0:0:
480,192,2992,1,8,0:0:0:0:
480,192,3194,1,0,0:0:0:0:
424,176,3397,1,8,0:0:0:0:
480,192,3600,1,0,0:0:0:0:
456,176,3802,1,8,0:0:0:0:
408,208,4005,1,0,0:0:0:0:
352,200,4208,1,0,0:0:0:0:
320,160,4410,1,0,0:0:0:0:
376,160,4613,1,8,0:0:0:0:
392,216,4816,1,0,0:0:0:0:
400,200,5018,1,0,0:0:0:0:
440,232,5221,1,0,0:0:0:0:
440,200,5424,1,8,0:0:0:0:
416,248,5626,1,0,0:0:0:0:
456,144,5829,1,8,0:0:0:0:
480,192,6032,1,0,0:0:0:0:
480,192,6235,1,8,0:0:0:0:
480,192,6437,1,0,0:0:0:0:
424,176,6640,1,8,0:0:0:0:
480,192,6843,1,0,0:0:0:0:
456,176,7045,1,8,0:0:0:0:
408,208,7248,1,0,0:0:0:0:
176,168,7451,5,0,0:0:0:0:
232,176,7654,1,0,0:0:0:0:
256,176,7755,1,0,0:0:0:0:
424,176,7856,1,8,0:0:0:0:
416,248,8059,1,0,0:0:0:0:
400,200,8261,1,0,0:0:0:0:
440,232,8464,1,0,0:0:0:0:
440,232,8565,1,0,0:0:0:0:
440,200,8667,1,8,0:0:0:0:
416,248,8869,1,0,0:0:0:0:
456,144,9072,1,8,0:0:0:0:
480,192,9275,1,0,0:0:0:0:
451,190,9377,1,0,0:0:0:0:
480,192,9478,1,8,0:0:0:0:
480,192,9680,1,0,0:0:0:0:
424,176,9883,1,8,0:0:0:0:
480,192,10086,1,0,0:0:0:0:
480,192,10187,1,0,0:0:0:0:
456,176,10288,1,8,0:0:0:0:
408,208,10491,1,0,0:0:0:0:
176,168,10694,1,0,0:0:0:0:
232,168,10897,1,0,0:0:0:0:
256,168,10998,1,0,0:0:0:0:
288,168,11100,1,8,0:0:0:0:
328,208,11302,1,0,0:0:0:0:
384,200,11505,1,0,0:0:0:0:
440,232,11707,1,0,0:0:0:0:
440,232,11808,1,0,0:0:0:0:
440,200,11910,1,8,0:0:0:0:
416,248,12112,1,0,0:0:0:0:
384,152,12316,1,4,0:0:0:0:
280,200,12721,1,4,0:0:0:0:
328,176,12924,1,8,0:0:0:0:
352,224,13127,1,4,0:0:0:0:
408,232,13329,1,0,0:0:0:0:
424,200,13397,1,0,0:0:0:0:
424,200,13464,1,0,0:0:0:0:
424,200,13532,1,0,0:0:0:0:
408,224,13633,1,0,0:0:0:0:
392,248,13735,1,0,0:0:0:0:
368,264,13836,1,0,0:0:0:0:
344,272,13937,5,0,0:0:0:0:
360,216,14140,1,8,0:0:0:0:
408,184,14343,1,0,0:0:0:0:
408,184,14444,1,0,0:0:0:0:
408,184,14546,1,0,0:0:0:0:
408,184,14647,1,8,0:0:0:0:
352,176,14850,1,0,0:0:0:0:
408,184,14951,1,8,0:0:0:0:
352,200,15154,1,0,0:0:0:0:
360,144,15356,1,0,0:0:0:0:
392,144,15458,1,8,0:0:0:0:
416,160,15559,1,0,0:0:0:0:
392,160,15660,1,0,0:0:0:0:
472,136,15762,1,8,0:0:0:0:
456,192,15964,1,8,0:0:0:0:
448,216,16066,1,8,0:0:0:0:
448,216,16167,1,0,0:0:0:0:
424,224,16269,1,8,0:0:0:0:
432,168,16471,1,8,0:0:0:0:
456,176,16573,1,0,0:0:0:0:
456,176,16674,1,0,0:0:0:0:
416,160,16775,1,8,0:0:0:0:
424,216,16978,1,0,0:0:0:0:
368,208,17181,1,0,0:0:0:0:
344,208,17282,1,0,0:0:0:0:
416,160,17383,1,8,0:0:0:0:
360,160,17586,1,0,0:0:0:0:
336,160,17687,1,0,0:0:0:0:
304,160,17789,1,0,0:0:0:0:
328,168,17890,1,8,0:0:0:0:
376,136,18093,1,0,0:0:0:0:
400,144,18194,1,8,0:0:0:0:
448,168,18397,1,0,0:0:0:0:
440,224,18600,1,0,0:0:0:0:
464,208,18701,1,8,0:0:0:0:
440,200,18802,1,0,0:0:0:0:
440,200,18904,1,0,0:0:0:0:
416,200,19005,1,8,0:0:0:0:
384,248,19208,1,8,0:0:0:0:
368,272,19309,1,8,0:0:0:0:
384,248,19410,1,0,0:0:0:0:
416,200,19512,1,8,0:0:0:0:
448,168,19714,1,8,0:0:0:0:
472,176,19816,1,0,0:0:0:0:
472,176,19917,1,0,0:0:0:0:
440,176,20019,1,8,0:0:0:0:
384,176,20221,1,0,0:0:0:0:
344,144,20424,5,4,0:0:0:0:
344,88,20627,1,8,0:0:0:0:
352,112,20728,1,8,0:0:0:0:
440,176,20829,1,0,0:0:0:0:
440,176,20931,1,0,0:0:0:0:
440,176,21032,1,0,0:0:0:0:
448,168,21133,1,8,0:0:0:0:
432,224,21336,1,8,0:0:0:0:
424,248,21437,1,0,0:0:0:0:
408,272,21539,1,0,0:0:0:0:
384,288,21640,1,0,0:0:0:0:
440,176,21843,1,8,0:0:0:0:
448,200,22046,1,4,0:0:0:0:
424,192,22248,1,8,0:0:0:0:
400,184,22350,1,8,0:0:0:0:
368,176,22451,1,8,0:0:0:0:
368,176,22552,1,0,0:0:0:0:
392,192,22654,1,0,0:0:0:0:
376,216,22755,1,8,0:0:0:0:
408,176,22958,1,8,0:0:0:0:
432,160,23059,1,0,0:0:0:0:
456,144,23160,1,8,0:0:0:0:
432,152,23262,1,8,0:0:0:0:
424,192,23464,1,8,0:0:0:0:
392,144,23667,1,4,0:0:0:0:
336,152,23870,1,0,0:0:0:0:
312,160,23971,1,0,0:0:0:0:
408,176,24073,1,8,0:0:0:0:
408,176,24174,1,0,0:0:0:0:
416,200,24275,1,0,0:0:0:0:
312,352,24478,1,4,0:0:0:0:
344,304,24681,1,0,0:0:0:0:
360,280,24782,1,0,0:0:0:0:
456,168,24883,1,8,0:0:0:0:
456,168,24985,1,8,0:0:0:0:
440,192,25086,1,0,0:0:0:0:
400,152,25289,1,4,0:0:0:0:
344,160,25492,1,8,0:0:0:0:
400,144,25694,1,4,0:0:0:0:
400,152,25897,1,8,0:0:0:0:
400,144,26100,1,4,0:0:0:0:
408,200,26302,1,8,0:0:0:0:
408,216,26370,1,8,0:0:0:0:
416,232,26437,1,8,0:0:0:0:
416,232,26505,1,8,0:0:0:0:
360,248,26708,1,8,0:0:0:0:
320,208,26910,5,0,0:0:0:0:
304,184,27012,1,0,0:0:0:0:
328,176,27113,1,8,0:0:0:0:
352,176,27214,1,0,0:0:0:0:
384,176,27316,1,0,0:0:0:0:
408,168,27417,1,8,0:0:0:0:
440,168,27519,1,0,0:0:0:0:
464,168,27620,1,8,0:0:0:0:
480,192,27721,1,0,0:0:0:0:
480,192,27823,1,0,0:0:0:0:
464,168,27924,1,8,0:0:0:0:
480,192,28025,1,0,0:0:0:0:
480,192,28127,1,0,0:0:0:0:
464,168,28228,1,8,0:0:0:0:
480,192,28329,1,0,0:0:0:0:
456,200,28431,1,8,0:0:0:0:
432,200,28532,1,0,0:0:0:0:
408,200,28633,1,0,0:0:0:0:
400,176,28735,1,8,0:0:0:0:
424,168,28836,1,0,0:0:0:0:
448,160,28937,1,0,0:0:0:0:
472,152,29039,1,8,0:0:0:0:
496,168,29140,1,0,0:0:0:0:
472,168,29242,1,8,0:0:0:0:
480,192,29343,1,0,0:0:0:0:
480,192,29444,1,0,0:0:0:0:
464,168,29546,1,0,0:0:0:0:
464,168,29647,1,8,0:0:0:0:
480,192,29748,1,0,0:0:0:0:
480,192,29850,1,0,0:0:0:0:
480,192,29951,1,0,0:0:0:0:
400,176,30052,1,8,0:0:0:0:
368,176,30154,1,0,0:0:0:0:
344,168,30255,1,0,0:0:0:0:
368,152,30356,1,8,0:0:0:0:
392,152,30458,1,0,0:0:0:0:
416,144,30559,1,0,0:0:0:0:
472,168,30660,1,8,0:0:0:0:
472,168,30762,1,0,0:0:0:0:
472,168,30863,1,8,0:0:0:0:
472,168,30964,1,0,0:0:0:0:
472,168,31066,1,0,0:0:0:0:
464,168,31167,1,8,0:0:0:0:
472,168,31269,1,0,0:0:0:0:
472,168,31370,1,0,0:0:0:0:
472,168,31471,1,8,0:0:0:0:
472,168,31573,1,0,0:0:0:0:
448,176,31674,1,8,0:0:0:0:
424,176,31775,1,0,0:0:0:0:
392,176,31877,1,0,0:0:0:0:
464,168,31978,1,8,0:0:0:0:
464,168,32079,1,0,0:0:0:0:
464,168,32181,1,0,0:0:0:0:
448,176,32282,1,8,0:0:0:0:
464,200,32383,1,0,0:0:0:0:
480,184,32485,1,8,0:0:0:0:
456,184,32586,1,0,0:0:0:0:
304,112,33397,5,4,0:0:0:0:
344,120,33600,1,0,0:0:0:0:
384,128,33802,1,0,0:0:0:0:
480,184,34005,1,8,0:0:0:0:
360,216,34613,1,0,0:0:0:0:
424,160,35019,1,8,0:0:0:0:
480,184,35221,1,0,0:0:0:0:
440,184,35424,1,0,0:0:0:0:
440,184,35627,1,8,0:0:0:0:
312,184,36235,1,0,0:0:0:0:
376,128,36640,1,8,0:0:0:0:
416,144,36843,1,0,0:0:0:0:
456,160,37046,1,8,0:0:0:0:
456,200,37248,1,8,0:0:0:0:
328,192,37856,1,8,0:0:0:0:
288,208,38059,1,0,0:0:0:0:
336,184,38262,1,8,0:0:0:0:
440,320,38667,1,8,0:0:0:0:
432,280,38870,1,0,0:0:0:0:
400,304,39073,1,0,0:0:0:0:
336,208,39478,1,0,0:0:0:0:
304,128,39883,5,0,0:0:0:0:
344,112,40086,1,0,0:0:0:0:
376,136,40289,1,8,0:0:0:0:
392,176,40492,1,8,0:0:0:0:
376,304,41100,1,0,0:0:0:0:
328,240,41505,1,0,0:0:0:0:
288,232,41708,1,0,0:0:0:0:
256,208,41910,1,0,0:0:0:0:
296,200,42113,1,8,0:0:0:0:
320,168,42316,1,0,0:0:0:0:
360,168,42519,1,8,0:0:0:0:
400,168,42721,1,0,0:0:0:0:
464,176,42924,1,8,0:0:0:0:
464,176,43127,1,0,0:0:0:0:
464,176,43228,1,0,0:0:0:0:
480,168,43329,1,8,0:0:0:0:
480,168,43431,1,8,0:0:0:0:
464,176,43532,1,0,0:0:0:0:
464,176,43633,1,0,0:0:0:0:
488,176,43735,1,8,0:0:0:0:
464,200,43836,1,8,0:0:0:0:
464,176,43937,1,0,0:0:0:0:
464,176,44039,1,0,0:0:0:0:
480,168,44140,1,8,0:0:0:0:
480,168,44242,1,8,0:0:0:0:
464,176,44343,1,0,0:0:0:0:
464,176,44444,1,0,0:0:0:0:
464,200,44546,1,8,0:0:0:0:
464,200,44647,1,8,0:0:0:0:
440,192,44748,1,0,0:0:0:0:
416,184,44850,1,0,0:0:0:0:
392,176,44951,1,0,0:0:0:0:
408,168,45052,1,8,0:0:0:0:
432,168,45154,1,0,0:0:0:0:
432,168,45255,1,0,0:0:0:0:
432,168,45356,1,0,0:0:0:0:
416,184,45458,1,8,0:0:0:0:
395,182,45559,1,0,0:0:0:0:
374,180,45660,1,0,0:0:0:0:
353,176,45762,1,0,0:0:0:0:
371,166,45863,1,8,0:0:0:0:
391,165,45964,1,0,0:0:0:0:
412,164,46066,1,0,0:0:0:0:
408,168,46167,1,8,0:0:0:0:
368,160,46370,5,4,0:0:0:0:
381,214,46573,1,8,0:0:0:0:
406,224,46674,1,0,0:0:0:0:
429,239,46775,1,8,0:0:0:0:
487,159,46978,1,8,0:0:0:0:
459,164,47079,1,8,0:0:0:0:
487,159,47181,1,0,0:0:0:0:
454,204,47383,1,8,0:0:0:0:
472,182,47485,1,8,0:0:0:0:
475,209,47586,1,0,0:0:0:0:
475,209,47687,1,0,0:0:0:0:
475,209,47789,1,0,0:0:0:0:
454,204,47890,1,8,0:0:0:0:
431,220,47992,1,0,0:0:0:0:
375,211,48194,1,0,0:0:0:0:
394,190,48296,1,8,0:0:0:0:
403,163,48397,1,0,0:0:0:0:
446,127,48600,1,0,0:0:0:0:
449,154,48701,1,8,0:0:0:0:
472,182,48802,1,0,0:0:0:0:
447,168,48904,1,0,0:0:0:0:
447,168,49005,1,0,0:0:0:0:
472,182,49106,1,8,0:0:0:0:
472,182,49208,1,0,0:0:0:0:
472,182,49309,1,0,0:0:0:0:
448,176,49410,1,8,0:0:0:0:
392,176,49613,1,0,0:0:0:0:
368,176,49714,1,0,0:0:0:0:
449,154,49816,1,8,0:0:0:0:
424,152,49917,1,8,0:0:0:0:
416,176,50019,1,0,0:0:0:0:
384,128,50221,1,0,0:0:0:0:
384,128,50289,1,0,0:0:0:0:
384,128,50356,1,0,0:0:0:0:
392,112,50424,1,8,0:0:0:0:
416,96,50525,1,8,0:0:0:0:
408,120,50627,1,8,0:0:0:0:
400,144,50728,1,8,0:0:0:0:
400,168,50829,1,0,0:0:0:0:
232,208,50931,1,0,0:0:0:0:
400,224,51032,1,0,0:0:0:0:
416,248,51133,1,8,0:0:0:0:
440,240,51235,1,0,0:0:0:0:
416,232,51336,1,0,0:0:0:0:
432,208,51437,1,8,0:0:0:0:
456,192,51539,1,8,0:0:0:0:
472,176,51640,1,0,0:0:0:0:
472,176,51742,1,0,0:0:0:0:
472,176,51843,1,8,0:0:0:0:
472,176,51944,1,8,0:0:0:0:
440,176,52046,1,0,0:0:0:0:
416,176,52147,1,0,0:0:0:0:
392,160,52248,1,0,0:0:0:0:
472,176,52350,1,8,0:0:0:0:
496,168,52451,1,0,0:0:0:0:
496,168,52552,1,0,0:0:0:0:
440,176,52654,1,8,0:0:0:0:
472,176,52755,1,0,0:0:0:0:
456,200,52856,5,0,0:0:0:0:
408,176,53059,1,8,0:0:0:0:
353,162,53262,1,0,0:0:0:0:
408,176,53363,1,8,0:0:0:0:
457,149,53566,1,0,0:0:0:0:
408,176,53667,1,8,0:0:0:0:
450,139,53870,1,0,0:0:0:0:
461,168,53971,1,8,0:0:0:0:
461,168,54073,1,0,0:0:0:0:
461,168,54174,1,0,0:0:0:0:
488,169,54275,1,8,0:0:0:0:
463,183,54377,1,8,0:0:0:0:
436,192,54478,1,0,0:0:0:0:
393,155,54681,1,8,0:0:0:0:
448,163,54883,1,0,0:0:0:0:
448,163,54985,1,8,0:0:0:0:
461,168,55187,1,0,0:0:0:0:
461,168,55289,1,8,0:0:0:0:
435,118,55492,1,0,0:0:0:0:
462,122,55593,1,8,0:0:0:0:
450,147,55694,1,0,0:0:0:0:
439,173,55796,1,0,0:0:0:0:
439,173,55897,1,0,0:0:0:0:
448,163,55998,1,8,0:0:0:0:
424,176,56100,2,0,L|0:256,1,420
208,200,57721,1,0,0:0:0:0:
424,111,57789,1,0,0:0:0:0:
424,111,57856,1,0,0:0:0:0:
424,111,57924,1,0,0:0:0:0:
388,154,58127,1,0,0:0:0:0:
376,168,58194,1,0,0:0:0:0:
365,183,58262,1,0,0:0:0:0:
365,183,58329,1,0,0:0:0:0:
311,199,58532,1,0,0:0:0:0:
293,205,58600,1,0,0:0:0:0:
274,206,58667,1,0,0:0:0:0:
255,207,58735,1,0,0:0:0:0:
240,200,58802,1,0,0:0:0:0:
224,192,58870,1,0,0:0:0:0:
208,184,58937,1,0,0:0:0:0:
192,176,59005,1,0,0:0:0:0:
176,168,59073,1,0,0:0:0:0:
160,160,59140,1,0,0:0:0:0:
317,122,59343,5,0,0:0:0:0:
338,104,59444,1,0,0:0:0:0:
365,109,59546,1,8,0:0:0:0:
389,122,59647,1,0,0:0:0:0:
413,135,59748,1,0,0:0:0:0:
437,149,59850,1,8,0:0:0:0:
457,167,59951,1,0,0:0:0:0:
476,186,60052,1,0,0:0:0:0:
447,184,60154,1,8,0:0:0:0:
447,184,60255,1,0,0:0:0:0:
447,184,60356,1,0,0:0:0:0:
455,210,60458,1,8,0:0:0:0:
447,184,60559,1,0,0:0:0:0:
447,184,60660,1,0,0:0:0:0:
455,210,60762,1,8,0:0:0:0:
401,224,60964,1,0,0:0:0:0:
373,229,61066,1,0,0:0:0:0:
457,167,61167,1,8,0:0:0:0:
457,167,61269,1,0,0:0:0:0:
457,167,61370,1,8,0:0:0:0:
457,167,61471,1,8,0:0:0:0:
447,184,61573,1,0,0:0:0:0:
447,184,61674,1,0,0:0:0:0:
419,180,61775,1,8,0:0:0:0:
419,180,61877,1,0,0:0:0:0:
447,184,61978,1,8,0:0:0:0:
447,184,62079,1,8,0:0:0:0:
419,180,62181,1,0,0:0:0:0:
419,180,62282,1,0,0:0:0:0:
391,180,62383,1,8,0:0:0:0:
335,171,62586,1,0,0:0:0:0:
352,149,62687,1,8,0:0:0:0:
374,131,62789,1,8,0:0:0:0:
395,148,62890,1,0,0:0:0:0:
447,184,62992,1,8,0:0:0:0:
447,184,63093,1,8,0:0:0:0:
471,197,63194,1,0,0:0:0:0:
419,180,63296,1,8,0:0:0:0:
419,180,63397,1,8,0:0:0:0:
446,180,63498,1,0,0:0:0:0:
447,184,63600,1,8,0:0:0:0:
447,184,63701,1,8,0:0:0:0:
447,184,63802,1,0,0:0:0:0:
453,211,63904,1,8,0:0:0:0:
453,211,64005,1,8,0:0:0:0:
335,169,64208,1,0,0:0:0:0:
362,162,64309,1,8,0:0:0:0:
389,155,64411,1,8,0:0:0:0:
416,154,64512,1,0,0:0:0:0:
444,153,64614,1,0,0:0:0:0:
466,169,64715,1,8,0:0:0:0:
466,169,64816,1,0,0:0:0:0:
466,169,64918,1,8,0:0:0:0:
466,169,65019,1,8,0:0:0:0:
486,187,65120,1,0,0:0:0:0:
457,185,65222,1,0,0:0:0:0:
419,180,65323,1,8,0:0:0:0:
419,207,65424,1,0,0:0:0:0:
466,169,65526,1,8,0:0:0:0:
466,169,65627,1,8,0:0:0:0:
410,162,65829,5,0,0:0:0:0:
382,157,65931,1,0,0:0:0:0:
408,148,66032,1,8,0:0:0:0:
434,140,66133,1,8,0:0:0:0:
405,142,66235,1,0,0:0:0:0:
466,169,66336,1,8,0:0:0:0:
466,169,66437,1,8,0:0:0:0:
456,195,66539,1,0,0:0:0:0:
471,208,66640,1,0,0:0:0:0:
471,208,66742,1,0,0:0:0:0:
488,186,66843,1,8,0:0:0:0:
488,186,66944,1,8,0:0:0:0:
459,185,67046,1,0,0:0:0:0:
466,169,67147,1,8,0:0:0:0:
438,170,67248,1,8,0:0:0:0:
440,131,67451,1,0,0:0:0:0:
440,131,67552,1,0,0:0:0:0:
440,131,67654,1,0,0:0:0:0:
463,145,67755,1,8,0:0:0:0:
466,169,67856,1,0,0:0:0:0:
466,169,67958,1,0,0:0:0:0:
480,145,68059,1,8,0:0:0:0:
466,169,68160,1,0,0:0:0:0:
466,169,68262,1,0,0:0:0:0:
466,169,68363,1,0,0:0:0:0:
488,186,68464,1,0,0:0:0:0:
466,169,68566,1,8,0:0:0:0:
488,186,68667,1,0,0:0:0:0:
488,186,68769,1,0,0:0:0:0:
466,169,68870,1,8,0:0:0:0:
466,169,69073,1,12,0:0:0:0:
416,184,69275,1,4,0:0:0:0:
466,169,69681,1,12,0:0:0:0:
466,169,69883,1,4,0:0:0:0:
496,280,70289,1,12,0:0:0:0:
466,169,70492,1,4,0:0:0:0:
304,216,71100,1,0,0:0:0:0:
360,200,71302,1,0,0:0:0:0:
304,216,71505,1,0,0:0:0:0:
248,200,71708,1,0,0:0:0:0:
232,200,71775,1,0,0:0:0:0:
216,192,71843,1,0,0:0:0:0:
216,192,71910,1,0,0:0:0:0:
192,176,72012,1,0,0:0:0:0:
168,160,72113,1,0,0:0:0:0:
416,112,72316,5,0,0:0:0:0:
440,120,72417,1,0,0:0:0:0:
448,144,72519,1,8,0:0:0:0:
464,168,72620,1,0,0:0:0:0:
472,192,72721,1,8,0:0:0:0:
472,192,72823,1,8,0:0:0:0:
472,192,72924,1,0,0:0:0:0:
472,192,73025,1,0,0:0:0:0:
472,192,73127,1,8,0:0:0:0:
448,208,73228,1,0,0:0:0:0:
472,192,73329,1,8,0:0:0:0:
472,192,73431,1,8,0:0:0:0:
472,192,73532,1,0,0:0:0:0:
496,184,73633,1,0,0:0:0:0:
472,192,73735,1,8,0:0:0:0:
472,192,73836,1,0,0:0:0:0:
448,144,73937,1,8,0:0:0:0:
472,192,74039,1,0,0:0:0:0:
472,192,74140,1,0,0:0:0:0:
456,168,74242,1,8,0:0:0:0:
432,160,74343,1,0,0:0:0:0:
408,152,74444,1,0,0:0:0:0:
416,128,74546,1,8,0:0:0:0:
416,104,74647,1,8,0:0:0:0:
440,96,74748,1,8,0:0:0:0:
456,120,74850,1,0,0:0:0:0:
480,136,74951,1,0,0:0:0:0:
472,192,75052,1,8,0:0:0:0:
496,208,75154,1,0,0:0:0:0:
472,216,75255,1,0,0:0:0:0:
472,192,75356,1,8,0:0:0:0:
440,192,75458,1,8,0:0:0:0:
416,184,75559,1,0,0:0:0:0:
392,176,75660,1,0,0:0:0:0:
368,168,75762,1,0,0:0:0:0:
344,160,75863,1,8,0:0:0:0:
368,160,75964,1,0,0:0:0:0:
368,128,76066,1,0,0:0:0:0:
352,104,76167,1,8,0:0:0:0:
440,96,76269,1,0,0:0:0:0:
464,80,76370,1,0,0:0:0:0:
472,104,76471,1,0,0:0:0:0:
456,128,76573,1,8,0:0:0:0:
472,152,76674,1,0,0:0:0:0:
464,176,76775,1,8,0:0:0:0:
448,200,76877,1,0,0:0:0:0:
448,224,76978,1,0,0:0:0:0:
448,248,77079,1,8,0:0:0:0:
421,239,77181,1,0,0:0:0:0:
396,225,77282,1,8,0:0:0:0:
371,211,77383,1,8,0:0:0:0:
343,206,77485,1,0,0:0:0:0:
358,182,77586,1,8,0:0:0:0:
375,160,77687,1,8,0:0:0:0:
347,165,77789,1,0,0:0:0:0:
348,137,77890,1,8,0:0:0:0:
370,120,77992,1,0,0:0:0:0:
392,104,78093,1,0,0:0:0:0:
419,109,78194,1,8,0:0:0:0:
421,239,78296,1,0,0:0:0:0:
414,266,78397,1,0,0:0:0:0:
422,239,78498,1,0,0:0:0:0:
424,208,78600,1,8,0:0:0:0:
464,176,78802,5,4,0:0:0:0:
248,120,80424,1,0,0:0:0:0:
296,152,80627,1,0,0:0:0:0:
328,200,80830,1,0,0:0:0:0:
312,256,81032,1,0,0:0:0:0:
360,224,81235,1,0,0:0:0:0:
408,200,81437,1,0,0:0:0:0:
360,224,81640,1,0,0:0:0:0:
344,168,81843,1,0,0:0:0:0:
296,200,82046,1,0,0:0:0:0:
272,216,82147,1,0,0:0:0:0:
248,232,82248,1,0,0:0:0:0:
224,240,82350,1,0,0:0:0:0:
200,240,82451,1,0,0:0:0:0:
176,232,82552,1,0,0:0:0:0:
152,224,82654,1,0,0:0:0:0:
128,208,82755,1,0,0:0:0:0:
120,184,82856,1,0,0:0:0:0:
128,160,82958,1,0,0:0:0:0:
144,136,83059,1,0,0:0:0:0:
168,128,83160,1,0,0:0:0:0:
192,120,83262,1,0,0:0:0:0:
216,112,83363,1,0,0:0:0:0:
240,112,83464,1,0,0:0:0:0:
272,112,83566,1,0,0:0:0:0:
296,120,83667,1,0,0:0:0:0:
296,136,83735,1,0,0:0:0:0:
328,144,83802,1,0,0:0:0:0:
344,160,83870,1,0,0:0:0:0:
328,216,84073,1,0,0:0:0:0:
320,232,84140,1,0,0:0:0:0:
312,248,84208,1,0,0:0:0:0:
304,264,84275,1,0,0:0:0:0:
360,272,84478,1,0,0:0:0:0:
376,272,84546,1,0,0:0:0:0:
392,280,84613,1,0,0:0:0:0:
400,264,84681,1,8,0:0:0:0:
440,224,84883,1,8,0:0:0:0:
456,216,84951,1,8,0:0:0:0:
440,224,85019,1,8,0:0:0:0:
432,160,85086,1,0,0:0:0:0:
448,136,85187,1,0,0:0:0:0:
440,112,85289,5,8,0:0:0:0:
376,272,85390,1,8,0:0:0:0:
360,128,85593,1,0,0:0:0:0:
305,140,85796,1,0,0:0:0:0:
344,208,85897,1,8,0:0:0:0:
400,192,86100,1,8,0:0:0:0:
413,167,86201,1,0,0:0:0:0:
432,160,86404,1,0,0:0:0:0:
394,201,86606,1,0,0:0:0:0:
400,192,86708,1,8,0:0:0:0:
360,128,86910,1,0,0:0:0:0:
440,184,87012,1,8,0:0:0:0:
440,184,87113,1,8,0:0:0:0:
440,184,87214,1,8,0:0:0:0:
296,216,87316,1,0,0:0:0:0:
336,184,87519,1,0,0:0:0:0:
352,176,87586,1,0,0:0:0:0:
368,160,87654,1,0,0:0:0:0:
384,160,87721,1,8,0:0:0:0:
392,216,87924,1,8,0:0:0:0:
352,176,88025,1,8,0:0:0:0:
440,184,88127,1,0,0:0:0:0:
416,200,88228,1,0,0:0:0:0:
424,176,88329,1,0,0:0:0:0:
448,160,88431,1,8,0:0:0:0:
424,152,88532,1,8,0:0:0:0:
396,157,88633,1,0,0:0:0:0:
368,206,88836,1,0,0:0:0:0:
404,163,89039,1,8,0:0:0:0:
416,200,89140,1,0,0:0:0:0:
421,144,89343,1,8,0:0:0:0:
421,116,89444,1,8,0:0:0:0:
423,172,89647,1,8,0:0:0:0:
436,196,89748,1,0,0:0:0:0:
424,176,89850,1,8,0:0:0:0:
423,172,89951,1,8,0:0:0:0:
445,188,90052,1,0,0:0:0:0:
416,200,90154,1,8,0:0:0:0:
440,212,90255,1,0,0:0:0:0:
440,212,90356,1,0,0:0:0:0:
440,212,90458,1,0,0:0:0:0:
416,200,90559,1,8,0:0:0:0:
361,187,90762,1,0,0:0:0:0:
342,182,90829,1,0,0:0:0:0:
323,177,90897,1,0,0:0:0:0:
332,160,90964,1,8,0:0:0:0:
382,136,91167,1,8,0:0:0:0:
405,120,91269,1,8,0:0:0:0:
428,135,91370,1,0,0:0:0:0:
451,150,91471,1,0,0:0:0:0:
451,150,91573,1,8,0:0:0:0:
440,212,91674,1,0,0:0:0:0:
405,120,91775,5,8,0:0:0:0:
412,147,91877,1,0,0:0:0:0:
356,153,92079,1,0,0:0:0:0:
327,153,92181,1,0,0:0:0:0:
299,153,92282,1,0,0:0:0:0:
326,158,92383,1,8,0:0:0:0:
344,178,92485,1,0,0:0:0:0:
344,205,92586,1,8,0:0:0:0:
395,181,92789,1,8,0:0:0:0:
421,172,92890,1,8,0:0:0:0:
448,179,92992,1,0,0:0:0:0:
474,187,93093,1,0,0:0:0:0:
448,179,93194,1,8,0:0:0:0:
438,205,93296,1,0,0:0:0:0:
423,228,93397,1,8,0:0:0:0:
395,230,93498,1,8,0:0:0:0:
367,233,93701,1,0,0:0:0:0:
395,185,93802,1,8,0:0:0:0:
409,160,93904,1,8,0:0:0:0:
421,172,94005,1,0,0:0:0:0:
421,172,94106,1,0,0:0:0:0:
393,166,94208,1,0,0:0:0:0:
365,159,94309,1,0,0:0:0:0:
391,150,94410,1,8,0:0:0:0:
419,152,94512,1,0,0:0:0:0:
446,155,94613,1,8,0:0:0:0:
438,205,94714,1,0,0:0:0:0:
423,228,94816,1,0,0:0:0:0:
414,254,94917,1,0,0:0:0:0:
446,155,95019,1,8,0:0:0:0:
446,155,95120,1,8,0:0:0:0:
463,208,95323,1,0,0:0:0:0:
463,208,95525,1,0,0:0:0:0:
421,172,95627,1,8,0:0:0:0:
415,199,95728,1,0,0:0:0:0:
446,155,95829,1,8,0:0:0:0:
390,162,96032,1,0,0:0:0:0:
421,172,96133,1,8,0:0:0:0:
334,170,96235,1,0,0:0:0:0:
308,159,96336,1,0,0:0:0:0:
421,172,96437,1,8,0:0:0:0:
376,137,96640,1,4,0:0:0:0:
354,247,97046,1,4,0:0:0:0:
390,162,97248,1,8,0:0:0:0:
448,306,97451,1,4,0:0:0:0:
456,250,97654,1,0,0:0:0:0:
456,231,97721,1,0,0:0:0:0:
454,212,97789,1,0,0:0:0:0:
452,193,97856,1,0,0:0:0:0:
433,197,97958,1,0,0:0:0:0:
405,202,98059,1,0,0:0:0:0:
376,200,98160,1,0,0:0:0:0:
344,272,98262,5,0,0:0:0:0:
360,216,98465,1,8,0:0:0:0:
408,184,98668,1,0,0:0:0:0:
408,184,98769,1,0,0:0:0:0:
408,184,98871,1,0,0:0:0:0:
408,184,98972,1,8,0:0:0:0:
416,160,99174,1,8,0:0:0:0:
408,184,99275,1,0,0:0:0:0:
352,200,99479,1,8,0:0:0:0:
360,144,99681,1,0,0:0:0:0:
392,144,99783,1,8,0:0:0:0:
416,160,99884,1,8,0:0:0:0:
392,160,99985,1,0,0:0:0:0:
472,136,100087,1,8,0:0:0:0:
456,192,100289,1,8,0:0:0:0:
448,216,100390,1,0,0:0:0:0:
448,216,100492,1,0,0:0:0:0:
424,224,100594,1,8,0:0:0:0:
432,168,100796,1,8,0:0:0:0:
456,176,100898,1,0,0:0:0:0:
456,176,100999,1,8,0:0:0:0:
416,160,101100,1,8,0:0:0:0:
424,216,101303,1,0,0:0:0:0:
368,208,101506,1,0,0:0:0:0:
344,208,101607,1,0,0:0:0:0:
416,160,101708,1,8,0:0:0:0:
360,160,101911,1,0,0:0:0:0:
336,160,102012,1,0,0:0:0:0:
304,160,102114,1,0,0:0:0:0:
328,168,102215,1,8,0:0:0:0:
384,168,102417,1,8,0:0:0:0:
392,192,102519,1,0,0:0:0:0:
448,168,102722,1,8,0:0:0:0:
440,224,102925,1,0,0:0:0:0:
464,208,103026,1,8,0:0:0:0:
440,200,103127,1,8,0:0:0:0:
440,200,103229,1,0,0:0:0:0:
416,200,103330,1,8,0:0:0:0:
384,248,103533,1,8,0:0:0:0:
368,272,103634,1,0,0:0:0:0:
384,248,103735,1,0,0:0:0:0:
416,200,103837,1,8,0:0:0:0:
448,168,104039,1,8,0:0:0:0:
472,176,104141,1,0,0:0:0:0:
472,176,104242,1,8,0:0:0:0:
440,176,104344,1,8,0:0:0:0:
384,176,104546,1,0,0:0:0:0:
344,144,104748,5,0,0:0:0:0:
344,88,104951,1,8,0:0:0:0:
352,112,105052,1,8,0:0:0:0:
440,176,105153,1,0,0:0:0:0:
440,176,105255,1,0,0:0:0:0:
440,176,105356,1,0,0:0:0:0:
448,168,105457,1,8,0:0:0:0:
432,224,105660,1,0,0:0:0:0:
424,248,105761,1,8,0:0:0:0:
408,272,105863,1,0,0:0:0:0:
384,288,105964,1,0,0:0:0:0:
440,176,106167,1,8,0:0:0:0:
448,200,106370,1,0,0:0:0:0:
424,192,106572,1,8,0:0:0:0:
395,194,106674,1,0,0:0:0:0:
368,176,106775,1,8,0:0:0:0:
368,176,106876,1,8,0:0:0:0:
392,192,106978,1,0,0:0:0:0:
376,216,107079,1,8,0:0:0:0:
408,176,107282,1,8,0:0:0:0:
432,160,107383,1,0,0:0:0:0:
456,144,107484,1,0,0:0:0:0:
432,152,107586,1,8,0:0:0:0:
456,168,107687,1,0,0:0:0:0:
424,192,107788,1,8,0:0:0:0:
344,144,107992,1,0,0:0:0:0:
316,148,108093,1,0,0:0:0:0:
344,88,108195,1,8,0:0:0:0:
352,112,108296,1,8,0:0:0:0:
440,176,108397,1,0,0:0:0:0:
440,176,108499,1,0,0:0:0:0:
440,176,108600,1,0,0:0:0:0:
448,168,108701,1,8,0:0:0:0:
432,224,108904,1,8,0:0:0:0:
424,248,109005,1,0,0:0:0:0:
408,272,109107,1,0,0:0:0:0:
384,288,109208,1,0,0:0:0:0:
440,176,109411,1,8,0:0:0:0:
412,182,109512,1,0,0:0:0:0:
448,200,109614,1,0,0:0:0:0:
424,192,109816,1,8,0:0:0:0:
395,194,109918,1,0,0:0:0:0:
368,176,110019,1,8,0:0:0:0:
368,176,110120,1,8,0:0:0:0:
392,192,110222,1,0,0:0:0:0:
376,216,110323,1,8,0:0:0:0:
249,180,110424,1,0,0:0:0:0:
210,139,110627,1,0,0:0:0:0:
154,131,110829,1,0,0:0:0:0:
185,177,111032,1,0,0:0:0:0:
320,208,111235,5,0,0:0:0:0:
304,184,111337,1,0,0:0:0:0:
328,176,111438,1,8,0:0:0:0:
352,176,111539,1,0,0:0:0:0:
384,176,111641,1,0,0:0:0:0:
408,168,111742,1,8,0:0:0:0:
440,168,111844,1,0,0:0:0:0:
464,168,111945,1,8,0:0:0:0:
480,192,112046,1,0,0:0:0:0:
480,192,112148,1,0,0:0:0:0:
464,168,112249,1,8,0:0:0:0:
480,192,112350,1,0,0:0:0:0:
480,192,112452,1,0,0:0:0:0:
464,168,112553,1,8,0:0:0:0:
480,192,112654,1,0,0:0:0:0:
456,200,112756,1,8,0:0:0:0:
432,200,112857,1,0,0:0:0:0:
408,200,112958,1,0,0:0:0:0:
400,176,113060,1,8,0:0:0:0:
424,168,113161,1,0,0:0:0:0:
448,160,113262,1,0,0:0:0:0:
472,152,113364,1,8,0:0:0:0:
496,168,113465,1,0,0:0:0:0:
472,168,113567,1,8,0:0:0:0:
480,192,113668,1,0,0:0:0:0:
480,192,113769,1,0,0:0:0:0:
464,168,113871,1,0,0:0:0:0:
464,168,113972,1,8,0:0:0:0:
480,192,114073,1,0,0:0:0:0:
480,192,114175,1,0,0:0:0:0:
480,192,114276,1,0,0:0:0:0:
400,176,114377,1,8,0:0:0:0:
368,176,114479,1,0,0:0:0:0:
344,168,114580,1,0,0:0:0:0:
368,152,114681,1,8,0:0:0:0:
392,152,114783,1,0,0:0:0:0:
416,144,114884,1,0,0:0:0:0:
472,168,114985,1,8,0:0:0:0:
472,168,115087,1,0,0:0:0:0:
472,168,115188,1,8,0:0:0:0:
472,168,115289,1,0,0:0:0:0:
472,168,115391,1,0,0:0:0:0:
464,168,115492,1,8,0:0:0:0:
472,168,115594,1,0,0:0:0:0:
472,168,115695,1,0,0:0:0:0:
472,168,115796,1,8,0:0:0:0:
472,168,115898,1,0,0:0:0:0:
448,176,115999,1,8,0:0:0:0:
424,176,116100,1,0,0:0:0:0:
392,176,116202,1,0,0:0:0:0:
464,168,116303,1,8,0:0:0:0:
464,168,116404,1,0,0:0:0:0:
464,168,116506,1,0,0:0:0:0:
448,176,116607,1,8,0:0:0:0:
464,200,116708,1,0,0:0:0:0:
480,184,116810,1,8,0:0:0:0:
456,184,116911,1,0,0:0:0:0:
428,180,117012,1,0,0:0:0:0:
400,176,117113,1,0,0:0:0:0:
401,148,117214,1,8,0:0:0:0:
464,168,117316,1,0,0:0:0:0:
464,168,117417,1,0,0:0:0:0:
464,168,117519,1,0,0:0:0:0:
464,168,117620,1,8,0:0:0:0:
320,208,117721,5,0,0:0:0:0:
304,184,117823,1,0,0:0:0:0:
328,176,117924,1,8,0:0:0:0:
352,176,118025,1,0,0:0:0:0:
384,176,118127,1,0,0:0:0:0:
408,168,118228,1,8,0:0:0:0:
440,168,118330,1,0,0:0:0:0:
464,168,118431,1,8,0:0:0:0:
480,192,118532,1,0,0:0:0:0:
480,192,118634,1,0,0:0:0:0:
464,168,118735,1,8,0:0:0:0:
480,192,118836,1,0,0:0:0:0:
480,192,118938,1,0,0:0:0:0:
464,168,119039,1,8,0:0:0:0:
480,192,119140,1,0,0:0:0:0:
456,200,119242,1,8,0:0:0:0:
428,194,119343,1,0,0:0:0:0:
400,188,119444,1,0,0:0:0:0:
411,162,119546,1,8,0:0:0:0:
464,168,119647,1,0,0:0:0:0:
440,168,119748,1,0,0:0:0:0:
440,168,119850,1,0,0:0:0:0:
467,170,119951,1,8,0:0:0:0:
456,200,120052,1,0,0:0:0:0:
480,192,120154,1,0,0:0:0:0:
480,192,120255,1,0,0:0:0:0:
464,168,120357,1,0,0:0:0:0:
464,168,120458,1,8,0:0:0:0:
480,192,120559,1,0,0:0:0:0:
480,192,120661,1,0,0:0:0:0:
480,192,120762,1,0,0:0:0:0:
400,176,120863,1,8,0:0:0:0:
368,176,120965,1,0,0:0:0:0:
344,168,121066,1,0,0:0:0:0:
368,152,121167,1,8,0:0:0:0:
392,152,121269,1,0,0:0:0:0:
416,144,121370,1,0,0:0:0:0:
472,168,121471,1,8,0:0:0:0:
472,168,121573,1,0,0:0:0:0:
472,168,121674,1,8,0:0:0:0:
472,168,121775,1,0,0:0:0:0:
472,168,121877,1,0,0:0:0:0:
464,168,121978,1,8,0:0:0:0:
472,168,122080,1,0,0:0:0:0:
472,168,122181,1,0,0:0:0:0:
472,168,122282,1,8,0:0:0:0:
472,168,122384,1,0,0:0:0:0:
448,176,122485,1,8,0:0:0:0:
420,174,122586,1,0,0:0:0:0:
395,161,122687,1,0,0:0:0:0:
416,144,122789,1,8,0:0:0:0:
472,168,122890,1,0,0:0:0:0:
464,168,122992,1,0,0:0:0:0:
448,176,123093,1,0,0:0:0:0:
472,168,123194,1,8,0:0:0:0:
474,196,123296,1,0,0:0:0:0:
452,178,123397,1,0,0:0:0:0:
424,171,123498,1,0,0:0:0:0:
421,142,123600,1,8,0:0:0:0:
448,138,123701,1,0,0:0:0:0:
461,113,123802,1,0,0:0:0:0:
448,138,123904,1,0,0:0:0:0:
448,176,124005,1,8,0:0:0:0:
441,203,124106,1,0,0:0:0:0:
