osu file format v14

[General]
AudioFilename: audio.mp3
AudioLeadIn: 0
PreviewTime: 71963
Countdown: 1
SampleSet: None
StackLeniency: 0.7
Mode: 1
LetterboxInBreaks: 0
WidescreenStoryboard: 0

[Editor]
Bookmarks: 14236,69993,71205
DistanceSpacing: 1.2
BeatDivisor: 4
GridSize: 32
TimelineZoom: 2.5

[Metadata]
Title:IX
TitleUnicode:IX
Artist:dj TAKA VS DJ TOTTO feat. Ai
ArtistUnicode:dj TAKA VS DJ TOTTO feat. 藍
Creator:Vlerias
Version:Inner Oni
Source:
Tags:
BeatmapID:1174020
BeatmapSetID:554561

[Difficulty]
HPDrainRate:6.4
CircleSize:2
OverallDifficulty:6.4
ApproachRate:0
SliderMultiplier:1.4
SliderTickRate:1

[Events]
//Background and Video events
0,0,"38088864-cute-anime-wallpaper.jpg",0,0
//Break Periods
//Storyboard Layer 0 (Background)
//Storyboard Layer 1 (Fail)
//Storyboard Layer 2 (Pass)
//Storyboard Layer 3 (Foreground)
//Storyboard Sound Samples

[TimingPoints]
1206,303.030303030303,4,1,0,100,1,0
2190,-125,4,1,0,100,0,0
11887,-100,4,1,0,100,0,0
30145,-125,4,1,0,70,0,0
30902,-166.666666666667,4,1,0,40,0,0
31205,-100,4,1,0,100,0,0
50751,-125,4,1,0,100,0,0
60296,-100,4,1,0,100,0,0
71281,-166.666666666667,4,1,0,100,0,0
72115,-100,4,1,0,100,0,0
72418,-83.3333333333333,4,1,0,100,0,1
91812,-100,4,1,0,100,0,0
100902,-83.3333333333333,4,1,0,100,0,0
101509,-66.6666666666667,4,1,0,100,0,1
111205,-100,4,1,0,100,0,0

[HitObjects]
256,192,1206,12,0,1660,0:0:0:0:
256,192,1812,5,8,0:0:0:0:
256,192,1887,1,8,0:0:0:0:
256,192,1963,1,8,0:0:0:0:
256,192,2039,1,8,0:0:0:0:
256,192,2115,1,0,0:0:0:0:
256,192,2190,12,0,4236,0:0:0:0:
256,192,4539,5,4,0:0:0:0:
256,192,5145,1,0,0:0:0:0:
256,192,5448,1,0,0:0:0:0:
256,192,5599,1,0,0:0:0:0:
256,192,5751,1,4,0:0:0:0:
256,192,6206,1,0,0:0:0:0:
256,192,6357,1,4,0:0:0:0:
256,192,6660,1,0,0:0:0:0:
256,192,6812,1,0,0:0:0:0:
256,192,6963,1,4,0:0:0:0:
256,192,7569,1,0,0:0:0:0:
256,192,7872,1,0,0:0:0:0:
256,192,7948,1,0,0:0:0:0:
256,192,8024,1,0,0:0:0:0:
256,192,8099,1,0,0:0:0:0:
256,192,8175,1,0,0:0:0:0:
256,192,8781,1,0,0:0:0:0:
256,192,8932,1,0,0:0:0:0:
256,192,9084,1,0,0:0:0:0:
256,192,9236,1,0,0:0:0:0:
256,192,9387,1,4,0:0:0:0:
256,192,9690,1,4,0:0:0:0:
256,192,9842,1,4,0:0:0:0:
256,192,9993,1,0,0:0:0:0:
256,192,10296,1,0,0:0:0:0:
256,192,10448,1,0,0:0:0:0:
256,192,10599,1,4,0:0:0:0:
256,192,11206,1,8,0:0:0:0:
256,192,11281,1,8,0:0:0:0:
256,192,11357,1,8,0:0:0:0:
256,192,11433,1,8,0:0:0:0:
256,192,11509,1,8,0:0:0:0:
256,192,11584,1,8,0:0:0:0:
256,192,11660,1,8,0:0:0:0:
256,192,11736,1,8,0:0:0:0:
256,192,11812,1,0,0:0:0:0:
256,192,11887,12,0,13933,0:0:0:0:
256,192,14236,5,4,0:0:0:0:
256,192,16205,1,4,0:0:0:0:
256,192,16660,1,4,0:0:0:0:
256,192,19085,1,4,0:0:0:0:
256,192,20145,1,4,0:0:0:0:
256,192,20448,1,4,0:0:0:0:
256,192,20751,1,8,0:0:0:0:
256,192,20827,1,0,0:0:0:0:
256,192,20902,1,8,0:0:0:0:
256,192,20978,1,8,0:0:0:0:
256,192,21054,1,0,0:0:0:0:
256,192,21130,1,8,0:0:0:0:
256,192,21205,1,8,0:0:0:0:
256,192,21281,1,0,0:0:0:0:
256,192,21357,1,8,0:0:0:0:
256,192,21433,1,8,0:0:0:0:
256,192,21509,1,0,0:0:0:0:
256,192,21812,1,4,0:0:0:0:
256,192,22115,1,0,0:0:0:0:
256,192,22267,1,0,0:0:0:0:
256,192,22418,1,4,0:0:0:0:
256,192,22721,1,0,0:0:0:0:
256,192,22872,1,0,0:0:0:0:
256,192,23024,1,8,0:0:0:0:
256,192,23175,1,0,0:0:0:0:
256,192,23327,1,0,0:0:0:0:
256,192,23478,1,8,0:0:0:0:
256,192,23781,1,8,0:0:0:0:
256,192,23933,1,0,0:0:0:0:
256,192,24085,1,0,0:0:0:0:
256,192,24236,1,4,0:0:0:0:
256,192,24539,1,0,0:0:0:0:
256,192,24690,1,0,0:0:0:0:
256,192,24842,1,8,0:0:0:0:
256,192,24918,1,0,0:0:0:0:
256,192,24993,1,8,0:0:0:0:
256,192,25069,1,8,0:0:0:0:
256,192,25145,1,0,0:0:0:0:
256,192,25221,1,8,0:0:0:0:
256,192,25296,1,0,0:0:0:0:
256,192,25372,1,8,0:0:0:0:
256,192,25448,1,8,0:0:0:0:
256,192,25524,1,8,0:0:0:0:
256,192,25599,1,0,0:0:0:0:
256,192,25675,1,8,0:0:0:0:
256,192,25751,1,8,0:0:0:0:
256,192,25827,1,8,0:0:0:0:
256,192,25902,1,0,0:0:0:0:
256,192,25978,1,8,0:0:0:0:
256,192,26054,1,0,0:0:0:0:
256,192,26130,1,8,0:0:0:0:
256,192,26205,1,8,0:0:0:0:
256,192,26256,1,0,0:0:0:0:
256,192,26307,1,0,0:0:0:0:
256,192,26357,1,0,0:0:0:0:
256,192,26509,1,0,0:0:0:0:
256,192,26660,1,0,0:0:0:0:
256,192,26812,1,0,0:0:0:0:
256,192,26963,1,0,0:0:0:0:
256,192,27115,1,0,0:0:0:0:
256,192,27266,1,0,0:0:0:0:
256,192,27418,1,8,0:0:0:0:
256,192,27468,1,8,0:0:0:0:
256,192,27519,1,8,0:0:0:0:
256,192,27569,1,0,0:0:0:0:
256,192,27721,1,0,0:0:0:0:
256,192,27872,1,8,0:0:0:0:
256,192,28024,1,0,0:0:0:0:
256,192,28175,1,0,0:0:0:0:
256,192,28327,1,8,0:0:0:0:
256,192,28630,1,8,0:0:0:0:
256,192,28781,1,0,0:0:0:0:
256,192,28933,1,0,0:0:0:0:
256,192,29084,1,8,0:0:0:0:
256,192,29135,1,0,0:0:0:0:
256,192,29185,1,8,0:0:0:0:
256,192,29236,1,8,0:0:0:0:
256,192,29312,1,0,0:0:0:0:
256,192,29387,1,8,0:0:0:0:
256,192,29463,1,8,0:0:0:0:
256,192,29539,1,0,0:0:0:0:
256,192,29615,1,8,0:0:0:0:
256,192,29690,1,8,0:0:0:0:
256,192,29741,1,8,0:0:0:0:
256,192,29791,1,0,0:0:0:0:
256,192,29842,1,8,0:0:0:0:
256,192,29918,1,0,0:0:0:0:
256,192,29993,1,8,0:0:0:0:
256,192,30145,1,8,0:0:0:0:
256,192,30296,1,0,0:0:0:0:
256,192,30448,1,8,0:0:0:0:
256,192,30599,1,8,0:0:0:0:
256,192,30751,1,0,0:0:0:0:
256,192,30902,1,12,0:0:0:0:
256,192,31205,1,8,0:0:0:0:
256,192,31281,1,0,0:0:0:0:
256,192,31357,1,8,0:0:0:0:
256,192,31433,1,8,0:0:0:0:
256,192,31509,1,0,0:0:0:0:
256,192,31584,1,8,0:0:0:0:
256,192,31660,1,0,0:0:0:0:
256,192,31736,1,0,0:0:0:0:
256,192,31812,1,8,0:0:0:0:
256,192,31887,1,8,0:0:0:0:
256,192,31963,1,8,0:0:0:0:
256,192,32039,1,0,0:0:0:0:
256,192,32115,1,8,0:0:0:0:
256,192,32190,1,0,0:0:0:0:
256,192,32266,1,8,0:0:0:0:
256,192,32342,1,8,0:0:0:0:
256,192,32418,1,0,0:0:0:0:
256,192,32493,1,8,0:0:0:0:
256,192,32569,1,0,0:0:0:0:
256,192,32645,1,8,0:0:0:0:
256,192,32721,1,8,0:0:0:0:
256,192,32796,1,0,0:0:0:0:
256,192,32872,1,0,0:0:0:0:
256,192,32948,1,8,0:0:0:0:
256,192,33024,1,0,0:0:0:0:
256,192,33099,1,8,0:0:0:0:
256,192,33175,1,8,0:0:0:0:
256,192,33251,1,0,0:0:0:0:
256,192,33327,1,8,0:0:0:0:
256,192,33402,1,8,0:0:0:0:
256,192,33478,1,0,0:0:0:0:
256,192,33554,1,0,0:0:0:0:
256,192,33630,1,8,0:0:0:0:
256,192,33706,1,8,0:0:0:0:
256,192,33781,1,0,0:0:0:0:
256,192,33857,1,8,0:0:0:0:
256,192,33933,1,0,0:0:0:0:
256,192,34009,1,0,0:0:0:0:
256,192,34084,1,8,0:0:0:0:
256,192,34160,1,0,0:0:0:0:
256,192,34236,1,8,0:0:0:0:
256,192,34312,1,0,0:0:0:0:
256,192,34387,1,0,0:0:0:0:
256,192,34463,1,0,0:0:0:0:
256,192,34539,1,8,0:0:0:0:
256,192,34615,1,8,0:0:0:0:
256,192,34690,1,0,0:0:0:0:
256,192,34766,1,8,0:0:0:0:
256,192,34842,1,0,0:0:0:0:
256,192,34918,1,8,0:0:0:0:
256,192,34993,1,8,0:0:0:0:
256,192,35069,1,0,0:0:0:0:
256,192,35145,1,0,0:0:0:0:
256,192,35221,1,8,0:0:0:0:
256,192,35296,1,0,0:0:0:0:
256,192,35372,1,8,0:0:0:0:
256,192,35448,1,0,0:0:0:0:
256,192,35524,1,8,0:0:0:0:
256,192,35599,1,8,0:0:0:0:
256,192,35675,1,0,0:0:0:0:
256,192,35751,1,8,0:0:0:0:
256,192,35827,1,0,0:0:0:0:
256,192,35902,1,8,0:0:0:0:
256,192,35978,1,8,0:0:0:0:
256,192,36054,1,4,0:0:0:0:
256,192,36357,1,0,0:0:0:0:
256,192,36433,1,0,0:0:0:0:
256,192,36509,1,0,0:0:0:0:
256,192,36584,1,0,0:0:0:0:
256,192,36660,1,8,0:0:0:0:
256,192,36736,1,0,0:0:0:0:
256,192,36812,1,8,0:0:0:0:
256,192,36887,1,0,0:0:0:0:
256,192,36963,1,8,0:0:0:0:
256,192,37039,1,8,0:0:0:0:
256,192,37115,1,8,0:0:0:0:
256,192,37190,1,0,0:0:0:0:
256,192,37266,1,8,0:0:0:0:
256,192,37342,1,0,0:0:0:0:
256,192,37418,1,8,0:0:0:0:
256,192,37493,1,8,0:0:0:0:
256,192,37569,1,0,0:0:0:0:
256,192,37645,1,8,0:0:0:0:
256,192,37721,1,8,0:0:0:0:
256,192,37796,1,0,0:0:0:0:
256,192,37872,1,8,0:0:0:0:
256,192,37948,1,0,0:0:0:0:
256,192,38024,1,8,0:0:0:0:
256,192,38099,1,0,0:0:0:0:
256,192,38175,1,8,0:0:0:0:
256,192,38251,1,0,0:0:0:0:
256,192,38327,1,8,0:0:0:0:
256,192,38402,1,0,0:0:0:0:
256,192,38478,1,8,0:0:0:0:
256,192,38554,1,8,0:0:0:0:
256,192,38630,1,0,0:0:0:0:
256,192,38706,1,8,0:0:0:0:
256,192,38781,1,0,0:0:0:0:
256,192,38857,1,8,0:0:0:0:
256,192,38933,1,8,0:0:0:0:
256,192,39009,1,0,0:0:0:0:
256,192,39084,1,8,0:0:0:0:
256,192,39160,1,0,0:0:0:0:
256,192,39236,1,8,0:0:0:0:
256,192,39312,1,8,0:0:0:0:
256,192,39387,1,8,0:0:0:0:
256,192,39438,1,0,0:0:0:0:
256,192,39488,1,8,0:0:0:0:
256,192,39539,1,8,0:0:0:0:
256,192,39690,1,12,0:0:0:0:
256,192,39842,1,0,0:0:0:0:
256,192,39993,1,0,0:0:0:0:
256,192,40145,1,12,0:0:0:0:
256,192,40296,1,0,0:0:0:0:
256,192,40448,1,0,0:0:0:0:
256,192,40599,1,12,0:0:0:0:
256,192,40902,1,8,0:0:0:0:
256,192,40978,1,8,0:0:0:0:
256,192,41054,1,8,0:0:0:0:
256,192,41130,1,8,0:0:0:0:
256,192,41206,1,8,0:0:0:0:
256,192,41281,1,8,0:0:0:0:
256,192,41357,1,8,0:0:0:0:
256,192,41433,1,8,0:0:0:0:
256,192,41509,1,8,0:0:0:0:
256,192,41584,1,8,0:0:0:0:
256,192,41660,1,8,0:0:0:0:
256,192,41736,1,8,0:0:0:0:
256,192,41812,1,8,0:0:0:0:
256,192,41887,1,8,0:0:0:0:
256,192,41963,1,8,0:0:0:0:
256,192,42039,1,8,0:0:0:0:
256,192,42115,1,0,0:0:0:0:
256,192,42190,1,0,0:0:0:0:
256,192,42266,1,0,0:0:0:0:
256,192,42342,1,0,0:0:0:0:
256,192,42418,1,0,0:0:0:0:
256,192,42493,1,0,0:0:0:0:
256,192,42569,1,0,0:0:0:0:
256,192,42645,1,0,0:0:0:0:
256,192,42721,1,8,0:0:0:0:
256,192,42796,1,8,0:0:0:0:
256,192,42872,1,8,0:0:0:0:
256,192,42948,1,8,0:0:0:0:
256,192,43024,1,8,0:0:0:0:
256,192,43099,1,8,0:0:0:0:
256,192,43175,1,8,0:0:0:0:
256,192,43226,1,8,0:0:0:0:
256,192,43276,1,8,0:0:0:0:
256,192,43327,1,0,0:0:0:0:
256,192,43402,1,0,0:0:0:0:
256,192,43478,1,0,0:0:0:0:
256,192,43554,1,0,0:0:0:0:
256,192,43630,1,0,0:0:0:0:
256,192,43706,1,0,0:0:0:0:
256,192,43781,1,0,0:0:0:0:
256,192,43857,1,0,0:0:0:0:
256,192,43933,1,8,0:0:0:0:
256,192,44009,1,8,0:0:0:0:
256,192,44084,1,8,0:0:0:0:
256,192,44160,1,8,0:0:0:0:
256,192,44236,1,8,0:0:0:0:
256,192,44312,1,8,0:0:0:0:
256,192,44387,1,8,0:0:0:0:
256,192,44438,1,8,0:0:0:0:
256,192,44488,1,8,0:0:0:0:
256,192,44539,1,8,0:0:0:0:
256,192,44615,1,0,0:0:0:0:
256,192,44690,1,8,0:0:0:0:
256,192,44766,1,0,0:0:0:0:
256,192,44842,1,8,0:0:0:0:
256,192,44918,1,0,0:0:0:0:
256,192,44993,1,8,0:0:0:0:
256,192,45044,1,0,0:0:0:0:
256,192,45094,1,0,0:0:0:0:
256,192,45145,1,8,0:0:0:0:
256,192,45221,1,8,0:0:0:0:
256,192,45296,1,8,0:0:0:0:
256,192,45372,1,8,0:0:0:0:
256,192,45448,1,0,0:0:0:0:
256,192,45524,1,0,0:0:0:0:
256,192,45599,1,0,0:0:0:0:
256,192,45675,1,0,0:0:0:0:
256,192,45751,1,8,0:0:0:0:
256,192,45827,1,0,0:0:0:0:
256,192,45902,1,8,0:0:0:0:
256,192,45978,1,0,0:0:0:0:
256,192,46054,1,8,0:0:0:0:
256,192,46130,1,0,0:0:0:0:
256,192,46206,1,8,0:0:0:0:
256,192,46281,1,0,0:0:0:0:
256,192,46357,1,8,0:0:0:0:
256,192,46433,1,8,0:0:0:0:
256,192,46509,1,8,0:0:0:0:
256,192,46584,1,8,0:0:0:0:
256,192,46660,1,8,0:0:0:0:
256,192,46736,1,8,0:0:0:0:
256,192,46812,1,8,0:0:0:0:
256,192,46887,1,8,0:0:0:0:
256,192,46963,1,8,0:0:0:0:
256,192,47039,1,0,0:0:0:0:
256,192,47115,1,8,0:0:0:0:
256,192,47190,1,0,0:0:0:0:
256,192,47266,1,8,0:0:0:0:
256,192,47342,1,0,0:0:0:0:
256,192,47418,1,8,0:0:0:0:
256,192,47468,1,0,0:0:0:0:
256,192,47519,1,0,0:0:0:0:
256,192,47569,1,8,0:0:0:0:
256,192,47645,1,0,0:0:0:0:
256,192,47721,1,8,0:0:0:0:
256,192,47796,1,0,0:0:0:0:
256,192,47872,1,8,0:0:0:0:
256,192,47948,1,0,0:0:0:0:
256,192,48024,1,8,0:0:0:0:
256,192,48175,1,4,0:0:0:0:
256,192,48327,1,4,0:0:0:0:
256,192,48478,1,8,0:0:0:0:
256,192,48554,1,8,0:0:0:0:
256,192,48630,1,8,0:0:0:0:
256,192,48706,1,8,0:0:0:0:
256,192,48781,1,8,0:0:0:0:
256,192,48857,1,8,0:0:0:0:
256,192,48933,1,0,0:0:0:0:
256,192,49236,1,4,0:0:0:0:
256,192,49539,1,0,0:0:0:0:
256,192,49690,1,0,0:0:0:0:
256,192,49842,1,8,0:0:0:0:
256,192,49993,1,0,0:0:0:0:
256,192,50145,1,0,0:0:0:0:
256,192,50296,1,0,0:0:0:0:
256,192,50347,1,8,0:0:0:0:
256,192,50397,1,8,0:0:0:0:
256,192,50448,1,0,0:0:0:0:
256,192,50498,1,8,0:0:0:0:
256,192,50549,1,8,0:0:0:0:
256,192,50599,1,8,0:0:0:0:
256,192,50902,1,0,0:0:0:0:
256,192,51054,1,0,0:0:0:0:
256,192,51206,1,0,0:0:0:0:
256,192,51509,1,0,0:0:0:0:
256,192,51660,1,0,0:0:0:0:
256,192,51711,1,8,0:0:0:0:
256,192,51761,1,8,0:0:0:0:
256,192,51812,1,8,0:0:0:0:
256,192,51963,1,0,0:0:0:0:
256,192,52115,1,0,0:0:0:0:
256,192,52266,1,0,0:0:0:0:
256,192,52418,1,12,0:0:0:0:
256,192,52620,1,0,0:0:0:0:
256,192,52822,1,0,0:0:0:0:
256,192,53024,1,12,0:0:0:0:
256,192,53226,1,0,0:0:0:0:
256,192,53428,1,0,0:0:0:0:
256,192,53630,1,12,0:0:0:0:
256,192,53832,1,12,0:0:0:0:
256,192,54034,1,12,0:0:0:0:
256,192,54236,1,12,0:0:0:0:
256,192,55145,1,0,0:0:0:0:
256,192,55296,1,8,0:0:0:0:
256,192,55448,1,12,0:0:0:0:
256,192,55751,1,0,0:0:0:0:
256,192,55902,1,12,0:0:0:0:
256,192,56206,1,0,0:0:0:0:
256,192,56357,1,8,0:0:0:0:
256,192,56509,1,0,0:0:0:0:
256,192,56660,1,8,0:0:0:0:
256,192,56963,1,0,0:0:0:0:
256,192,57115,1,0,0:0:0:0:
256,192,57165,1,8,0:0:0:0:
256,192,57216,1,8,0:0:0:0:
256,192,57266,1,8,0:0:0:0:
256,192,57418,1,0,0:0:0:0:
256,192,57569,1,8,0:0:0:0:
256,192,57721,1,8,0:0:0:0:
256,192,57872,1,0,0:0:0:0:
256,192,57923,1,8,0:0:0:0:
256,192,57973,1,8,0:0:0:0:
256,192,58024,1,8,0:0:0:0:
256,192,58099,1,0,0:0:0:0:
256,192,58175,1,8,0:0:0:0:
256,192,58226,1,8,0:0:0:0:
256,192,58276,1,0,0:0:0:0:
256,192,58327,1,8,0:0:0:0:
256,192,58402,1,0,0:0:0:0:
256,192,58478,1,8,0:0:0:0:
256,192,58529,1,8,0:0:0:0:
256,192,58579,1,8,0:0:0:0:
256,192,58630,1,0,0:0:0:0:
256,192,58706,1,0,0:0:0:0:
256,192,58781,1,8,0:0:0:0:
256,192,58832,1,8,0:0:0:0:
256,192,58882,1,8,0:0:0:0:
256,192,58933,1,8,0:0:0:0:
256,192,58983,1,8,0:0:0:0:
256,192,59034,1,8,0:0:0:0:
256,192,59084,1,8,0:0:0:0:
256,192,59236,1,8,0:0:0:0:
256,192,59387,1,0,0:0:0:0:
256,192,59539,1,0,0:0:0:0:
256,192,59842,1,0,0:0:0:0:
256,192,59993,1,0,0:0:0:0:
256,192,60145,1,0,0:0:0:0:
256,192,60296,2,0,L|256:128,4,35
256,192,60751,1,8,0:0:0:0:
256,192,60902,1,0,0:0:0:0:
256,192,61054,1,0,0:0:0:0:
256,192,61206,1,8,0:0:0:0:
256,192,61357,1,0,0:0:0:0:
256,192,61509,1,8,0:0:0:0:
256,192,61660,1,0,0:0:0:0:
256,192,61812,1,0,0:0:0:0:
256,192,61963,1,8,0:0:0:0:
256,192,62115,1,0,0:0:0:0:
256,192,62266,1,0,0:0:0:0:
256,192,62418,1,8,0:0:0:0:
256,192,62721,1,8,0:0:0:0:
256,192,62771,1,0,0:0:0:0:
256,192,62822,1,8,0:0:0:0:
256,192,62872,1,8,0:0:0:0:
256,192,62948,1,0,0:0:0:0:
256,192,63024,1,8,0:0:0:0:
256,192,63327,1,8,0:0:0:0:
256,192,63377,1,8,0:0:0:0:
256,192,63428,1,0,0:0:0:0:
256,192,63478,1,8,0:0:0:0:
256,192,63554,1,8,0:0:0:0:
256,192,63630,1,0,0:0:0:0:
256,192,63706,1,8,0:0:0:0:
256,192,63781,1,8,0:0:0:0:
256,192,63857,1,0,0:0:0:0:
256,192,63933,1,8,0:0:0:0:
256,192,64009,1,0,0:0:0:0:
256,192,64084,1,8,0:0:0:0:
256,192,64160,1,8,0:0:0:0:
256,192,64236,1,0,0:0:0:0:
256,192,64312,1,8,0:0:0:0:
256,192,64387,1,8,0:0:0:0:
256,192,64463,1,8,0:0:0:0:
256,192,64539,1,0,0:0:0:0:
256,192,64615,1,8,0:0:0:0:
256,192,64690,1,0,0:0:0:0:
256,192,64741,1,8,0:0:0:0:
256,192,64791,1,8,0:0:0:0:
256,192,64842,1,8,0:0:0:0:
256,192,64993,1,0,0:0:0:0:
256,192,65145,1,8,0:0:0:0:
256,192,65296,1,0,0:0:0:0:
256,192,65448,1,0,0:0:0:0:
256,192,65599,1,8,0:0:0:0:
256,192,65751,1,0,0:0:0:0:
256,192,65902,1,0,0:0:0:0:
256,192,66054,1,8,0:0:0:0:
256,192,66205,1,0,0:0:0:0:
256,192,66357,1,8,0:0:0:0:
256,192,66509,1,0,0:0:0:0:
256,192,66660,1,0,0:0:0:0:
256,192,66812,1,8,0:0:0:0:
256,192,66963,1,0,0:0:0:0:
256,192,67115,1,0,0:0:0:0:
256,192,67266,1,8,0:0:0:0:
256,192,67418,1,0,0:0:0:0:
256,192,67569,1,8,0:0:0:0:
256,192,67721,1,0,0:0:0:0:
256,192,67872,1,0,0:0:0:0:
256,192,68024,1,8,0:0:0:0:
256,192,68175,1,0,0:0:0:0:
256,192,68327,1,0,0:0:0:0:
256,192,68478,1,12,0:0:0:0:
256,192,68630,1,12,0:0:0:0:
256,192,68781,1,0,0:0:0:0:
256,192,68933,1,12,0:0:0:0:
256,192,69084,1,0,0:0:0:0:
256,192,69236,1,12,0:0:0:0:
256,192,69387,1,0,0:0:0:0:
256,192,69539,1,12,0:0:0:0:
256,192,69690,1,0,0:0:0:0:
256,192,69741,1,0,0:0:0:0:
256,192,69791,1,8,0:0:0:0:
256,192,69842,1,8,0:0:0:0:
256,192,69892,1,0,0:0:0:0:
256,192,69943,1,8,0:0:0:0:
256,192,69993,1,0,0:0:0:0:
256,192,70044,1,8,0:0:0:0:
256,192,70094,1,8,0:0:0:0:
256,192,70145,1,0,0:0:0:0:
256,192,70195,1,0,0:0:0:0:
256,192,70246,1,8,0:0:0:0:
256,192,70296,1,8,0:0:0:0:
256,192,70347,1,8,0:0:0:0:
256,192,70397,1,0,0:0:0:0:
256,192,70448,1,8,0:0:0:0:
256,192,70498,1,0,0:0:0:0:
256,192,70549,1,8,0:0:0:0:
256,192,70599,1,0,0:0:0:0:
256,192,70650,1,8,0:0:0:0:
256,192,70700,1,8,0:0:0:0:
256,192,70751,1,0,0:0:0:0:
256,192,70801,1,8,0:0:0:0:
256,192,70852,1,8,0:0:0:0:
256,192,70902,1,0,0:0:0:0:
256,192,70953,1,8,0:0:0:0:
256,192,71003,1,0,0:0:0:0:
256,192,71054,1,8,0:0:0:0:
256,192,71104,1,8,0:0:0:0:
256,192,71155,1,8,0:0:0:0:
256,192,71205,1,8,0:0:0:0:
256,192,71256,12,0,71963,0:0:0:0:
256,192,72115,5,8,0:0:0:0:
256,192,72190,1,0,0:0:0:0:
256,192,72266,1,8,0:0:0:0:
256,192,72342,1,8,0:0:0:0:
256,192,72418,1,0,0:0:0:0:
256,192,72569,1,0,0:0:0:0:
256,192,72721,1,0,0:0:0:0:
256,192,72872,1,8,0:0:0:0:
256,192,73024,1,0,0:0:0:0:
256,192,73175,1,0,0:0:0:0:
256,192,73327,1,8,0:0:0:0:
256,192,73478,1,0,0:0:0:0:
256,192,73630,1,0,0:0:0:0:
256,192,73781,1,0,0:0:0:0:
256,192,73933,1,8,0:0:0:0:
256,192,74084,1,0,0:0:0:0:
256,192,74135,1,8,0:0:0:0:
256,192,74185,1,8,0:0:0:0:
256,192,74236,1,8,0:0:0:0:
256,192,74387,1,0,0:0:0:0:
256,192,74539,1,0,0:0:0:0:
256,192,74690,1,0,0:0:0:0:
256,192,74741,1,8,0:0:0:0:
256,192,74791,1,8,0:0:0:0:
256,192,74842,1,8,0:0:0:0:
256,192,74993,1,0,0:0:0:0:
256,192,75145,1,0,0:0:0:0:
256,192,75296,1,0,0:0:0:0:
256,192,75347,1,0,0:0:0:0:
256,192,75397,1,0,0:0:0:0:
256,192,75448,1,0,0:0:0:0:
256,192,75599,1,0,0:0:0:0:
256,192,75751,1,8,0:0:0:0:
256,192,75902,1,0,0:0:0:0:
256,192,76357,1,8,0:0:0:0:
256,192,76433,1,0,0:0:0:0:
256,192,76509,1,8,0:0:0:0:
256,192,76584,1,0,0:0:0:0:
256,192,76660,1,8,0:0:0:0:
256,192,76736,1,8,0:0:0:0:
256,192,76812,1,0,0:0:0:0:
256,192,76887,1,8,0:0:0:0:
256,192,76963,1,8,0:0:0:0:
256,192,77039,1,0,0:0:0:0:
256,192,77115,1,8,0:0:0:0:
256,192,77190,1,8,0:0:0:0:
256,192,77266,1,8,0:0:0:0:
256,192,77418,1,0,0:0:0:0:
256,192,77493,1,8,0:0:0:0:
256,192,77569,1,8,0:0:0:0:
256,192,77872,1,0,0:0:0:0:
256,192,77923,1,8,0:0:0:0:
256,192,77973,1,8,0:0:0:0:
256,192,78175,1,0,0:0:0:0:
256,192,78226,1,8,0:0:0:0:
256,192,78276,1,8,0:0:0:0:
256,192,78478,1,8,0:0:0:0:
256,192,78630,1,0,0:0:0:0:
256,192,78705,1,8,0:0:0:0:
256,192,78781,1,8,0:0:0:0:
256,192,79084,1,0,0:0:0:0:
256,192,79135,1,8,0:0:0:0:
256,192,79185,1,8,0:0:0:0:
256,192,79387,1,0,0:0:0:0:
256,192,79438,1,8,0:0:0:0:
256,192,79488,1,8,0:0:0:0:
256,192,79539,1,8,0:0:0:0:
256,192,79615,1,8,0:0:0:0:
256,192,79690,1,8,0:0:0:0:
256,192,79741,1,0,0:0:0:0:
256,192,79791,1,8,0:0:0:0:
256,192,79842,1,8,0:0:0:0:
256,192,79918,1,8,0:0:0:0:
256,192,79993,1,8,0:0:0:0:
256,192,80044,1,0,0:0:0:0:
256,192,80094,1,8,0:0:0:0:
256,192,80145,1,8,0:0:0:0:
256,192,80221,1,8,0:0:0:0:
256,192,80296,1,8,0:0:0:0:
256,192,80347,1,0,0:0:0:0:
256,192,80397,1,8,0:0:0:0:
256,192,80448,1,0,0:0:0:0:
256,192,80524,1,8,0:0:0:0:
256,192,80599,1,8,0:0:0:0:
256,192,80650,1,0,0:0:0:0:
256,192,80700,1,8,0:0:0:0:
256,192,80751,1,0,0:0:0:0:
256,192,80801,1,8,0:0:0:0:
256,192,80852,1,0,0:0:0:0:
256,192,80902,1,8,0:0:0:0:
256,192,81054,1,12,0:0:0:0:
256,192,81357,1,4,0:0:0:0:
256,192,81711,1,12,0:0:0:0:
256,192,82115,1,0,0:0:0:0:
256,192,82266,1,0,0:0:0:0:
256,192,82418,1,8,0:0:0:0:
256,192,82569,1,8,0:0:0:0:
256,192,82872,1,0,0:0:0:0:
256,192,83024,1,8,0:0:0:0:
256,192,83175,1,8,0:0:0:0:
256,192,83327,1,0,0:0:0:0:
256,192,83478,1,0,0:0:0:0:
256,192,83630,1,0,0:0:0:0:
256,192,83781,1,0,0:0:0:0:
256,192,83857,1,8,0:0:0:0:
256,192,83933,1,8,0:0:0:0:
256,192,84009,1,0,0:0:0:0:
256,192,84084,1,8,0:0:0:0:
256,192,84160,1,8,0:0:0:0:
256,192,84236,1,0,0:0:0:0:
256,192,84312,1,8,0:0:0:0:
256,192,84387,1,0,0:0:0:0:
256,192,84463,1,0,0:0:0:0:
256,192,84539,1,8,0:0:0:0:
256,192,84690,1,8,0:0:0:0:
256,192,84842,1,0,0:0:0:0:
256,192,84993,1,0,0:0:0:0:
256,192,85145,1,8,0:0:0:0:
256,192,85296,1,8,0:0:0:0:
256,192,85448,1,0,0:0:0:0:
256,192,85599,1,8,0:0:0:0:
256,192,85751,1,8,0:0:0:0:
256,192,85902,1,8,0:0:0:0:
256,192,85953,1,0,0:0:0:0:
256,192,86003,1,8,0:0:0:0:
256,192,86054,1,8,0:0:0:0:
256,192,86130,1,8,0:0:0:0:
256,192,86205,1,0,0:0:0:0:
256,192,86281,1,8,0:0:0:0:
256,192,86357,1,8,0:0:0:0:
256,192,86433,1,8,0:0:0:0:
256,192,86509,1,0,0:0:0:0:
256,192,86584,1,8,0:0:0:0:
256,192,86660,1,8,0:0:0:0:
256,192,86736,1,0,0:0:0:0:
256,192,86812,1,8,0:0:0:0:
256,192,86963,1,8,0:0:0:0:
256,192,87115,1,8,0:0:0:0:
256,192,87266,1,0,0:0:0:0:
256,192,87418,1,0,0:0:0:0:
256,192,87569,1,0,0:0:0:0:
256,192,87645,1,8,0:0:0:0:
256,192,87721,1,8,0:0:0:0:
256,192,87796,1,0,0:0:0:0:
256,192,87872,1,8,0:0:0:0:
256,192,87948,1,8,0:0:0:0:
256,192,88024,1,8,0:0:0:0:
256,192,88175,1,8,0:0:0:0:
256,192,88327,1,0,0:0:0:0:
256,192,88478,1,8,0:0:0:0:
256,192,88630,1,8,0:0:0:0:
256,192,88781,1,0,0:0:0:0:
256,192,88857,1,8,0:0:0:0:
256,192,88933,1,0,0:0:0:0:
256,192,89009,1,8,0:0:0:0:
256,192,89084,1,8,0:0:0:0:
256,192,89160,1,8,0:0:0:0:
256,192,89236,1,8,0:0:0:0:
256,192,89387,1,0,0:0:0:0:
256,192,89539,1,0,0:0:0:0:
256,192,89690,1,12,0:0:0:0:
256,192,89842,1,0,0:0:0:0:
256,192,89993,1,0,0:0:0:0:
256,192,90145,1,0,0:0:0:0:
256,192,90296,1,12,0:0:0:0:
256,192,90599,1,4,0:0:0:0:
256,192,90801,1,4,0:0:0:0:
256,192,91003,1,4,0:0:0:0:
256,192,91205,1,4,0:0:0:0:
256,192,91408,1,4,0:0:0:0:
256,192,91610,1,4,0:0:0:0:
256,192,91812,1,4,0:0:0:0:
256,192,93024,1,4,0:0:0:0:
256,192,93933,1,4,0:0:0:0:
256,192,94236,1,4,0:0:0:0:
256,192,95448,1,4,0:0:0:0:
256,192,95751,1,0,0:0:0:0:
256,192,95902,1,0,0:0:0:0:
256,192,96054,1,4,0:0:0:0:
256,192,96357,1,0,0:0:0:0:
256,192,96509,1,0,0:0:0:0:
256,192,96660,1,4,0:0:0:0:
256,192,96963,1,0,0:0:0:0:
256,192,97266,1,4,0:0:0:0:
256,192,97872,1,0,0:0:0:0:
256,192,98478,1,4,0:0:0:0:
256,192,99084,1,4,0:0:0:0:
256,192,99387,1,8,0:0:0:0:
256,192,99463,1,0,0:0:0:0:
256,192,99539,1,8,0:0:0:0:
256,192,99615,1,0,0:0:0:0:
256,192,99690,1,8,0:0:0:0:
256,192,99766,1,8,0:0:0:0:
256,192,99842,1,8,0:0:0:0:
256,192,99918,1,0,0:0:0:0:
256,192,99993,1,0,0:0:0:0:
256,192,100069,1,8,0:0:0:0:
256,192,100145,1,8,0:0:0:0:
256,192,100221,1,8,0:0:0:0:
256,192,100296,1,0,0:0:0:0:
256,192,100902,1,8,0:0:0:0:
256,192,100953,1,8,0:0:0:0:
256,192,101003,1,8,0:0:0:0:
256,192,101054,1,0,0:0:0:0:
256,192,101130,1,0,0:0:0:0:
256,192,101205,1,8,0:0:0:0:
256,192,101256,1,8,0:0:0:0:
256,192,101307,1,0,0:0:0:0:
256,192,101357,1,8,0:0:0:0:
256,192,101433,1,8,0:0:0:0:
256,192,101509,1,0,0:0:0:0:
256,192,101660,1,0,0:0:0:0:
256,192,101812,1,0,0:0:0:0:
256,192,101963,1,8,0:0:0:0:
256,192,102014,1,0,0:0:0:0:
256,192,102064,1,0,0:0:0:0:
256,192,102115,1,8,0:0:0:0:
256,192,102266,1,0,0:0:0:0:
256,192,102418,1,0,0:0:0:0:
256,192,102569,1,8,0:0:0:0:
256,192,102872,1,0,0:0:0:0:
256,192,103024,1,0,0:0:0:0:
256,192,103175,1,0,0:0:0:0:
256,192,103327,1,8,0:0:0:0:
256,192,103478,1,0,0:0:0:0:
256,192,103630,1,0,0:0:0:0:
256,192,103781,1,0,0:0:0:0:
256,192,103832,1,8,0:0:0:0:
256,192,103882,1,8,0:0:0:0:
256,192,103933,1,8,0:0:0:0:
256,192,104084,1,0,0:0:0:0:
256,192,104236,1,8,0:0:0:0:
256,192,104539,1,8,0:0:0:0:
256,192,104690,1,0,0:0:0:0:
256,192,104842,1,8,0:0:0:0:
256,192,104993,1,0,0:0:0:0:
256,192,105044,1,8,0:0:0:0:
256,192,105094,1,8,0:0:0:0:
256,192,105145,1,8,0:0:0:0:
256,192,105448,1,0,0:0:0:0:
256,192,105498,1,0,0:0:0:0:
256,192,105549,1,8,0:0:0:0:
256,192,105599,1,8,0:0:0:0:
256,192,105675,1,8,0:0:0:0:
256,192,105751,1,8,0:0:0:0:
256,192,105827,1,0,0:0:0:0:
256,192,105902,1,8,0:0:0:0:
256,192,105978,1,8,0:0:0:0:
256,192,106054,1,0,0:0:0:0:
256,192,106130,1,8,0:0:0:0:
256,192,106205,1,8,0:0:0:0:
256,192,106281,1,0,0:0:0:0:
256,192,106357,1,8,0:0:0:0:
256,192,106509,1,0,0:0:0:0:
256,192,106584,1,0,0:0:0:0:
256,192,106660,1,8,0:0:0:0:
256,192,106963,1,0,0:0:0:0:
256,192,107014,1,8,0:0:0:0:
256,192,107064,1,8,0:0:0:0:
256,192,107266,1,0,0:0:0:0:
256,192,107317,1,8,0:0:0:0:
256,192,107367,1,8,0:0:0:0:
256,192,107569,1,8,0:0:0:0:
256,192,107721,1,0,0:0:0:0:
256,192,107796,1,0,0:0:0:0:
256,192,107872,1,8,0:0:0:0:
256,192,108175,1,0,0:0:0:0:
256,192,108226,1,8,0:0:0:0:
256,192,108276,1,8,0:0:0:0:
256,192,108327,1,8,0:0:0:0:
256,192,108402,1,8,0:0:0:0:
256,192,108478,1,0,0:0:0:0:
256,192,108554,1,0,0:0:0:0:
256,192,108630,1,0,0:0:0:0:
256,192,108705,1,0,0:0:0:0:
256,192,108781,1,8,0:0:0:0:
256,192,108832,1,0,0:0:0:0:
256,192,108882,1,8,0:0:0:0:
256,192,108933,1,8,0:0:0:0:
256,192,108983,1,8,0:0:0:0:
256,192,109034,1,0,0:0:0:0:
256,192,109084,1,8,0:0:0:0:
256,192,109135,1,0,0:0:0:0:
256,192,109185,1,0,0:0:0:0:
256,192,109236,1,8,0:0:0:0:
256,192,109286,1,8,0:0:0:0:
256,192,109337,1,0,0:0:0:0:
256,192,109387,1,8,0:0:0:0:
256,192,109438,1,8,0:0:0:0:
256,192,109488,1,0,0:0:0:0:
256,192,109539,1,8,0:0:0:0:
256,192,109589,1,0,0:0:0:0:
256,192,109640,1,8,0:0:0:0:
256,192,109690,1,8,0:0:0:0:
256,192,109741,1,8,0:0:0:0:
256,192,109791,1,0,0:0:0:0:
256,192,109842,1,8,0:0:0:0:
256,192,109892,1,0,0:0:0:0:
256,192,109943,1,0,0:0:0:0:
256,192,109993,1,8,0:0:0:0:
256,192,110044,1,8,0:0:0:0:
256,192,110094,1,0,0:0:0:0:
256,192,110145,1,8,0:0:0:0:
256,192,110195,1,8,0:0:0:0:
256,192,110246,1,0,0:0:0:0:
256,192,110296,1,8,0:0:0:0:
256,192,110347,1,8,0:0:0:0:
256,192,110397,1,0,0:0:0:0:
256,192,110448,1,8,0:0:0:0:
256,192,110498,1,0,0:0:0:0:
256,192,110549,1,8,0:0:0:0:
256,192,110599,1,8,0:0:0:0:
256,192,110650,1,0,0:0:0:0:
256,192,110700,1,8,0:0:0:0:
256,192,110751,1,8,0:0:0:0:
256,192,110801,1,0,0:0:0:0:
256,192,110852,1,8,0:0:0:0:
256,192,110902,1,8,0:0:0:0:
256,192,110953,1,0,0:0:0:0:
256,192,111003,1,8,0:0:0:0:
256,192,111054,1,8,0:0:0:0:
256,192,111104,1,8,0:0:0:0:
256,192,111155,1,0,0:0:0:0:
256,192,111205,1,0,0:0:0:0:
256,192,111357,1,0,0:0:0:0:
256,192,111509,1,8,0:0:0:0:
256,192,111812,1,0,0:0:0:0:
256,192,111963,1,0,0:0:0:0:
256,192,112115,1,0,0:0:0:0:
256,192,112266,1,0,0:0:0:0:
256,192,112342,1,0,0:0:0:0:
256,192,112418,1,8,0:0:0:0:
256,192,112569,1,0,0:0:0:0:
256,192,112721,1,8,0:0:0:0:
256,192,112872,1,0,0:0:0:0:
256,192,113024,1,0,0:0:0:0:
256,192,113175,1,8,0:0:0:0:
256,192,113478,1,8,0:0:0:0:
256,192,113630,1,0,0:0:0:0:
256,192,113781,1,0,0:0:0:0:
256,192,113933,1,8,0:0:0:0:
256,192,114236,1,0,0:0:0:0:
256,192,114539,1,0,0:0:0:0:
256,192,114690,1,0,0:0:0:0:
256,192,114842,1,8,0:0:0:0:
256,192,114993,1,0,0:0:0:0:
256,192,115145,1,0,0:0:0:0:
256,192,115296,1,0,0:0:0:0:
256,192,115372,1,0,0:0:0:0:
256,192,115448,1,8,0:0:0:0:
256,192,115599,1,0,0:0:0:0:
256,192,115751,1,0,0:0:0:0:
256,192,115902,1,0,0:0:0:0:
256,192,115953,1,0,0:0:0:0:
256,192,116003,1,0,0:0:0:0:
256,192,116054,1,8,0:0:0:0:
256,192,116357,1,8,0:0:0:0:
256,192,116509,1,0,0:0:0:0:
256,192,116559,1,0,0:0:0:0:
256,192,116610,1,0,0:0:0:0:
256,192,116660,1,8,0:0:0:0:
256,192,116812,1,0,0:0:0:0:
256,192,116863,1,0,0:0:0:0:
256,192,116913,1,0,0:0:0:0:
256,192,116964,1,8,0:0:0:0:
256,192,117115,1,0,0:0:0:0:
256,192,117165,1,0,0:0:0:0:
256,192,117216,1,0,0:0:0:0:
256,192,117266,1,8,0:0:0:0:
256,192,117342,1,8,0:0:0:0:
256,192,117418,1,8,0:0:0:0:
256,192,117493,1,0,0:0:0:0:
256,192,117569,1,8,0:0:0:0:
256,192,117645,1,0,0:0:0:0:
256,192,117721,1,8,0:0:0:0:
256,192,117796,1,8,0:0:0:0:
256,192,117872,1,8,0:0:0:0:
256,192,117948,1,0,0:0:0:0:
256,192,118024,1,8,0:0:0:0:
256,192,118099,1,0,0:0:0:0:
256,192,118175,1,8,0:0:0:0:
256,192,118251,1,0,0:0:0:0:
256,192,118327,1,8,0:0:0:0:
256,192,118402,1,0,0:0:0:0:
256,192,118478,1,8,0:0:0:0:
256,192,118554,1,8,0:0:0:0:
256,192,118630,1,8,0:0:0:0:
256,192,118705,1,8,0:0:0:0:
256,192,118781,1,8,0:0:0:0:
256,192,118857,1,8,0:0:0:0:
256,192,118933,1,8,0:0:0:0:
256,192,119009,1,8,0:0:0:0:
256,192,119084,1,4,0:0:0:0:
256,192,119236,1,4,0:0:0:0:
256,192,119387,1,0,0:0:0:0:
256,192,119438,1,0,0:0:0:0:
256,192,119488,1,0,0:0:0:0:
256,192,119539,1,12,0:0:0:0:
